osu file format v14

[General]
AudioFilename: audio.mp3
AudioLeadIn: 0
PreviewTime: 125161
Countdown: 0
SampleSet: Soft
StackLeniency: 0.7
Mode: 0
LetterboxInBreaks: 0
WidescreenStoryboard: 1

[Editor]
Bookmarks: 8356,25052,41748,58443,75139,91835,108530,125226,141922,156530,160704,177400,194095
DistanceSpacing: 1.1
BeatDivisor: 4
GridSize: 4
TimelineZoom: 1.9

[Metadata]
Title:Make Me Feel
TitleUnicode:Make Me Feel
Artist:Janelle Monae
ArtistUnicode:Janelle MonĂ¡e
Creator:Mao
Version:Normal
Source:
Tags:pop english funk dirty computer robinson appleeaterx mint r&b rnb rhythm and blues soul
BeatmapID:2496614
BeatmapSetID:1163305

[Difficulty]
HPDrainRate:4
CircleSize:3.8
OverallDifficulty:4.5
ApproachRate:5.5
SliderMultiplier:1.4
SliderTickRate:1

[Events]
//Background and Video events
0,0,"makemefeel.jpg",0,0
Video,-31500,"Make Me Feel.avi"
//Break Periods
2,157313,158878
//Storyboard Layer 0 (Background)
//Storyboard Layer 1 (Fail)
//Storyboard Layer 2 (Pass)
//Storyboard Layer 3 (Foreground)
//Storyboard Layer 4 (Overlay)
//Storyboard Sound Samples

[TimingPoints]
9,521.739130434783,4,2,0,30,1,0
9,-111.111111111111,4,2,0,30,0,0
41748,-100,4,2,0,40,0,0
58443,-100,4,2,0,50,0,0
77226,-100,4,2,0,35,0,0
91835,-100,4,2,0,40,0,0
108530,-100,4,2,0,55,0,0
125226,-100,4,2,0,75,0,1
126791,-100,4,2,0,75,0,0
129400,-100,4,2,0,75,0,1
130965,-100,4,2,0,75,0,0
133574,-100,4,2,0,75,0,1
135139,-100,4,2,0,75,0,0
137748,-100,4,2,0,75,0,1
139313,-100,4,2,0,75,0,0
141400,-100,4,2,0,45,0,0
160704,-100,4,2,0,55,0,0
177400,-100,4,2,0,60,0,0
178834,-100,4,2,0,65,0,0
193835,-100,4,2,0,40,0,0

[Colours]
Combo1 : 0,89,255
Combo2 : 248,109,182
Combo3 : 223,131,243
Combo4 : 111,134,227
Combo5 : 255,141,113
Combo6 : 245,10,139
Combo7 : 166,103,250

[HitObjects]
259,212,9,6,0,P|270:183|270:136,1,62.9999980773926,0|2,3:0|2:0,2:0:0:0:
170,47,791,1,0,3:0:0:0:
97,53,1052,1,2,2:0:0:0:
29,181,1574,2,0,L|41:256,1,62.9999980773926,8|0,2:0|3:0,2:0:0:0:
96,287,2095,6,0,P|86:327|92:363,1,62.9999980773926,2|2,3:0|2:0,2:0:0:0:
229,378,2878,1,0,3:0:0:0:
286,334,3139,1,2,2:0:0:0:
251,193,3661,2,0,L|238:127,1,62.9999980773926,10|2,2:0|2:0,2:0:0:0:
252,59,4182,6,2,B|276:39|276:39|316:44,1,62.9999980773926,4|2,2:0|2:0,2:0:0:0:
423,130,4965,1,0,3:0:0:0:
492,110,5226,1,2,2:0:0:0:
500,254,5748,2,0,L|485:338,1,62.9999980773926,8|0,2:0|3:0,2:0:0:0:
433,362,6269,6,0,P|396:360|374:333,1,62.9999980773926,2|2,3:0|2:0,2:0:0:0:
317,211,7052,1,0,3:0:0:0:
327,139,7313,1,2,2:0:0:0:
228,32,7835,2,0,L|158:25,1,62.9999980773926,8|2,2:0|2:0,2:0:0:0:
97,51,8356,54,0,P|106:85|96:117,1,62.9999980773926,0|2,3:0|2:0,2:0:0:0:
41,155,8878,1,8,2:0:0:0:
16,223,9139,2,0,P|7:257|17:289,1,62.9999980773926,0|2,3:0|2:0,2:0:0:0:
131,369,9922,1,8,2:0:0:0:
197,342,10182,1,0,3:0:0:0:
170,274,10443,6,0,P|171:247|145:209,1,62.9999980773926,0|2,3:0|2:0,2:0:0:0:
259,116,11226,1,0,3:0:0:0:
280,46,11487,1,2,2:0:0:0:
413,103,12009,2,0,P|446:93|487:79,1,62.9999980773926,8|0,2:0|3:0,2:0:0:0:
501,150,12530,6,0,P|510:184|500:216,1,62.9999980773926,0|2,3:0|2:0,2:0:0:0:
432,227,13052,1,8,2:0:0:0:
445,298,13313,2,0,P|454:332|444:364,1,62.9999980773926,0|2,3:0|2:0,2:0:0:0:
303,379,14096,1,8,2:0:0:0:
239,344,14356,1,0,3:0:0:0:
269,278,14617,6,0,P|270:251|244:213,1,62.9999980773926,0|2,3:0|2:0,2:0:0:0:
123,286,15400,1,0,3:0:0:0:
96,353,15661,1,2,2:0:0:0:
21,228,16183,2,0,P|11:198|1:167,1,62.9999980773926,8|0,2:0|3:0,2:0:0:0:
29,101,16704,54,0,P|63:95|86:68,1,62.9999980773926,0|2,3:0|2:0,2:0:0:0:
127,18,17226,1,8,2:0:0:0:
194,45,17487,2,0,P|216:74|222:117,1,62.9999980773926,0|2,3:0|2:0,2:0:0:0:
353,161,18269,1,12,2:0:0:0:
409,115,18530,1,0,3:0:0:0:
473,148,18791,6,0,P|452:186|459:224,1,62.9999980773926,0|2,3:0|2:0,2:0:0:0:
487,345,19574,1,0,3:0:0:0:
421,375,19835,1,2,2:0:0:0:
312,279,20356,2,0,P|268:284|236:291,1,62.9999980773926,8|0,2:0|3:0,2:0:0:0:
185,252,20878,6,0,P|175:211|196:184,1,62.9999980773926,0|2,3:0|2:0,2:0:0:0:
234,141,21400,1,8,2:0:0:0:
196,79,21661,2,0,P|176:44|148:15,1,62.9999980773926,0|2,3:0|2:0,2:0:0:0:
29,87,22443,1,8,2:0:0:0:
9,156,22704,1,0,3:0:0:0:
76,181,22965,6,0,P|82:218|59:244,1,62.9999980773926,0|2,3:0|2:0,2:0:0:0:
102,372,23748,1,0,3:0:0:0:
169,354,24009,1,2,2:0:0:0:
305,337,24530,2,0,P|347:345|374:352,1,62.9999980773926,8|0,2:0|3:0,2:0:0:0:
437,364,25052,54,2,P|443:333|470:316,1,62.9999980773926,4|2,2:0|2:0,2:3:0:0:
510,256,25574,1,8,2:0:0:0:
459,204,25835,2,0,P|425:195|393:205,1,62.9999980773926,0|2,3:0|2:0,2:0:0:0:
285,110,26618,1,8,2:0:0:0:
316,45,26878,1,0,3:0:0:0:
255,4,27139,6,0,P|228:3|190:29,1,62.9999980773926,0|2,3:0|2:0,2:0:0:0:
98,126,27922,1,0,3:0:0:0:
27,108,28183,1,2,2:0:0:0:
29,252,28705,2,0,P|44:292|52:323,1,62.9999980773926,10|0,2:0|3:0,2:0:0:0:
96,366,29226,6,0,P|122:349|137:321,1,62.9999980773926,0|2,3:0|2:0,2:0:0:0:
207,302,29748,1,8,2:0:0:0:
253,246,30009,2,0,P|259:215|250:185,1,62.9999980773926,0|2,3:0|2:0,2:0:0:0:
274,42,30792,1,8,2:0:0:0:
340,14,31052,1,0,3:0:0:0:
403,48,31313,6,0,P|418:74|418:105,1,62.9999980773926,0|2,3:0|2:0,2:0:0:0:
386,247,32096,1,0,3:0:0:0:
447,286,32357,1,2,2:0:0:0:
319,354,32879,2,0,P|289:363|259:373,1,62.9999980773926,10|2,2:0|3:0,2:0:0:0:
200,330,33400,54,0,P|196:296|220:275,1,62.9999980773926,4|2,2:0|2:0,2:0:0:0:
281,248,33922,2,0,P|301:209|304:181,1,62.9999980773926,8|0,2:0|3:0,2:0:0:0:
276,123,34443,2,2,P|251:83|231:3,1,125.999996154785,6|10,2:0|2:0,2:3:0:0:
88,31,35487,6,0,P|67:69|74:107,1,62.9999980773926,0|2,3:0|2:0,2:0:0:0:
150,206,36270,1,0,3:0:0:0:
219,225,36531,1,2,2:0:0:0:
146,350,37052,2,0,P|102:355|70:362,1,62.9999980773926,10|0,2:0|3:0,2:0:0:0:
23,317,37574,6,0,P|13:276|34:249,1,62.9999980773926,4|2,2:0|2:0,2:0:0:0:
84,222,38095,2,0,P|125:223|159:219,1,62.9999980773926,8|0,2:0|3:0,2:0:0:0:
202,173,38617,2,2,P|238:131|314:85,1,125.999996154785,6|8,2:0|2:0,2:3:0:0:
346,228,39661,6,0,P|352:265|329:291,1,62.9999980773926,0|2,3:0|2:0,2:0:0:0:
459,365,40444,1,0,3:0:0:0:
512,314,40705,1,2,2:0:0:0:
470,175,41226,1,10,2:0:0:0:
427,116,41487,1,2,2:0:0:0:
460,50,41748,54,2,B|404:79|385:19|319:54,1,140,4|12,1:0|2:0,2:3:0:0:
255,16,42530,2,0,P|281:67|284:164,1,140,4|0,3:0|3:0,2:0:0:0:
239,209,43313,2,0,P|252:258|252:299,1,70,8|0,2:0|2:0,2:0:0:0:
128,366,44095,1,0,2:0:0:0:
61,327,44356,2,0,P|47:284|24:248,1,70,8|4,2:0|3:0,2:0:0:0:
82,201,44878,2,0,P|86:160|113:129,1,70,0|0,2:0|3:0,2:0:0:0:
305,26,45922,6,2,P|353:31|390:111,1,140,4|12,1:0|2:0,2:3:0:0:
458,142,46704,2,0,P|412:158|324:223,1,140,4|4,3:0|2:3,2:0:0:0:
399,254,47487,2,0,P|409:299|426:325,1,70,8|0,2:0|2:0,2:0:0:0:
274,367,48269,1,0,2:0:0:0:
200,344,48530,2,0,P|161:358|134:377,1,70,8|4,2:0|3:0,2:0:0:0:
62,353,49052,2,0,P|22:332|18:296,1,70,0|0,2:0|3:0,2:0:0:0:
196,166,50095,6,2,B|225:110|165:91|200:25,1,140,4|12,1:0|2:0,2:3:0:0:
122,12,50878,2,0,P|63:11|46:102,1,140,4|4,3:0|2:3,2:0:0:0:
84,136,51661,2,0,P|49:165|23:202,1,70,8|0,2:0|2:0,2:0:0:0:
78,331,52443,1,0,2:0:0:0:
143,371,52704,2,0,P|184:359|227:361,1,70,8|4,2:0|3:0,2:0:0:0:
272,311,53226,2,0,P|321:335|320:367,1,70,2|0,2:0|3:0,2:0:0:0:
484,179,54269,5,4,1:0:0:0:
495,102,54530,1,0,2:0:0:0:
440,47,54791,2,0,P|398:48|377:82,1,70,10|4,2:0|3:0,2:0:0:0:
322,117,55313,2,0,P|323:164|320:195,1,70,2|0,2:0|3:0,2:0:0:0:
346,259,55835,2,0,P|310:321|280:385,1,140,8|0,2:0|3:0,2:0:0:0:
38,55,58443,54,2,P|89:40|150:110,1,140,4|8,1:0|2:0,2:3:0:0:
122,166,59226,1,4,2:3:0:0:
49,192,59487,1,2,2:0:0:0:
74,344,60009,2,0,P|34:361|3:378,2,70,8|4|6,2:0|2:3|1:2,2:0:0:0:
146,370,60791,5,2,2:0:0:0:
206,321,61052,2,0,P|216:286|207:251,1,70,8|4,2:0|2:3,2:0:0:0:
144,209,61574,1,2,2:0:0:0:
217,74,62095,2,0,L|316:63,1,70,8|2,2:0|2:0,2:0:0:0:
348,19,62617,6,0,B|408:51|427:-8|483:20,1,140,4|8,1:0|2:0,2:0:0:0:
497,95,63400,1,4,2:3:0:0:
429,132,63661,1,2,2:0:0:0:
463,281,64182,2,2,P|472:331|472:362,2,70,10|4|6,2:0|2:3|1:2,2:0:0:0:
389,257,64965,6,0,P|350:274|348:311,1,70,2|8,2:0|2:0,2:0:0:0:
289,352,65487,2,0,P|251:370|226:354,1,70,4|2,2:3|2:0,2:0:0:0:
204,205,66269,2,0,P|219:158|228:131,1,70,10|2,2:0|2:0,2:0:0:0:
211,62,66791,54,2,P|181:29|87:53,1,140,4|8,1:0|2:0,2:3:0:0:
36,94,67574,2,0,P|43:137|41:175,1,70,4|2,2:3|2:0,2:0:0:0:
104,209,68095,1,4,2:0:0:0:
74,280,68356,2,0,P|43:299|-1:285,2,70,10|4|6,2:0|2:3|1:2,2:0:0:0:
199,369,69400,6,0,P|240:356|284:349,1,70,8|6,2:0|2:3,2:0:0:0:
320,296,69922,2,0,P|377:301|426:376,1,140,2|10,2:0|2:0,2:0:0:0:
489,223,70965,6,2,P|493:170|503:79,1,140,4|8,1:0|2:0,2:3:0:0:
458,19,71748,1,4,2:3:0:0:
385,45,72009,1,2,2:0:0:0:
237,87,72530,2,0,P|183:63|175:41,2,70,8|4|6,2:0|2:3|1:2,2:0:0:0:
313,174,73443,6,2,P|306:211|303:253,1,70,2|2,2:0|2:0,2:3:0:0:
275,252,73835,2,2,P|265:297|265:331,1,70,4|2,1:2|2:0,2:3:0:0:
242,338,74226,2,2,P|203:332|171:359,1,70,2|2,2:0|2:0,2:3:0:0:
162,370,74617,2,2,P|110:364|11:355,1,140,12|0,2:0|2:0,2:3:0:0:
483,32,77226,54,0,P|456:31|403:92,1,105,6|2,3:0|2:0,2:0:0:0:
404,111,77748,2,0,L|418:193,1,70,8|8,2:0|3:0,2:0:0:0:
478,226,78269,1,2,2:0:0:0:
398,357,78791,2,0,P|358:342|316:339,1,70,10|0,2:0|3:0,2:0:0:0:
259,368,79313,6,2,P|231:353|212:314,1,70,4|2,2:0|2:0,2:3:0:0:
241,248,79835,1,8,2:0:0:0:
306,207,80096,2,0,P|312:176|304:134,1,70,8|2,3:0|2:0,2:0:0:0:
200,25,80879,1,8,2:0:0:0:
124,14,81139,1,0,3:0:0:0:
57,52,81400,6,0,P|42:78|66:149,1,105,6|2,3:0|2:0,2:0:0:0:
82,166,81922,2,0,P|122:155|151:154,1,70,8|8,2:0|3:0,2:0:0:0:
224,173,82443,1,2,2:0:0:0:
225,327,82966,2,0,P|196:344|169:369,1,70,10|0,2:0|3:0,2:0:0:0:
92,375,83487,6,0,P|47:362|43:315,1,70,6|2,3:2|2:0,2:0:0:0:
95,291,84009,2,0,P|104:248|119:218,1,70,8|2,2:0|2:0,2:0:0:0:
191,234,84530,2,2,P|244:211|323:190,1,140,2|8,2:0|3:2,2:3:0:0:
468,242,85574,54,0,P|466:293|468:364,1,105,2|2,3:2|2:0,2:0:0:0:
448,368,86095,1,12,2:0:0:0:
370,365,86356,2,0,P|361:301|342:220,1,140,6|2,3:0|3:0,2:0:0:0:
414,195,87139,2,0,P|419:151|436:121,1,70,8|0,2:0|3:0,2:0:0:0:
470,62,87661,6,0,P|456:34|420:25,1,70,6|2,3:2|2:0,2:0:0:0:
350,56,88182,2,0,P|318:58|280:54,1,70,8|8,2:0|3:0,2:0:0:0:
212,17,88704,2,2,P|176:59|92:100,1,140,2|8,2:0|3:2,2:0:0:0:
22,230,89748,5,2,3:2:0:0:
27,306,90009,1,2,2:0:0:0:
169,362,90530,1,4,3:0:0:0:
268,244,91052,1,2,2:0:0:0:
231,176,91313,2,2,P|207:137|186:105,1,70,10|0,2:0|2:3,2:3:0:0:
124,150,91835,6,2,B|161:200|105:228|150:288,1,140,4|12,1:0|2:0,2:3:0:0:
142,360,92617,2,0,P|194:321|274:327,1,140,4|0,3:0|3:0,2:0:0:0:
341,306,93400,2,0,P|354:355|354:396,1,70,8|0,2:0|2:0,2:0:0:0:
463,264,94182,1,0,2:0:0:0:
407,211,94443,2,0,P|393:168|370:132,1,70,8|4,2:0|3:0,2:0:0:0:
447,107,94965,2,0,P|451:66|478:35,1,70,0|0,2:0|3:0,2:0:0:0:
252,1,96009,54,2,P|176:18|96:36,1,140,4|12,1:0|2:0,2:3:0:0:
41,7,96791,2,0,P|82:62|89:138,1,140,4|4,3:0|2:3,2:0:0:0:
22,168,97574,2,0,P|32:213|55:238,1,70,8|0,2:0|2:0,2:0:0:0:
162,332,98356,1,0,2:0:0:0:
227,371,98617,2,0,P|256:352|289:341,1,70,8|4,2:0|3:0,2:0:0:0:
360,310,99139,2,0,P|374:341|406:352,1,70,0|0,2:0|3:0,2:0:0:0:
510,146,100182,6,2,B|481:90|541:71|506:5,1,140,4|12,1:0|2:0,2:3:0:0:
431,3,100965,2,0,P|376:40|400:113,1,140,4|4,3:0|2:3,2:0:0:0:
435,166,101748,2,0,P|400:195|374:232,1,70,8|0,2:0|2:0,2:0:0:0:
314,350,102530,1,0,2:0:0:0:
237,355,102791,2,0,P|202:356|168:367,1,70,8|4,2:0|3:0,2:0:0:0:
101,329,103313,2,0,P|83:357|49:362,1,70,2|0,2:0|3:0,2:0:0:0:
5,135,104356,5,4,1:0:0:0:
13,58,104617,1,0,2:0:0:0:
84,28,104878,2,0,P|126:29|147:63,1,70,10|4,2:0|3:0,2:0:0:0:
220,56,105400,2,0,P|221:103|218:134,1,70,2|0,2:0|3:0,2:0:0:0:
279,174,105922,2,2,P|260:243|240:316,1,140,10|0,2:0|3:0,2:3:0:0:
474,55,108530,6,2,P|423:40|383:100,1,105,4|2,1:0|2:0,2:3:0:0:
378,98,109052,2,0,P|391:139|394:172,1,70,8|4,2:0|2:3,2:0:0:0:
466,192,109574,1,2,2:0:0:0:
438,343,110096,2,0,P|478:360|509:377,2,70,8|4|6,2:0|2:3|1:2,2:0:0:0:
366,370,110878,53,2,2:0:0:0:
292,345,111139,2,0,P|282:310|291:275,1,70,8|4,2:0|2:3,2:0:0:0:
342,221,111661,1,2,2:0:0:0:
309,70,112182,2,0,L|239:77,1,70,8|2,2:0|2:0,2:0:0:0:
171,40,112704,6,2,P|108:37|52:21,1,105,6|0,1:2|2:0,2:3:0:0:
40,35,113226,2,0,P|54:79|56:119,1,70,8|4,2:0|2:3,2:0:0:0:
13,167,113748,1,2,2:0:0:0:
70,309,114269,2,0,P|61:359|61:390,2,70,10|4|6,2:0|2:3|1:2,2:0:0:0:
129,259,115052,6,0,P|168:276|170:313,1,70,2|8,2:0|2:0,2:0:0:0:
225,357,115574,2,0,P|256:369|284:350,1,70,4|2,2:3|2:0,2:0:0:0:
358,328,116095,1,2,2:0:0:0:
423,367,116356,2,0,P|438:330|447:293,1,70,10|2,2:0|2:0,2:0:0:0:
505,252,116878,6,2,P|477:202|462:149,1,105,4|2,1:0|2:0,2:3:0:0:
455,129,117400,2,0,P|461:93|473:51,2,70,8|4|2,2:0|2:3|2:0,2:0:0:0:
379,146,118182,1,4,2:0:0:0:
323,92,118443,2,0,P|304:61|318:17,2,70,10|4|6,2:0|2:3|1:2,2:0:0:0:
290,242,119487,54,0,P|255:249|222:260,1,70,8|6,2:0|2:3,2:0:0:0:
195,332,120009,2,0,P|138:322|71:381,1,140,2|10,2:0|2:0,2:0:0:0:
25,224,121052,6,2,P|34:170|33:100,1,105,6|2,1:2|2:0,2:3:0:0:
15,100,121574,2,0,P|6:49|5:21,1,70,8|4,2:0|2:3,2:0:0:0:
77,3,122096,1,2,2:0:0:0:
217,66,122617,2,0,P|271:42|279:20,2,70,8|4|6,2:0|2:3|1:2,2:0:0:0:
182,136,123400,5,2,2:0:0:0:
182,136,123530,2,2,P|178:173|178:215,1,70,2|2,2:0|2:0,2:3:0:0:
203,219,123922,2,2,P|196:264|199:298,1,70,4|2,1:2|2:0,2:3:0:0:
225,299,124313,2,2,P|210:330|220:362,1,70,2|2,2:0|2:0,2:3:0:0:
244,380,124704,1,12,2:0:0:0:
395,351,125226,22,0,L|467:338,1,70,6|14,1:0|1:3,2:0:0:0:
474,305,125617,1,6,2:3:0:0:
474,305,125748,2,0,L|416:265,1,70,14|14,1:2|1:3,2:0:0:0:
420,229,126139,1,4,2:3:0:0:
420,229,126269,2,0,L|492:216,1,70,2|14,1:0|1:2,2:0:0:0:
502,140,126791,2,2,L|444:100,1,70,4|4,1:0|3:0,2:3:0:0:
367,101,127313,38,0,P|341:59|351:-4,2,105,4|4|6,1:0|2:0|3:0,2:3:0:0:
319,161,128356,1,4,2:0:0:0:
228,36,128878,1,10,2:0:0:0:
151,24,129139,1,2,2:0:0:0:
104,85,129400,70,0,L|32:98,1,70,6|14,1:0|1:3,2:0:0:0:
25,131,129791,1,6,2:3:0:0:
25,131,129922,2,0,L|83:171,1,70,14|14,1:2|1:3,2:0:0:0:
79,207,130313,1,4,2:3:0:0:
79,207,130443,2,0,L|7:220,1,70,2|14,1:0|1:2,2:0:0:0:
2,296,130965,2,0,L|60:336,1,70,8|4,2:0|2:3,2:0:0:0:
121,381,131487,54,2,B|189:361|160:315|228:296,1,140,4|8,1:0|2:0,2:3:0:0:
270,360,132269,1,6,2:3:0:0:
335,319,132530,2,2,P|379:328|408:342,1,70,4|0,2:0|2:0,2:3:0:0:
467,378,133052,1,4,2:0:0:0:
502,228,133574,54,0,L|489:156,1,70,6|14,1:0|1:3,2:0:0:0:
456,149,133965,1,6,2:3:0:0:
456,149,134096,2,0,L|416:207,1,70,14|14,1:2|1:3,2:0:0:0:
380,203,134487,1,4,2:3:0:0:
380,203,134617,2,0,L|367:131,1,70,2|6,1:0|1:2,2:0:0:0:
291,126,135139,2,2,L|251:184,1,70,14|4,2:0|2:3,2:3:0:0:
192,133,135661,6,0,P|179:75|157:16,2,105,6|2|6,1:2|2:0|2:3,2:3:0:0:
155,200,136704,1,2,2:0:0:0:
20,274,137226,1,10,2:0:0:0:
42,347,137487,1,4,2:0:0:0:
114,372,137748,54,0,L|127:300,1,70,6|14,1:0|1:3,2:0:0:0:
160,293,138139,1,6,2:3:0:0:
160,293,138270,2,0,L|200:351,1,70,14|14,1:2|1:3,2:0:0:0:
236,347,138661,1,4,2:3:0:0:
236,347,138791,2,0,L|249:275,1,70,2|14,1:0|1:2,2:0:0:0:
322,256,139313,2,0,L|362:314,1,70,12|2,2:0|2:0,2:0:0:0:
414,370,139835,38,2,B|464:371|491:332|488:256,1,140,4|8,1:0|2:0,2:3:0:0:
444,208,140617,1,6,2:3:0:0:
501,157,140878,1,4,2:0:0:0:
434,17,141400,2,2,P|400:20|356:35,1,70,8|2,2:0|2:0,2:3:0:0:
331,99,141922,6,2,B|281:62|253:118|193:73,1,140,4|12,1:0|2:0,2:3:0:0:
125,50,142704,2,0,P|164:102|158:182,1,140,4|0,3:0|3:0,2:0:0:0:
85,186,143487,2,0,P|62:158|36:136,1,70,8|0,2:0|2:0,2:0:0:0:
17,289,144269,1,0,2:0:0:0:
51,357,144530,2,0,P|94:371|130:394,1,70,8|4,2:0|3:0,2:0:0:0:
181,342,145052,2,0,P|222:338|253:311,1,70,0|0,2:0|3:0,2:0:0:0:
394,144,146096,6,2,P|377:68|426:23,1,140,4|12,1:0|2:0,2:3:0:0:
486,57,146878,2,0,P|485:122|473:204,1,140,4|4,3:0|2:3,2:0:0:0:
406,233,147661,2,0,P|416:278|444:298,1,70,8|0,2:0|2:0,2:0:0:0:
309,384,148443,1,0,2:0:0:0:
250,333,148704,2,0,P|239:299|219:270,1,70,8|4,2:0|3:0,2:0:0:0:
275,217,149226,2,0,P|285:184|316:170,1,70,2|0,2:0|3:0,2:0:0:0:
142,19,150269,6,2,B|81:51|62:-8|6:20,1,140,4|12,1:0|2:0,2:3:0:0:
18,96,151052,2,0,P|73:133|49:206,1,140,4|4,3:0|2:3,2:0:0:0:
14,260,151835,2,0,P|40:282|62:310,1,70,8|0,2:0|2:0,2:0:0:0:
202,374,152617,1,0,2:0:0:0:
259,322,152878,2,0,P|274:289|268:248,1,70,8|4,2:0|3:0,2:0:0:0:
232,188,153400,2,0,P|204:170|199:136,1,70,2|0,2:0|3:0,2:0:0:0:
397,17,154443,53,4,1:0:0:0:
471,36,154704,1,0,2:0:0:0:
503,105,154965,2,0,P|502:147|468:168,1,70,10|4,2:0|3:0,2:0:0:0:
407,181,155487,2,0,P|399:223|409:259,1,70,2|0,2:0|3:0,2:0:0:0:
459,303,156009,2,2,B|430:294|334:339|305:327,1,140,10|0,2:0|2:1,2:1:0:0:
40,362,160704,6,2,P|23:311|17:248,1,105,4|2,1:0|2:0,2:3:0:0:
42,246,161226,2,0,P|40:204|32:172,1,70,8|4,2:0|2:3,2:0:0:0:
13,102,161748,1,2,2:0:0:0:
148,28,162269,2,0,P|176:17|236:20,2,70,8|4|6,2:0|2:3|1:2,2:0:0:0:
128,102,163052,5,2,2:0:0:0:
194,140,163313,2,0,P|213:169|222:202,1,70,8|4,2:0|2:3,2:0:0:0:
185,270,163835,1,2,2:0:0:0:
305,365,164356,2,0,L|375:358,1,70,8|2,2:0|2:0,2:0:0:0:
449,375,164878,6,2,P|452:312|468:256,1,105,6|0,1:2|2:0,2:3:0:0:
490,268,165400,2,0,P|485:233|473:200,1,70,8|4,2:0|2:3,2:0:0:0:
508,131,165922,1,2,2:0:0:0:
385,37,166443,2,2,P|336:52|309:67,2,70,10|4|6,2:0|2:3|1:2,2:0:0:0:
419,106,167226,54,0,P|402:145|365:147,1,70,2|8,2:0|2:0,2:0:0:0:
300,152,167748,2,0,P|288:183|307:211,1,70,4|2,2:3|2:0,2:0:0:0:
356,270,168269,1,2,2:0:0:0:
346,346,168530,2,0,P|312:355|279:368,1,70,10|2,2:0|2:0,2:0:0:0:
202,373,169052,6,2,P|174:323|159:270,1,105,4|2,1:0|2:0,2:3:0:0:
134,266,169574,2,0,P|140:230|152:188,2,70,8|4|2,2:0|2:3|2:0,2:0:0:0:
89,328,170356,1,4,2:0:0:0:
26,282,170617,2,0,P|-5:304|-10:339,2,70,10|4|6,2:0|2:3|1:2,2:0:0:0:
52,129,171661,6,0,P|45:94|34:61,1,70,8|6,2:0|2:3,2:0:0:0:
101,24,172183,2,0,P|158:14|194:84,1,140,2|10,2:0|2:0,2:0:0:0:
266,213,173226,6,2,P|265:265|256:317,1,105,6|2,1:2|2:0,2:3:0:0:
269,343,173748,2,0,P|320:334|348:333,1,70,8|4,2:0|2:3,2:0:0:0:
402,375,174270,1,2,2:0:0:0:
493,251,174791,2,2,B|464:192|511:162|467:198|447:122,1,140,14|6,1:2|1:2,2:3:0:0:
463,48,175574,53,2,2:0:0:0:
463,48,175704,2,2,P|426:41|384:38,1,70,2|2,2:0|2:0,2:3:0:0:
373,57,176096,2,2,P|328:47|294:55,1,70,4|2,1:2|2:0,2:3:0:0:
291,75,176487,2,2,P|261:58|228:65,1,70,2|2,2:0|2:0,2:3:0:0:
210,87,176878,1,12,2:0:0:0:
67,22,177400,54,0,B|53:56|53:56|70:85|70:85|55:119,1,105,6|2,1:0|3:0,2:0:0:0:
76,137,177922,2,0,B|62:171|62:171|79:200|79:200|64:234,1,105,10|2,3:2|3:0,2:0:0:0:
89,247,178443,2,0,B|75:281|75:281|92:310|92:310|77:344,1,105,6|0,2:0|2:0,2:0:0:0:
69,368,178965,2,2,P|32:344|-9:350,2,70,12|4|6,2:0|2:3|1:2,2:3:0:0:
148,383,179748,53,2,2:0:0:0:
193,320,180009,2,0,P|203:274|200:241,1,70,8|4,2:0|2:3,2:0:0:0:
187,175,180530,1,2,2:0:0:0:
238,29,181052,2,0,P|284:20|327:20,1,70,8|2,2:0|2:0,2:0:0:0:
384,21,181574,54,0,B|370:55|370:55|387:84|387:84|372:118,1,105,6|2,1:2|2:3,2:0:0:0:
393,136,182096,2,0,B|379:170|379:170|396:199|396:199|381:233,1,105,10|2,3:2|2:3,2:0:0:0:
406,246,182617,2,0,B|392:280|392:280|409:309|409:309|394:343,1,105,6|2,3:2|2:3,2:0:0:0:
380,366,183139,2,2,P|331:356|302:348,2,70,6|4|6,2:0|3:0|1:2,2:3:0:0:
457,383,183922,54,0,P|489:354|482:316,1,70,2|8,2:0|2:0,2:0:0:0:
507,254,184443,2,0,P|489:214|502:182,1,70,4|2,2:3|2:0,2:0:0:0:
475,37,185226,2,0,P|428:42|399:56,1,70,8|2,2:0|2:0,2:0:0:0:
379,122,185748,54,0,B|345:108|345:108|316:125|316:125|282:110,1,105,6|2,1:2|2:3,2:0:0:0:
264,131,186270,2,0,B|230:117|230:117|201:134|201:134|167:119,1,105,10|4,3:2|2:3,2:0:0:0:
154,144,186791,2,0,B|120:130|120:130|91:147|91:147|57:132,1,105,6|0,3:2|2:0,2:0:0:0:
35,118,187313,2,2,P|37:84|71:52,2,70,6|4|6,2:0|2:3|1:2,2:3:0:0:
2,187,188095,5,2,2:0:0:0:
36,256,188356,2,0,P|21:297|28:332,1,70,8|4,2:0|2:3,2:0:0:0:
77,378,188878,2,2,P|118:362|147:356,1,70,2|2,2:0|2:0,2:3:0:0:
217,376,189400,1,8,2:0:0:0:
249,305,189661,1,2,2:0:0:0:
309,352,189922,54,0,B|333:324|333:324|327:291|327:291|353:264,1,105,6|2,1:2|2:3,2:0:0:0:
340,241,190444,2,0,B|364:213|364:213|358:180|358:180|384:153,1,105,14|4,3:2|2:3,2:0:0:0:
365,133,190965,2,0,B|389:105|389:105|383:72|383:72|409:45,1,105,2|0,3:2|2:0,2:0:0:0:
430,30,191487,2,2,P|461:43|479:86,2,70,4|4|6,1:0|2:3|1:2,2:3:0:0:
256,192,192269,12,2,193835,2:0:0:0:
