osu file format v14

[General]
AudioFilename: audio.mp3
AudioLeadIn: 0
PreviewTime: 125161
Countdown: 0
SampleSet: Soft
StackLeniency: 0.7
Mode: 0
LetterboxInBreaks: 0
WidescreenStoryboard: 1

[Editor]
Bookmarks: 8356,25052,41748,58443,75139,91835,108530,125226,141922,156530,160704,177400,194095
DistanceSpacing: 0.4
BeatDivisor: 4
GridSize: 4
TimelineZoom: 1.9

[Metadata]
Title:Make Me Feel
TitleUnicode:Make Me Feel
Artist:Janelle Monae
ArtistUnicode:Janelle MonĂ¡e
Creator:Mao
Version:Hard
Source:
Tags:pop english funk dirty computer robinson appleeaterx mint r&b rnb rhythm and blues soul
BeatmapID:2495187
BeatmapSetID:1163305

[Difficulty]
HPDrainRate:5
CircleSize:4.1
OverallDifficulty:6.5
ApproachRate:7.5
SliderMultiplier:1.7
SliderTickRate:1

[Events]
//Background and Video events
0,0,"makemefeel.jpg",0,0
Video,-31500,"Make Me Feel.avi"
//Break Periods
//Storyboard Layer 0 (Background)
//Storyboard Layer 1 (Fail)
//Storyboard Layer 2 (Pass)
//Storyboard Layer 3 (Foreground)
//Storyboard Layer 4 (Overlay)
//Storyboard Sound Samples

[TimingPoints]
9,521.739130434783,4,2,0,30,1,0
269,-133.333333333333,4,2,0,30,0,0
41748,-100,4,2,0,40,0,0
44878,-133.333333333333,4,2,0,40,0,0
45922,-100,4,2,0,40,0,0
49052,-133.333333333333,4,2,0,40,0,0
50095,-100,4,2,0,40,0,0
53226,-133.333333333333,4,2,0,40,0,0
58443,-120.481927710843,4,2,0,50,0,0
73443,-100,4,2,0,50,0,0
74617,-133.333333333333,4,2,0,50,0,0
77226,-120.481927710843,4,2,0,35,0,0
89356,-120.481927710843,4,2,0,5,0,0
89487,-120.481927710843,4,2,0,35,0,0
91835,-100,4,2,0,40,0,0
94965,-133.333333333333,4,2,0,40,0,0
96009,-100,4,2,0,40,0,0
99139,-133.333333333333,4,2,0,40,0,0
100182,-100,4,2,0,40,0,0
103313,-133.333333333333,4,2,0,40,0,0
108530,-100,4,2,0,55,0,0
123530,-83.3333333333333,4,2,0,55,0,0
124704,-100,4,2,0,55,0,0
125226,-100,4,2,0,75,0,1
126791,-83.3333333333333,4,2,0,75,0,0
129400,-100,4,2,0,75,0,1
130965,-83.3333333333333,4,2,0,75,0,0
133574,-100,4,2,0,75,0,1
135139,-83.3333333333333,4,2,0,75,0,0
137748,-100,4,2,0,75,0,1
139313,-83.3333333333333,4,2,0,75,0,0
141400,-83.3333333333333,4,2,0,45,0,0
141922,-100,4,2,0,45,0,0
145052,-133.333333333333,4,2,0,45,0,0
146096,-100,4,2,0,45,0,0
149226,-133.333333333333,4,2,0,45,0,0
150269,-100,4,2,0,45,0,0
153400,-133.333333333333,4,2,0,45,0,0
153922,-100,4,2,0,45,0,0
155487,-133.333333333333,4,2,0,45,0,0
156009,-83.3333333333333,4,2,0,45,0,0
160704,-100,4,2,0,55,0,0
173226,-100,4,2,0,55,0,0
175704,-83.3333333333333,4,2,0,55,0,0
176878,-100,4,2,0,55,0,0
177400,-100,4,2,0,60,0,0
178704,-100,4,2,0,65,0,0
178965,-83.3333333333333,4,2,0,65,0,0
181835,-100,4,2,0,65,0,0
183139,-83.3333333333333,4,2,0,65,0,0
186009,-100,4,2,0,65,0,0
187313,-83.3333333333333,4,2,0,65,0,0
190183,-100,4,2,0,65,0,0
191226,-83.3333333333333,4,2,0,65,0,0
193574,-100,4,2,0,40,0,0

[Colours]
Combo1 : 0,89,255
Combo2 : 248,109,182
Combo3 : 223,131,243
Combo4 : 111,134,227
Combo5 : 255,141,113
Combo6 : 245,10,139
Combo7 : 166,103,250

[HitObjects]
66,42,9,5,0,3:0:0:0:
127,97,269,2,0,L|120:177,1,63.7500024318696,2|8,2:0|2:0,2:0:0:0:
48,201,791,1,0,3:0:0:0:
78,277,1052,1,2,2:0:0:0:
238,236,1574,2,0,P|276:251|293:287,1,63.7500024318696,8|0,2:0|3:0,2:0:0:0:
296,351,2095,5,2,3:0:0:0:
296,351,2356,2,0,L|381:366,1,63.7500024318696,2|8,2:0|2:0,2:0:0:0:
415,300,2878,1,0,3:0:0:0:
491,331,3139,1,2,2:0:0:0:
421,180,3661,1,10,2:0:0:0:
421,180,3922,1,2,2:0:0:0:
476,118,4182,5,4,2:0:0:0:
476,118,4443,2,0,P|479:73|469:47,1,63.7500024318696,2|8,2:0|2:0,2:0:0:0:
398,19,4965,1,0,3:0:0:0:
338,76,5226,1,2,2:0:0:0:
179,28,5748,2,0,L|94:42,1,63.7500024318696,8|0,2:0|3:0,2:0:0:0:
66,104,6269,5,2,3:0:0:0:
66,104,6530,2,0,P|68:149|86:182,1,63.7500024318696,2|8,2:0|2:0,2:0:0:0:
155,188,7052,1,0,3:0:0:0:
234,210,7313,1,2,2:0:0:0:
313,64,7835,2,0,L|365:73,1,31.8750012159348,8|0,2:0|3:0,2:0:0:0:
376,43,8095,1,2,2:0:0:0:
449,81,8356,54,0,P|453:128|458:151,1,63.7500024318696,0|2,3:0|2:0,2:0:0:0:
503,212,8878,1,8,2:0:0:0:
430,251,9139,1,0,3:0:0:0:
379,185,9400,2,0,P|334:188|276:213,1,95.6250036478044,2|0,2:0|2:0,2:0:0:0:
274,245,9922,2,0,P|279:290|284:334,1,63.7500024318696,8|0,2:0|3:0,2:0:0:0:
213,356,10443,5,0,3:0:0:0:
213,356,10704,2,0,P|174:374|143:370,1,63.7500024318696,2|8,2:0|2:0,2:0:0:0:
75,344,11226,1,0,3:0:0:0:
112,270,11487,1,2,2:0:0:0:
21,130,12009,2,0,L|11:81,1,31.8750012159348,8|0,2:0|2:0,2:0:0:0:
26,59,12269,1,0,3:0:0:0:
99,20,12530,6,0,P|134:44|142:75,1,63.7500024318696,0|2,3:0|2:0,2:0:0:0:
134,145,13052,1,8,2:0:0:0:
212,171,13313,1,0,3:0:0:0:
218,88,13574,2,0,P|262:70|309:67,1,95.6250036478044,2|0,2:0|2:0,2:0:0:0:
348,81,14096,2,0,P|344:49|340:17,1,63.7500024318696,8|0,2:0|3:0,2:0:0:0:
423,6,14617,5,0,3:0:0:0:
423,6,14878,2,0,P|462:24|493:20,1,63.7500024318696,2|8,2:0|2:0,2:0:0:0:
488,105,15400,1,0,3:0:0:0:
414,142,15661,1,2,2:0:0:0:
504,281,16183,2,0,L|497:324,1,31.8750012159348,8|0,2:0|2:0,2:0:0:0:
509,352,16443,1,0,3:0:0:0:
427,367,16704,54,0,P|421:335|419:303,1,63.7500024318696,0|2,3:0|2:0,2:0:0:0:
366,239,17226,1,8,2:0:0:0:
320,308,17487,1,0,3:0:0:0:
240,284,17748,2,0,P|195:287|137:312,1,95.6250036478044,2|0,2:0|2:0,2:0:0:0:
129,342,18270,2,0,P|92:338|66:370,1,63.7500024318696,12|0,2:0|3:0,2:0:0:0:
3,307,18791,5,0,3:0:0:0:
3,307,19052,2,0,P|0:265|-1:232,1,63.7500024318696,2|8,2:0|2:0,2:0:0:0:
42,172,19574,1,0,3:0:0:0:
3,98,19835,1,2,2:0:0:0:
164,59,20357,2,0,L|145:15,1,31.8750012159348,8|0,2:0|2:0,2:0:0:0:
110,26,20617,1,0,3:0:0:0:
105,108,20878,6,0,P|126:155|125:179,1,63.7500024318696,0|2,3:0|2:0,2:0:0:0:
99,245,21400,1,8,2:0:0:0:
177,271,21661,1,0,3:0:0:0:
207,194,21922,2,0,P|251:176|298:173,1,95.6250036478044,2|0,2:0|2:0,2:0:0:0:
304,214,22444,2,0,P|299:259|294:303,1,63.7500024318696,8|0,2:0|3:0,2:0:0:0:
337,355,22965,5,0,3:0:0:0:
337,355,23226,2,0,P|376:337|407:341,1,63.7500024318696,2|8,2:0|2:0,2:0:0:0:
469,377,23748,1,0,3:0:0:0:
507,303,24009,1,2,2:0:0:0:
427,157,24531,2,0,L|417:108,1,31.8750012159348,8|0,2:0|2:0,2:0:0:0:
446,93,24791,1,0,3:0:0:0:
341,28,25052,54,2,P|294:32|271:37,1,63.7500024318696,4|2,2:0|2:0,2:3:0:0:
248,113,25574,1,8,2:0:0:0:
192,50,25835,1,0,3:0:0:0:
164,128,26096,2,0,P|119:145|72:148,1,95.6250036478044,2|0,2:0|2:0,2:0:0:0:
34,166,26618,2,0,P|39:211|44:255,1,63.7500024318696,8|0,2:0|3:0,2:0:0:0:
18,311,27139,5,0,3:0:0:0:
18,311,27400,2,0,P|49:312|76:328,1,63.7500024318696,2|8,2:0|2:0,2:0:0:0:
139,384,27922,1,0,3:0:0:0:
194,322,28183,1,2,2:0:0:0:
163,159,28705,2,0,L|153:110,1,31.8750012159348,10|0,2:0|3:0,2:0:0:0:
166,87,28965,1,0,3:0:0:0:
241,120,29226,6,0,P|256:164|264:206,1,63.7500024318696,0|2,3:0|2:0,2:0:0:0:
255,263,29748,1,8,2:0:0:0:
329,227,30009,1,0,3:0:0:0:
332,309,30270,2,0,P|374:329|408:362,1,95.6250036478044,2|0,2:0|2:0,2:0:0:0:
436,331,30792,2,0,P|428:296|428:267,1,63.7500024318696,8|0,2:0|3:0,2:0:0:0:
486,209,31313,5,0,3:0:0:0:
486,209,31574,2,0,P|462:187|451:157,1,63.7500024318696,2|8,2:0|2:0,2:0:0:0:
497,88,32096,1,0,3:0:0:0:
447,21,32357,1,2,2:0:0:0:
306,109,32879,2,0,L|299:152,1,31.8750012159348,10|0,2:0|2:0,2:0:0:0:
326,172,33139,1,2,3:0:0:0:
236,234,33400,54,0,P|230:202|228:170,1,63.7500024318696,4|2,2:0|2:0,2:0:0:0:
194,94,33922,1,8,2:0:0:0:
234,21,34183,1,0,3:0:0:0:
111,85,34444,2,2,P|66:88|8:113,1,95.6250036478044,6|0,2:0|2:0,2:3:0:0:
21,147,34966,2,0,P|55:162|61:202,1,63.7500024318696,10|2,2:0|3:0,2:0:0:0:
40,267,35487,5,0,3:0:0:0:
40,267,35748,2,0,P|81:271|114:276,1,63.7500024318696,2|8,2:0|2:0,2:0:0:0:
174,318,36270,1,0,3:0:0:0:
233,375,36531,1,2,2:0:0:0:
394,339,37053,2,0,L|445:347,1,31.8750012159348,10|2,2:0|2:0,2:0:0:0:
456,370,37313,1,0,3:0:0:0:
507,280,37574,6,0,P|501:248|485:221,1,63.7500024318696,4|2,2:0|2:0,2:0:0:0:
422,166,38096,1,8,2:0:0:0:
500,140,38357,1,0,3:0:0:0:
404,248,38618,2,2,P|357:250|313:269,1,95.6250036478044,6|0,2:0|2:0,2:3:0:0:
283,239,39140,2,0,P|286:207|290:175,1,63.7500024318696,8|0,2:0|3:0,2:0:0:0:
329,104,39661,5,0,3:0:0:0:
329,104,39922,2,0,P|290:86|259:90,1,63.7500024318696,2|8,2:0|2:0,2:0:0:0:
191,61,40443,2,0,P|152:43|121:47,1,63.7500024318696,0|2,3:0|2:0,2:0:0:0:
52,67,40965,1,2,2:0:0:0:
94,138,41227,2,2,L|84:187,1,31.8750012159348,10|0,2:0|2:0,2:3:0:0:
113,202,41487,1,2,2:0:0:0:
16,268,41748,54,2,P|36:326|145:333,1,170,4|12,1:0|2:0,2:3:0:0:
240,382,42530,2,0,P|219:320|190:195,1,170,4|0,3:0|3:0,2:0:0:0:
257,149,43313,1,8,2:0:0:0:
257,149,43574,2,0,P|287:182|287:229,1,85,0|4,2:0|3:0,2:0:0:0:
345,285,44095,5,0,2:0:0:0:
421,289,44356,1,8,2:0:0:0:
462,343,44617,1,4,3:0:0:0:
506,349,44878,2,0,L|434:372,2,63.7500024318696,0|0|10,2:0|3:0|2:0,2:0:0:0:
492,109,45922,6,2,P|411:108|374:35,1,170,4|12,1:0|2:0,2:3:0:0:
484,25,46704,2,0,P|405:78|371:151,1,170,4|4,3:0|2:3,2:0:0:0:
299,190,47487,1,8,2:0:0:0:
299,190,47748,2,0,P|269:157|269:110,1,85,0|4,2:0|3:0,2:0:0:0:
237,37,48269,5,0,2:0:0:0:
171,74,48530,1,8,2:0:0:0:
117,57,48791,1,4,3:0:0:0:
90,76,49052,2,0,L|67:4,2,63.7500024318696,0|0|10,2:0|3:0|2:0,2:0:0:0:
187,266,50095,54,2,P|129:286|122:395,1,170,4|12,1:0|2:0,2:3:0:0:
30,289,50878,2,0,P|92:268|148:177,1,170,4|4,3:0|2:3,2:0:0:0:
205,120,51660,1,8,2:0:0:0:
205,120,51921,2,0,P|235:153|235:200,1,85,0|4,2:0|3:0,2:0:0:0:
315,230,52442,5,0,2:0:0:0:
371,179,52703,1,8,2:0:0:0:
372,120,52964,1,4,3:0:0:0:
354,85,53226,2,0,L|282:108,2,63.7500024318696,2|0|10,2:0|3:0|2:0,2:0:0:0:
506,333,54269,5,4,1:0:0:0:
506,333,54530,1,0,2:0:0:0:
423,320,54791,1,10,2:0:0:0:
390,362,55052,1,4,3:0:0:0:
353,355,55313,2,0,L|280:377,1,63.7500024318696,2|0,2:0|3:0,2:0:0:0:
249,293,55835,2,0,L|122:273,1,127.500004863739,8|0,2:0|3:0,2:0:0:0:
484,48,58443,6,2,B|410:43|438:101|353:96,1,141.100002045364,4|8,1:0|2:0,2:3:0:0:
286,49,59226,1,4,2:3:0:0:
278,133,59487,1,2,2:0:0:0:
139,35,60009,1,8,2:0:0:0:
54,30,60269,1,4,2:3:0:0:
32,111,60530,54,0,P|72:76|104:62,1,70.5500010226822,6|2,1:2|2:0,2:0:0:0:
153,122,61052,1,8,2:0:0:0:
150,206,61313,1,4,2:3:0:0:
85,260,61574,2,0,P|34:255|2:253,1,70.5500010226822,2|2,2:0|2:0,2:0:0:0:
164,293,62095,1,8,2:0:0:0:
100,349,62356,1,2,2:0:0:0:
178,376,62617,6,0,P|230:366|318:360,1,141.100002045364,4|8,1:0|2:0,2:0:0:0:
397,331,63400,1,4,2:3:0:0:
328,280,63661,1,2,2:0:0:0:
494,137,64182,2,2,L|456:119,1,35.2750005113411,10|0,2:0|2:0,2:0:0:0:
451,88,64443,1,4,2:3:0:0:
381,136,64704,1,6,1:2:0:0:
327,70,64965,6,0,P|336:115|346:156,1,70.5500010226822,2|8,2:0|2:0,2:0:0:0:
270,201,65487,2,0,P|262:166|256:132,1,70.5500010226822,4|2,2:3|2:0,2:0:0:0:
194,73,66009,1,2,2:0:0:0:
194,73,66269,2,0,P|159:79|124:87,1,70.5500010226822,10|2,2:0|2:0,2:0:0:0:
60,33,66791,6,2,P|28:62|34:160,1,141.100002045364,4|8,1:0|2:0,2:3:0:0:
106,189,67574,2,0,P|60:182|9:182,1,70.5500010226822,4|2,2:3|2:0,2:0:0:0:
169,253,68095,1,4,2:0:0:0:
169,253,68356,2,0,P|199:303|157:372,1,141.100002045364,10|6,2:0|1:2,2:0:0:0:
77,380,69139,53,2,2:0:0:0:
10,326,69400,2,0,P|16:282|49:259,1,70.5500010226822,8|6,2:0|2:3,2:0:0:0:
97,209,69922,2,0,P|87:164|79:131,1,70.5500010226822,2|2,2:0|2:0,2:0:0:0:
19,82,70443,1,10,2:0:0:0:
54,5,70704,1,2,2:0:0:0:
174,57,70965,6,2,B|254:70|226:9|314:18,1,141.100002045364,4|8,1:0|2:0,2:3:0:0:
385,38,71748,1,4,2:3:0:0:
467,58,72009,1,2,2:0:0:0:
330,200,72530,1,8,2:0:0:0:
248,220,72791,2,0,P|317:226|340:233,1,70.5500010226822,4|6,2:3|1:2,2:0:0:0:
377,372,73313,5,2,2:0:0:0:
368,362,73443,2,2,P|406:346|466:339,1,85,2|2,2:0|2:0,2:3:0:0:
512,299,73835,2,2,P|505:257|488:217,1,85,4|2,1:2|2:0,2:3:0:0:
423,183,74226,2,2,P|385:199|325:206,1,85,2|2,2:0|2:0,2:3:0:0:
301,142,74617,2,2,P|310:85|325:8,1,127.500004863739,12|0,2:0|2:0,2:3:0:0:
256,192,75269,12,0,76704,2:0:0:0:
267,247,77226,6,0,P|223:255|203:299,1,70.5500010226822,6|2,3:0|2:0,2:0:0:0:
206,294,77617,1,2,2:0:0:0:
206,315,77748,2,0,P|153:325|125:337,1,70.5500010226822,8|8,2:0|3:0,2:0:0:0:
74,383,78269,1,2,2:0:0:0:
18,221,78791,2,0,L|5:180,1,35.2750005113411,10|0,2:0|3:0,2:0:0:0:
28,154,79052,1,0,3:0:0:0:
3,35,79313,54,2,P|49:46|91:44,1,70.5500010226822,4|2,2:0|2:0,2:3:0:0:
92,38,79704,1,2,2:0:0:0:
111,30,79835,2,0,L|192:21,1,70.5500010226822,8|8,2:0|3:0,2:0:0:0:
264,97,80356,2,0,P|219:108|185:176,1,105.825001534023,2|0,2:0|2:0,2:0:0:0:
193,196,80878,1,8,2:0:0:0:
272,242,81139,1,0,3:0:0:0:
334,174,81400,6,0,P|341:123|351:84,1,70.5500010226822,6|2,3:0|2:0,2:0:0:0:
364,94,81791,1,2,2:0:0:0:
384,88,81922,2,0,P|391:37|401:-2,1,70.5500010226822,8|8,2:0|3:0,2:0:0:0:
481,7,82443,1,2,2:0:0:0:
410,179,82965,2,0,L|371:200,1,35.2750005113411,10|0,2:0|3:0,2:0:0:0:
480,204,83226,2,0,L|512:188,1,35.2750005113411,0|2,3:0|2:0,2:0:0:0:
436,265,83487,6,0,P|427:307|427:358,1,70.5500010226822,6|2,3:2|2:0,2:0:0:0:
412,353,83878,1,2,2:0:0:0:
400,371,84009,2,0,P|362:342|335:344,1,70.5500010226822,8|2,2:0|2:0,2:0:0:0:
242,373,84530,6,2,P|231:335|248:264,1,105.825001534023,2|0,2:0|2:0,2:3:0:0:
242,256,85052,2,0,L|281:249,1,35.2750005113411,8|0,3:2|2:0,2:0:0:0:
310,220,85313,1,0,3:0:0:0:
231,155,85574,54,0,P|215:102|219:71,1,70.5500010226822,2|2,3:2|2:0,2:0:0:0:
162,37,85965,1,2,2:0:0:0:
162,37,86095,2,0,L|86:25,1,70.5500010226822,12|6,2:0|3:0,2:0:0:0:
11,75,86617,2,2,P|60:68|89:151,1,141.100002045364,2|8,2:0|2:0,2:3:0:0:
13,161,87400,1,0,3:0:0:0:
108,225,87661,6,0,P|72:274|34:288,1,70.5500010226822,6|2,3:2|2:0,2:0:0:0:
44,277,88052,1,2,2:0:0:0:
31,293,88182,2,0,P|37:337|65:365,1,70.5500010226822,8|8,2:0|3:0,2:0:0:0:
162,316,88704,2,2,P|191:262|205:201,1,105.825001534023,2|0,2:0|2:0,2:0:0:0:
219,212,89226,2,0,L|208:164,1,35.2750005113411,8|0,3:2|2:0,2:0:0:0:
228,128,89487,1,2,3:2:0:0:
321,183,89748,5,2,3:2:0:0:
321,183,90009,2,0,L|364:190,1,35.2750005113411,2|2,2:0|2:0,2:0:0:0:
364,224,90269,1,8,2:0:0:0:
312,314,90530,2,0,L|269:321,1,35.2750005113411,4|0,3:0|2:0,2:0:0:0:
360,371,90791,2,0,L|438:376,1,70.5500010226822,2|2,2:0|2:0,2:0:0:0:
491,307,91313,2,2,L|454:271,1,35.2750005113411,10|0,2:0|2:3,2:3:0:0:
460,238,91574,2,2,L|423:202,1,35.2750005113411,0|0,2:3|2:3,2:3:0:0:
473,143,91835,6,2,P|392:142|355:69,1,170,4|12,1:0|2:0,2:3:0:0:
463,27,92617,2,0,P|380:46|300:73,1,170,4|0,3:0|3:0,2:0:0:0:
218,46,93400,1,8,2:0:0:0:
218,46,93661,2,0,P|188:79|188:126,1,85,0|4,2:0|3:0,2:0:0:0:
148,192,94182,53,0,2:0:0:0:
91,141,94443,1,8,2:0:0:0:
37,168,94704,1,4,3:0:0:0:
0,140,94965,2,0,L|10:66,2,63.7500024318696,0|0|10,2:0|3:0|2:0,2:0:0:0:
153,292,96009,6,2,P|234:293|271:366,1,170,4|12,1:0|2:0,2:3:0:0:
125,372,96791,2,0,P|129:287|143:204,1,170,4|4,3:0|2:3,2:0:0:0:
238,180,97574,1,8,2:0:0:0:
238,180,97835,2,0,P|227:135|208:100,1,85,0|4,2:0|3:0,2:0:0:0:
280,31,98356,5,0,2:0:0:0:
334,84,98617,1,8,2:0:0:0:
391,64,98878,1,4,3:0:0:0:
431,79,99139,2,0,L|503:56,2,63.7500024318696,0|0|10,2:0|3:0|2:0,2:0:0:0:
418,380,100182,6,2,P|419:299|492:263,1,170,4|12,1:0|2:0,2:3:0:0:
379,304,100965,2,0,P|329:237|250:161,1,170,4|4,3:0|2:3,2:0:0:0:
230,273,101747,1,8,2:0:0:0:
230,273,102008,2,0,P|266:306|272:351,1,85,0|4,2:0|3:0,2:0:0:0:
175,369,102529,53,0,2:0:0:0:
123,307,102790,1,8,2:0:0:0:
67,338,103051,1,4,3:0:0:0:
17,323,103313,2,0,L|36:383,2,63.7500024318696,2|0|10,2:0|3:0|2:0,2:0:0:0:
112,71,104356,5,4,1:0:0:0:
112,71,104617,1,0,2:0:0:0:
37,112,104878,1,10,2:0:0:0:
92,169,105139,1,4,3:0:0:0:
73,214,105400,2,0,L|0:236,1,63.7500024318696,2|0,2:0|3:0,2:0:0:0:
180,183,105922,2,2,L|306:203,1,127.500004863739,10|0,2:0|3:0,2:3:0:0:
498,339,108530,6,2,B|452:335|469:371|418:368,1,85,4|2,1:0|2:0,2:3:0:0:
354,331,108922,1,2,2:0:0:0:
354,331,109052,1,8,2:0:0:0:
417,270,109313,1,4,2:3:0:0:
334,212,109574,1,2,2:0:0:0:
468,32,110095,2,0,L|411:43,1,42.5,8|0,2:0|2:0,2:0:0:0:
387,25,110356,2,0,L|330:36,1,42.5,4|0,2:3|2:0,2:0:0:0:
288,84,110617,6,0,P|269:53|217:34,1,85,6|2,1:2|2:0,2:0:0:0:
164,75,111009,1,2,2:0:0:0:
164,75,111139,1,8,2:0:0:0:
73,18,111400,1,4,2:3:0:0:
17,110,111661,2,0,P|14:145|6:205,1,85,2|2,2:0|2:0,2:0:0:0:
92,246,112182,2,0,L|100:298,1,42.5,8|0,2:0|2:0,2:0:0:0:
52,316,112443,2,0,L|44:368,1,42.5,2|0,2:0|2:0,2:0:0:0:
120,384,112704,54,2,P|172:374|241:374,1,85,6|2,1:2|2:0,2:3:0:0:
267,333,113095,1,0,2:0:0:0:
267,333,113226,1,8,2:0:0:0:
189,286,113487,1,4,2:3:0:0:
262,208,113748,1,2,2:0:0:0:
451,366,114269,2,0,L|406:349,1,42.5,10|0,2:0|2:0,2:0:0:0:
375,367,114530,1,4,2:3:0:0:
392,256,114791,5,6,1:2:0:0:
492,205,115052,1,2,2:0:0:0:
480,181,115182,1,2,2:0:0:0:
455,170,115313,1,8,2:0:0:0:
387,85,115574,2,0,P|394:49|443:21,1,85,4|2,2:3|2:0,2:0:0:0:
352,179,116095,1,2,2:0:0:0:
352,179,116356,2,0,L|308:173,1,42.5,10|0,2:0|2:0,2:0:0:0:
277,143,116617,2,0,L|233:137,1,42.5,2|0,2:0|2:0,2:0:0:0:
180,75,116878,6,2,P|127:60|85:40,1,85,4|2,1:0|2:0,2:3:0:0:
36,9,117269,1,2,2:0:0:0:
25,24,117400,1,8,2:0:0:0:
80,128,117661,2,0,P|109:149|97:209,1,85,4|2,2:3|2:0,2:0:0:0:
25,265,118182,2,2,P|14:288|26:319,1,42.5,4|0,2:0|2:0,2:3:0:0:
2,381,118443,2,0,P|34:338|121:312,1,127.5,10|0,2:0|2:0,2:0:0:0:
161,353,118965,5,6,1:2:0:0:
253,292,119226,1,2,2:0:0:0:
272,317,119356,1,2,2:0:0:0:
267,342,119487,2,0,P|311:348|341:386,1,85,8|6,2:0|2:3,2:0:0:0:
332,267,120009,2,0,P|322:222|313:180,1,85,2|2,2:0|2:0,2:0:0:0:
393,104,120530,2,0,P|394:90|399:55,1,42.5,10|0,2:0|2:0,2:0:0:0:
470,85,120791,2,0,P|471:71|476:36,1,42.5,2|0,2:0|2:0,2:0:0:0:
451,158,121052,54,2,P|481:194|493:238,1,85,6|2,1:2|2:0,2:3:0:0:
503,306,121443,1,2,2:0:0:0:
503,306,121574,1,8,2:0:0:0:
434,369,121835,1,4,2:3:0:0:
352,326,122096,1,2,2:0:0:0:
288,370,122356,1,0,2:0:0:0:
185,331,122617,2,0,L|140:341,1,42.5,8|0,2:0|2:0,2:0:0:0:
76,379,122878,2,0,L|26:366,1,42.5,4|0,2:3|2:0,2:0:0:0:
0,300,123139,1,6,1:2:0:0:
117,255,123400,5,2,2:0:0:0:
108,245,123530,2,2,P|146:229|210:219,1,101.999996887207,2|2,2:0|2:0,2:3:0:0:
267,162,123922,2,2,P|229:178|165:188,1,101.999996887207,4|2,1:2|2:0,2:3:0:0:
159,95,124313,2,2,P|109:102|62:121,1,101.999996887207,2|2,2:0|2:0,2:3:0:0:
120,63,124704,2,2,B|172:51|172:51|188:60|188:60|253:46,1,127.5,12|0,2:0|2:0,2:3:0:0:
322,20,125226,37,6,1:0:0:0:
376,27,125356,1,6,3:0:0:0:
430,34,125487,1,14,1:3:0:0:
484,40,125617,1,6,2:3:0:0:
457,88,125748,6,0,L|409:82,1,42.5,8|2,1:2|0:3,0:0:0:0:
370,78,126009,2,0,L|322:72,1,42.5,6|0,3:0|3:0,0:0:0:0:
331,126,126269,5,2,1:0:0:0:
366,131,126399,1,4,2:3:0:0:
401,136,126530,1,14,1:2:0:0:
435,139,126660,1,4,2:3:0:0:
445,166,126791,6,2,B|481:158|524:218|496:286,1,152.999995330811,4|0,1:0|2:0,2:3:0:0:
466,354,127313,1,4,1:0:0:0:
365,290,127574,1,2,2:0:0:0:
349,311,127704,1,4,2:0:0:0:
356,337,127835,2,0,P|295:356|254:386,1,101.999996887207,10|6,2:0|3:0,2:0:0:0:
199,297,128356,1,4,2:0:0:0:
118,359,128617,1,2,2:0:0:0:
52,280,128878,2,0,P|37:231|8:159,1,101.999996887207,10|2,2:0|2:0,2:0:0:0:
124,211,129400,85,6,1:0:0:0:
178,204,129530,1,6,3:0:0:0:
232,197,129661,1,14,1:3:0:0:
286,191,129791,1,6,2:3:0:0:
258,144,129922,86,0,L|210:150,1,42.5,8|2,1:2|0:3,0:0:0:0:
171,154,130183,2,0,L|123:160,1,42.5,6|0,3:0|3:0,0:0:0:0:
133,105,130443,85,2,1:0:0:0:
168,100,130573,1,4,2:3:0:0:
203,95,130704,1,14,1:2:0:0:
237,92,130834,1,4,2:3:0:0:
242,67,130965,6,0,P|199:29|151:18,1,101.999996887207,8|4,2:0|2:3,2:0:0:0:
12,42,131487,2,2,B|99:92|16:158|101:215,1,203.999993774414,4|8,1:0|2:0,2:3:0:0:
178,226,132139,1,2,2:0:0:0:
178,226,132269,1,6,2:3:0:0:
120,325,132530,2,2,P|160:324|212:378,1,101.999996887207,4|0,2:0|2:0,2:3:0:0:
329,378,133052,2,2,P|373:372|435:360,1,101.999996887207,4|0,2:0|2:0,2:3:0:0:
504,258,133574,5,6,1:0:0:0:
450,251,133704,1,6,3:0:0:0:
396,244,133835,1,14,1:3:0:0:
342,238,133965,1,6,2:3:0:0:
369,189,134095,86,0,L|417:195,1,42.5,8|2,1:2|0:3,0:0:0:0:
456,199,134356,2,0,L|504:205,1,42.5,6|0,3:0|3:0,0:0:0:0:
495,152,134617,85,2,1:0:0:0:
460,147,134747,1,4,2:3:0:0:
425,142,134878,1,6,1:2:0:0:
391,139,135008,1,4,2:3:0:0:
382,116,135139,70,2,P|439:92|461:44,1,101.999996887207,14|4,2:0|2:3,2:3:0:0:
314,43,135661,2,2,P|245:36|189:24,1,101.999996887207,6|2,1:2|2:0,2:3:0:0:
143,5,136052,1,2,2:0:0:0:
143,5,136182,1,8,2:0:0:0:
195,128,136443,1,6,2:3:0:0:
195,128,136704,2,2,P|135:135|102:107,1,101.999996887207,2|4,2:0|2:0,2:3:0:0:
8,195,137226,2,0,P|23:256|22:298,1,101.999996887207,10|4,2:0|2:0,2:0:0:0:
118,222,137748,21,6,1:0:0:0:
172,229,137878,1,6,3:0:0:0:
226,236,138009,1,14,1:3:0:0:
280,242,138139,1,6,2:3:0:0:
253,292,138269,6,0,L|205:286,1,42.5,8|2,1:2|0:3,0:0:0:0:
166,282,138530,2,0,L|118:276,1,42.5,6|0,3:0|3:0,0:0:0:0:
127,328,138791,5,2,1:0:0:0:
162,333,138921,1,4,2:3:0:0:
197,338,139052,1,14,1:2:0:0:
231,341,139182,1,4,2:3:0:0:
238,364,139313,38,0,L|303:354,1,50.9999984436036,12|0,2:0|2:0,2:0:0:0:
363,379,139574,2,2,L|428:369,1,50.9999984436036,2|0,2:0|2:0,2:3:0:0:
473,325,139835,6,2,P|488:268|477:215,1,101.999996887207,4|2,1:0|2:0,2:3:0:0:
420,183,140226,1,2,2:0:0:0:
420,183,140356,1,8,2:0:0:0:
492,111,140617,1,6,2:3:0:0:
406,39,140878,2,2,P|359:37|328:87,1,101.999996887207,4|2,2:0|2:0,2:3:0:0:
247,177,141400,2,2,P|250:211|244:247,1,50.9999984436036,8|0,2:0|2:0,2:3:0:0:
288,289,141661,2,2,P|268:312|263:350,1,50.9999984436036,2|0,2:0|2:0,2:3:0:0:
273,372,141922,54,2,P|205:328|130:382,1,170,4|12,1:0|2:0,2:3:0:0:
19,345,142704,2,0,P|103:329|176:286,1,170,4|0,3:0|3:0,2:0:0:0:
90,244,143487,1,8,2:0:0:0:
90,244,143748,2,0,P|45:241|12:208,1,85,0|4,2:0|3:0,2:0:0:0:
10,112,144269,5,0,2:0:0:0:
81,78,144530,1,8,2:0:0:0:
127,118,144791,1,4,3:0:0:0:
165,86,145052,2,0,L|176:16,1,63.7500024318696,0|0,2:0|3:0,2:0:0:0:
250,76,145574,2,0,L|256:119,1,31.8750012159348,10|0,2:0|2:0,2:0:0:0:
290,135,145835,2,0,L|296:178,1,31.8750012159348,2|0,2:0|2:0,2:0:0:0:
333,202,146096,6,2,P|413:191|441:115,1,170,4|12,1:0|2:0,2:3:0:0:
507,49,146878,2,0,P|492:133|489:218,1,170,4|4,3:0|2:3,2:0:0:0:
431,301,147661,1,8,2:0:0:0:
431,301,147922,2,0,P|476:312|511:331,1,85,0|4,2:0|3:0,2:0:0:0:
388,371,148443,5,0,2:0:0:0:
318,332,148704,1,8,2:0:0:0:
271,374,148965,1,4,3:0:0:0:
226,350,149226,2,0,L|165:369,1,63.7500024318696,2|0,2:0|3:0,2:0:0:0:
140,278,149748,2,0,L|100:270,1,31.8750012159348,10|0,2:0|2:0,2:0:0:0:
75,317,150009,2,0,L|38:329,1,31.8750012159348,2|0,2:0|2:0,2:0:0:0:
21,371,150269,54,2,P|2:289|47:219,1,170,4|12,1:0|2:0,2:3:0:0:
146,191,151052,2,0,P|96:124|17:48,1,170,4|4,3:0|2:3,2:0:0:0:
121,96,151834,1,8,2:0:0:0:
121,96,152095,2,0,P|154:60|199:54,1,85,0|4,2:0|3:0,2:0:0:0:
269,106,152616,5,0,2:0:0:0:
331,61,152877,1,8,2:0:0:0:
390,51,153138,1,4,3:0:0:0:
426,48,153400,2,0,P|461:37|492:19,1,63.7500024318696,2|0,2:0|3:0,2:0:0:0:
481,130,153922,2,2,P|466:184|466:224,2,85,10|2|4,2:0|2:0|1:0,2:1:0:0:
512,294,154704,5,0,2:0:0:0:
445,343,154965,1,10,2:0:0:0:
374,325,155226,1,4,3:0:0:0:
330,363,155487,2,0,L|257:385,1,63.7500024318696,2|0,2:0|3:0,2:0:0:0:
160,300,156009,2,2,B|129:258|365:253|323:210,1,203.999993774414,10|0,2:0|2:1,2:1:0:0:
3,211,160704,6,2,B|49:215|32:179|83:182,1,85,4|2,1:0|2:0,2:3:0:0:
147,219,161096,1,2,2:0:0:0:
160,228,161226,1,8,2:0:0:0:
203,152,161487,1,4,2:3:0:0:
168,43,161748,1,2,2:0:0:0:
386,74,162269,2,0,L|428:66,1,42.5,8|0,2:0|2:0,2:0:0:0:
459,104,162530,2,0,L|500:95,1,42.5,4|0,2:3|2:0,2:0:0:0:
430,178,162791,54,2,P|426:226|461:270,1,85,6|2,1:2|2:0,2:3:0:0:
512,299,163183,1,2,2:0:0:0:
505,315,163313,1,8,2:0:0:0:
423,378,163574,1,4,2:3:0:0:
344,305,163835,2,2,P|350:263|354:221,1,85,2|2,2:0|2:0,2:3:0:0:
280,124,164356,2,0,L|274:82,1,42.5,8|0,2:0|2:0,2:0:0:0:
222,67,164617,2,0,L|229:25,1,42.5,2|0,2:0|2:0,2:0:0:0:
173,131,164878,6,2,P|131:134|90:143,1,85,6|2,1:2|2:0,2:3:0:0:
17,165,165269,1,0,2:0:0:0:
23,179,165400,1,8,2:0:0:0:
82,245,165661,1,4,2:3:0:0:
23,338,165922,1,2,2:0:0:0:
182,382,166443,2,2,L|231:365,1,42.5,10|0,2:0|2:0,2:0:0:0:
256,380,166704,1,4,2:3:0:0:
314,271,166965,5,6,1:2:0:0:
223,218,167226,1,2,2:0:0:0:
211,194,167356,1,2,2:0:0:0:
186,183,167487,1,8,2:0:0:0:
261,106,167748,2,0,P|268:70|317:42,1,85,4|2,2:3|2:0,2:0:0:0:
417,109,168269,1,2,2:0:0:0:
417,109,168530,2,0,L|373:103,1,42.5,10|0,2:0|2:0,2:0:0:0:
457,174,168791,2,0,L|499:179,1,42.5,2|0,2:0|2:0,2:0:0:0:
393,219,169052,6,2,P|340:229|326:270,1,85,4|2,1:0|2:0,2:3:0:0:
328,327,169443,1,2,2:0:0:0:
336,342,169574,1,8,2:0:0:0:
461,378,169835,2,0,P|463:337|432:311,1,85,4|2,2:3|2:0,2:0:0:0:
334,357,170356,2,2,P|311:346|280:358,1,42.5,4|0,2:0|2:0,2:3:0:0:
222,382,170617,2,0,P|254:339|222:261,1,127.5,10|0,2:0|2:0,2:0:0:0:
176,230,171139,53,6,1:2:0:0:
98,314,171400,1,2,2:0:0:0:
92,340,171530,1,2,2:0:0:0:
84,364,171661,2,0,P|40:370|16:322,1,85,8|6,2:0|2:3,2:0:0:0:
82,222,172183,2,0,P|47:179|24:132,1,85,2|2,2:0|2:0,2:0:0:0:
114,38,172704,2,0,P|110:59|109:80,1,42.5,10|0,2:0|2:0,2:0:0:0:
153,140,172965,2,0,P|154:126|159:91,1,42.5,2|0,2:0|2:0,2:0:0:0:
217,47,173226,6,2,P|257:35|304:20,1,85,6|2,1:2|2:0,2:3:0:0:
379,12,173617,1,2,2:0:0:0:
375,29,173748,1,8,2:0:0:0:
472,41,174009,1,4,2:3:0:0:
409,143,174270,1,2,2:0:0:0:
477,188,174530,1,2,3:0:0:0:
466,317,174791,2,2,L|421:327,1,42.5,14|0,1:2|2:0,2:3:0:0:
374,378,175052,2,0,L|324:365,1,42.5,4|0,2:3|2:0,2:0:0:0:
288,304,175313,1,6,1:2:0:0:
158,372,175574,5,2,2:0:0:0:
167,362,175704,2,2,P|129:346|65:336,1,101.999996887207,2|2,2:0|2:0,2:3:0:0:
7,287,176096,2,2,P|57:280|105:262,1,101.999996887207,4|2,1:2|2:0,2:3:0:0:
202,188,176487,2,2,P|152:195|105:214,1,101.999996887207,2|2,2:0|2:0,2:3:0:0:
15,161,176878,2,2,B|3:108|3:108|13:92|13:92|0:27,1,127.5,12|0,2:0|2:0,2:3:0:0:
95,22,177400,21,6,1:0:0:0:
102,37,177530,1,2,3:0:0:0:
110,51,177661,2,0,L|157:52,1,42.5,4|2,3:0|3:0,2:0:0:0:
219,100,177922,5,10,3:2:0:0:
212,115,178052,1,2,3:0:0:0:
204,129,178183,2,0,L|157:130,1,42.5,4|2,3:0|3:0,2:0:0:0:
113,193,178443,5,6,2:0:0:0:
120,208,178573,1,4,3:0:0:0:
128,222,178704,2,2,L|175:223,1,42.5,2|0,2:0|2:0,2:3:0:0:
204,290,178965,2,2,P|186:346|180:393,1,101.999996887207,12|4,2:0|2:3,2:3:0:0:
301,329,179487,38,2,P|327:287|300:229,1,101.999996887207,6|2,1:2|2:0,2:3:0:0:
249,195,179878,1,2,2:0:0:0:
256,175,180009,1,8,2:0:0:0:
343,134,180269,1,4,2:3:0:0:
318,36,180530,2,2,P|396:19|443:7,1,101.999996887207,2|2,2:0|2:0,2:3:0:0:
497,97,181052,2,0,P|488:114|490:153,1,50.9999984436036,8|0,2:0|2:0,2:0:0:0:
507,176,181313,1,2,2:0:0:0:
375,178,181574,21,6,1:2:0:0:
382,193,181704,1,2,2:3:0:0:
390,207,181835,2,0,L|437:208,1,42.5,4|2,2:3|2:3,2:0:0:0:
499,256,182096,5,10,3:2:0:0:
492,271,182226,1,2,2:3:0:0:
484,285,182357,2,0,L|437:286,1,42.5,4|2,2:3|2:3,2:0:0:0:
393,349,182617,5,6,3:2:0:0:
400,364,182747,1,4,2:3:0:0:
408,378,182878,2,2,L|455:379,1,42.5,2|2,2:3|2:3,2:3:0:0:
307,351,183139,2,2,P|241:361|190:368,1,101.999996887207,6|4,2:0|3:0,2:3:0:0:
79,315,183661,6,2,P|26:285|21:233,1,101.999996887207,6|2,1:2|2:0,2:3:0:0:
64,183,184052,1,2,2:0:0:0:
44,171,184182,1,8,2:0:0:0:
5,82,184443,1,4,2:3:0:0:
95,25,184704,2,2,P|113:74|129:134,1,101.999996887207,2|2,2:0|2:0,2:3:0:0:
182,224,185226,2,0,P|164:273|148:333,1,101.999996887207,8|2,2:0|2:0,2:0:0:0:
311,374,185748,85,6,1:2:0:0:
312,357,185878,1,2,2:3:0:0:
315,341,186009,2,0,L|358:323,1,42.5,4|2,2:3|2:3,2:0:0:0:
400,258,186270,85,10,3:2:0:0:
389,246,186400,1,2,2:3:0:0:
376,236,186531,2,0,L|331:251,1,42.5,4|4,2:3|2:3,2:0:0:0:
269,207,186791,85,6,3:2:0:0:
270,190,186921,1,4,2:3:0:0:
273,174,187052,2,2,L|316:156,1,42.5,2|0,2:0|2:0,2:3:0:0:
335,82,187313,2,2,P|269:72|218:65,1,101.999996887207,6|4,2:0|2:3,2:3:0:0:
399,34,187835,38,2,P|456:23|505:84,1,101.999996887207,6|2,1:2|2:0,2:3:0:0:
502,120,188226,1,2,2:0:0:0:
497,139,188356,1,8,2:0:0:0:
429,193,188617,1,4,2:3:0:0:
507,301,188878,2,2,P|482:352|439:365,1,101.999996887207,2|2,2:0|2:0,2:3:0:0:
352,259,189400,2,0,P|336:196|320:151,1,101.999996887207,8|2,2:0|2:0,2:0:0:0:
270,41,189922,53,6,1:2:0:0:
257,52,190052,1,2,2:3:0:0:
243,61,190183,2,0,L|199:43,1,42.5,4|2,2:3|2:3,2:0:0:0:
125,60,190444,5,14,3:2:0:0:
124,76,190574,1,2,2:3:0:0:
126,92,190705,2,0,L|168:113,1,42.5,4|4,2:3|2:3,2:0:0:0:
181,188,190965,5,2,3:2:0:0:
168,200,191095,1,4,2:3:0:0:
155,209,191226,2,2,L|90:178,1,50.9999984436036,6|0,2:0|2:0,2:3:0:0:
100,282,191487,2,2,P|34:272|-17:265,1,101.999996887207,4|4,1:0|2:3,2:3:0:0:
160,373,192009,5,6,1:2:0:0:
237,308,192269,1,2,2:0:0:0:
251,325,192400,2,2,P|283:325|342:378,1,101.999996887207,2|2,2:0|2:0,2:3:0:0:
439,323,192791,2,2,P|378:337|344:305,1,101.999996887207,4|2,1:2|2:0,2:3:0:0:
307,237,193182,2,2,P|290:169|274:114,1,101.999996887207,2|2,2:0|2:0,2:3:0:0:
328,38,193574,2,0,B|310:64|310:64|324:157,1,85,10|2,2:0|2:0,2:0:0:0:
