osu file format v14

[General]
AudioFilename: audio.mp3
AudioLeadIn: 0
PreviewTime: -1
Countdown: 0
SampleSet: None
StackLeniency: 0.7
Mode: 0
LetterboxInBreaks: 0
WidescreenStoryboard: 1

[Editor]
DistanceSpacing: 0.8
BeatDivisor: 4
GridSize: 32
TimelineZoom: 3.599998

[Metadata]
Title:kodak moment
TitleUnicode:kodak moment
Artist:Jane Remover
ArtistUnicode:Jane Remover
Creator:SUPERSULLY17392
Version:Ending of 1st half
Source:
Tags:
BeatmapID:4058531
BeatmapSetID:1958889

[Difficulty]
HPDrainRate:5
CircleSize:3.8
OverallDifficulty:9
ApproachRate:9.7
SliderMultiplier:1.6
SliderTickRate:1

[Events]
//Background and Video events
0,0,"Desktop Screenshot 2022.11.06 - 21.29.40.63 (2).png",0,0
//Break Periods
//Storyboard Layer 0 (Background)
//Storyboard Layer 1 (Fail)
//Storyboard Layer 2 (Pass)
//Storyboard Layer 3 (Foreground)
//Storyboard Layer 4 (Overlay)
//Storyboard Sound Samples

[TimingPoints]
0,327.868852459016,4,1,0,100,1,0
4699,327.868852459016,4,1,0,100,1,0
146994,327.868852459016,4,1,0,100,1,0
152239,-33.3333333333333,4,1,0,100,0,0
173168,327.868852459016,4,1,0,100,1,0
193797,-1000,4,1,0,100,0,0
194151,-33.3333333333333,4,1,0,100,0,0
197102,-66.6666666666667,4,1,0,100,0,0
215135,-25,4,1,0,100,0,0
216569,-25,4,1,0,5,0,0
216610,-25,4,1,0,100,0,0
217061,-25,4,1,0,5,0,0
217102,-25,4,1,0,100,0,0
217143,-25,4,1,0,5,0,0
217184,-25,4,1,0,100,0,0
220381,-66.6666666666667,4,1,0,100,0,0
220790,-66.6666666666667,4,1,0,5,0,0
220872,-25,4,1,0,100,0,0
220954,-25,4,1,0,5,0,0
221036,-66.6666666666667,4,1,0,100,0,0
221283,-66.6666666666667,4,1,0,5,0,0
221364,-66.6666666666667,4,1,0,100,0,0
221610,-66.6666666666667,4,1,0,5,0,0
221692,-25,4,1,0,100,0,0
221774,-25,4,1,0,5,0,0
221856,-66.6666666666667,4,1,0,100,0,0
222102,-66.6666666666667,4,1,0,5,0,0
222184,-25,4,1,0,100,0,0
222266,-25,4,1,0,5,0,0
222348,-66.6666666666667,4,1,0,100,0,0
223004,-25,4,1,0,100,0,0
225627,-20,4,1,0,100,0,0
227184,-10,4,1,0,100,0,0
227594,-25,4,1,0,100,0,0
229151,-33.3333333333333,4,1,0,100,0,0
232348,-33.3333333333333,4,1,0,100,0,1
233127,-33.3333333333333,4,1,0,5,0,0
233208,327.868852459016,4,1,0,100,1,0
233208,-33.3333333333333,4,1,0,100,0,0
234191,-16.6666666666667,4,1,0,100,0,0
234396,-33.3333333333333,4,1,0,100,0,0
234478,-16.6666666666667,4,1,0,100,0,0
237880,-100,4,1,0,100,0,0
238044,-83.3333333333333,4,1,0,100,0,0
238208,-71.4285714285714,4,1,0,100,0,0
238371,-62.5,4,1,0,100,0,0
238535,-55.5555555555556,4,1,0,100,0,0
238699,-50,4,1,0,100,0,0
238863,-45.4545454545455,4,1,0,100,0,0
239027,-41.6666666666667,4,1,0,100,0,0
239191,-38.4615384615385,4,1,0,100,0,0
239355,-35.7142857142857,4,1,0,100,0,0
239519,-33.3333333333333,4,1,0,100,0,0
239683,-31.25,4,1,0,100,0,0
239847,-29.4117647058824,4,1,0,100,0,0
240011,-27.7777777777778,4,1,0,100,0,0
240175,-26.3157894736842,4,1,0,100,0,0
240339,-25,4,1,0,100,0,0
240503,-23.8095238095238,4,1,0,100,0,0
240667,-22.7272727272727,4,1,0,100,0,0
240830,-21.7391304347826,4,1,0,100,0,0
241487,-10,4,1,0,100,0,0
253060,335.195530726257,4,1,0,100,1,0

[HitObjects]
145,53,215135,6,0,B|85:203|85:203|117:258|117:258|171:197|171:197|233:239|233:239,1,320
318,305,215381,2,0,B|350:202|350:202|414:150|414:150|364:89|364:89|421:52|421:52,1,320
255,31,215627,5,0,0:0:0:0:
235,108,215708,1,0,0:0:0:0:
215,186,215790,2,0,B|297:241|297:241|305:102|305:102|427:58|427:58,1,320
454,206,216036,2,0,B|408:361|408:361|308:377|308:377|251:299|251:299,1,320
91,206,216282,5,0,0:0:0:0:
167,182,216363,1,0,0:0:0:0:
243,158,216445,1,0,0:0:0:0:
322,136,216528,2,0,L|343:25,1,80
399,113,216610,2,0,B|462:235|462:235|277:341,1,320
181,343,216856,5,0,0:0:0:0:
147,270,216937,1,0,0:0:0:0:
162,190,217020,2,0,L|310:190,1,80
133,114,217102,2,0,L|51:112,1,80
160,39,217184,2,0,B|275:62|275:62|275:122|275:122|286:127|286:127|315:154,1,160
316,243,217348,2,0,B|251:217|251:217|271:347|271:347|351:360|351:360|436:307,1,320
428,232,217594,5,0,0:0:0:0:
397,158,217675,1,0,0:0:0:0:
343,100,217758,2,0,B|202:114|202:114|225:200|225:200|153:253,1,320
221,355,218004,2,0,B|77:252|77:252|73:174|73:174|3:229,1,320
40,93,218249,5,0,0:0:0:0:
100,40,218331,1,0,0:0:0:0:
156,98,218413,2,0,B|157:191|157:191|289:156|289:156|222:73,1,320
383,78,218659,2,0,B|360:119|360:119|431:220|431:220|357:205|357:205|330:247|330:247|366:313|366:313,1,320
222,296,218905,5,0,0:0:0:0:
149,332,218987,1,0,0:0:0:0:
93,276,219069,1,0,0:0:0:0:
130,204,219151,2,0,L|109:116,1,80
209,216,219233,2,0,B|296:191|296:191|357:207|357:207|376:100|376:100|465:148,1,320
476,219,219479,5,0,0:0:0:0:
399,243,219561,1,0,0:0:0:0:
322,266,219643,2,0,L|298:179,1,80
243,286,219725,2,0,L|274:370,1,80
166,312,219807,2,0,B|151:209|151:209|95:174|95:174,1,160
164,75,219971,2,0,B|247:211|247:211|321:126|321:126|393:174,1,320
460,172,220217,5,0,0:0:0:0:
470,251,220299,1,0,0:0:0:0:
394,277,220381,6,0,B|320:193|166:341|103:227,1,300.000011444092
167,131,220872,6,0,B|233:132|233:132|299:161|299:161|313:139,1,160
462,91,221036,6,0,P|473:170|424:259,1,180.000006866455
333,256,221364,2,0,P|305:155|346:58,1,180.000006866455
81,57,221692,6,0,B|123:117|123:117|191:134|191:134|214:195,1,160
341,110,221856,6,0,B|323:149|336:183|368:178|368:178|374:210|321:253,1,180.000006866455
110,299,222184,6,0,B|181:328|181:328|199:265|199:265|269:248,1,160
173,168,222348,6,0,P|219:25|229:174,1,420.000016021729
216,291,223004,6,0,B|77:332|77:332|106:232|106:232|-52:223,1,320
115,63,223249,2,0,B|256:210|256:210|319:101,1,320
375,259,223659,6,0,B|431:98|431:98|364:98|364:98|380:46|380:46|408:58,1,320
271,26,223905,2,0,B|83:62|83:62|166:137|166:137|150:227,1,320
258,185,224397,6,0,L|301:267,1,80
333,156,224479,2,0,B|358:72|358:72|291:97|291:97|231:69|231:69|205:30|205:30|160:94|160:94,1,320
159,318,224889,6,0,L|220:408,1,80
232,285,224971,2,0,L|187:209,1,80
306,255,225053,2,0,B|334:224|334:224|372:225|372:225|394:254|394:254|434:232|434:232,1,160
475,169,225217,2,0,B|401:65|401:65|361:90|361:90|322:35|322:35|302:130|302:130,1,320
147,147,225463,5,0,0:0:0:0:
225,128,225545,1,0,0:0:0:0:
282,65,225627,6,0,B|351:200|351:200|443:172|443:172|483:221|483:221|524:79|524:79|406:99|406:99,1,400
440,44,225872,2,0,B|299:100|299:100|365:145|365:145|80:256,1,400
139,314,226118,5,0,0:0:0:0:
232,350,226200,1,0,0:0:0:0:
315,295,226282,2,0,B|400:108|400:108|296:46|296:46|352:-12|352:-12|349:0,1,400
209,19,226528,2,0,B|172:231|172:231|100:155|100:155|18:151|18:151,1,400
64,241,226774,6,0,B|47:227|47:227|51:189|51:189|10:176|10:176,1,100
145,203,226856,6,0,B|147:256|147:256|142:277|142:277|170:264|170:264|185:265|185:265|194:256,1,100
234,158,226938,6,0,B|198:145|198:145|189:125|189:125|218:121|218:121|224:96,1,100
324,115,227020,6,0,B|348:154|348:154|316:169|316:169|355:192|355:192|353:203,1,100
414,71,227102,6,0,B|382:66|382:66|376:44|376:44|352:23|352:23|330:43|330:43,1,100
501,28,227184,6,0,B|502:85|502:85|471:125|471:125|465:81|465:81|501:29|501:29,8,200
363,293,227594,6,0,B|198:230|198:230|273:211|273:211|245:130|245:130|303:136|303:136,1,320
325,34,227840,2,0,B|380:23|380:23|394:145|394:145|450:75|450:75|505:124,1,320
122,154,228331,6,0,L|94:238,1,80
198,163,228413,2,0,B|194:114|194:114|279:130|279:130|248:25|248:25|127:27,1,320
366,64,228823,6,0,L|292:139,1,80
432,109,228905,2,0,L|495:44,1,80
496,157,228987,2,0,B|436:206|436:206|450:249|450:249|393:277|393:277|350:267,1,160
197,259,229151,6,0,P|235:152|90:52,1,300.000011444092
463,235,229643,6,0,L|486:295,1,60.0000022888184
386,230,229725,2,0,P|259:194|294:29,1,300.000011444092
394,44,230012,1,0,0:0:0:0:
152,182,230217,6,0,L|199:242,1,60.0000022888184
207,124,230299,2,0,P|271:53|364:35,1,180.000006866455
465,303,230463,6,0,P|396:203|35:196,1,480.000018310548
111,316,230872,2,0,P|194:166|396:38,1,360.000013732911
413,133,231200,2,0,P|487:246|314:338,1,360.000013732911
82,176,231528,6,0,B|101:135|101:135|109:103|52:100|96:67|96:67,1,120.000004577637
169,36,231713,1,0,0:0:0:0:
248,37,231815,6,0,B|324:42|324:42|321:75|363:68|364:105,2,120.000004577637
21,199,232266,6,0,L|46:183,2,30.0000011444092
46,235,232348,6,0,B|250:256|229:31|229:31|291:196|466:121|466:121|357:299|406:383|406:383|284:301|176:348|176:348,1,1140.00004348755
0,192,233208,2,0,L|50:147,1,60.0000022888184
32,150,233289,2,0,L|95:127,1,60.0000022888184
80,123,233371,2,0,L|151:119,1,60.0000022888184
134,122,233453,2,0,L|197:147,1,60.0000022888184
189,144,233535,2,0,L|261:193,1,60.0000022888184
233,172,233617,2,0,L|302:226,1,60.0000022888184
274,204,233699,2,0,L|340:238,1,60.0000022888184
320,236,233781,2,0,L|396:252,1,60.0000022888184
365,260,233863,2,0,L|445:253,1,60.0000022888184
420,264,233945,2,0,L|481:237,1,60.0000022888184
474,239,234027,2,0,L|516:194,1,60.0000022888184
508,197,234109,2,0,L|535:107,1,60.0000022888184
510,145,234191,6,0,B|272:26|272:26|297:120|297:120|215:146|215:146|215:305|215:305,1,480.000018310548
260,263,234396,6,0,L|287:157,1,60.0000022888184
307,257,234478,6,0,B|250:152|250:152|128:166|128:166|168:78|168:78|133:40|133:40|81:83|81:83|26:184,1,480.000018310548
209,272,234847,5,0,0:0:0:0:
209,111,234956,1,0,0:0:0:0:
348,192,235065,1,0,0:0:0:0:
172,192,235175,5,0,0:0:0:0:
297,120,235284,1,0,0:0:0:0:
297,263,235393,1,0,0:0:0:0:
219,127,235503,5,0,0:0:0:0:
329,192,235612,1,0,0:0:0:0:
219,255,235721,1,0,0:0:0:0:
288,136,235830,5,0,0:0:0:0:
288,247,235939,1,0,0:0:0:0:
191,192,236048,1,0,0:0:0:0:
311,192,236158,5,0,0:0:0:0:
228,240,236267,1,0,0:0:0:0:
228,144,236376,1,0,0:0:0:0:
279,232,236486,5,0,0:0:0:0:
209,191,236595,1,0,0:0:0:0:
279,152,236704,1,0,0:0:0:0:
232,231,236814,5,0,0:0:0:0:
232,152,236923,1,0,0:0:0:0:
302,192,237032,1,0,0:0:0:0:
209,191,237142,5,0,0:0:0:0:
279,152,237251,1,0,0:0:0:0:
70,234,237634,6,0,L|520:33,1,480.000018310548
480,172,237880,6,0,B|466:150|466:150|464:162|464:162|455:157|455:157|449:147|449:147,1,40
386,200,238044,6,0,B|394:226|394:226|410:236|410:236|416:235|416:235,1,47.9999985351563
387,106,238208,6,0,B|369:106|369:106|354:96|354:96|351:110|351:110|342:123|342:123,1,55.9999982910157
286,164,238371,6,0,B|267:148|267:148|237:155|237:155|221:168,1,64
256,44,238535,6,0,B|277:61|277:61|295:64|295:64|305:55|305:55|335:58|335:58,1,71.9999978027344
369,146,238699,6,0,B|341:162|341:162|349:176|349:176|321:206|321:206|334:210|334:210|341:217,1,80
439,230,238863,6,0,B|460:267|460:267|467:270|467:270|462:278|462:278|471:291|471:291|463:319,1,88.000002685547
355,308,239027,6,0,B|325:291|325:291|328:274|328:274|303:263|303:263|313:236|313:236|323:230,1,95.9999970703126
288,147,239191,6,0,B|287:111|287:111|268:103|268:103|243:111|243:111|233:104|233:104|214:122|214:122,1,103.999995239258
164,183,239355,6,0,B|183:200|183:200|197:210|197:210|195:242|195:242|170:278|170:278,1,111.999996582031
58,306,239519,6,0,B|63:271|63:271|84:253|84:253|86:238|86:238|71:222|71:222|74:180,1,120.000004577637
79,95,239683,6,0,B|124:82|124:82|142:88|142:88|178:72|178:72|194:88,1,128
306,67,239847,6,0,B|338:83|338:83|323:133|323:133|352:147|352:147|356:188|356:188,1,136.000002593994
293,259,240011,6,0,B|245:234|245:234|254:204|254:204|208:161|208:161|212:134,1,143.999995605469
129,218,240175,6,0,B|146:251|146:251|126:283|126:283|162:332|162:332|140:352,1,151.999995941162
255,330,240339,6,0,B|322:298|322:298|316:238|316:238|357:235|357:235|366:220,1,160
380,145,240503,6,0,B|318:131|318:131|289:142|289:142|243:122|243:122|201:142,1,167.999994873047
117,47,240667,6,0,B|65:125|65:125|113:163|113:163|101:219|101:219,1,176.000005371094
220,266,240830,6,0,B|244:172|244:172|266:128|266:128|316:95|316:95,1,184.000003509522
509,9,240994,5,0,0:0:0:0:
501,9,241487,6,0,B|483:26|483:26|463:14|463:14|480:31|480:31|458:46|458:46|483:40|483:40|489:64|489:64|491:37|491:37|514:44|514:44|494:32|494:32|501:9|501:9,2,200
