osu file format v14

[General]
AudioFilename: audio.mp3
AudioLeadIn: 0
PreviewTime: -1
Countdown: 0
SampleSet: Soft
StackLeniency: 0.7
Mode: 0
LetterboxInBreaks: 0
WidescreenStoryboard: 1

[Editor]
Bookmarks: 139968
DistanceSpacing: 0.8
BeatDivisor: 4
GridSize: 8
TimelineZoom: 2.4

[Metadata]
Title:Papiez Zawadiaka
TitleUnicode:Papiez Zawadiaka
Artist:Jan Pawel 2
ArtistUnicode:Jan Pawel 2
Creator:jackkacperek
Version:Marysia (ulatwiona)
Source:
Tags:papaj Jan Paweł Drugi Inba Wykop.pl Arab Techno September 28th Atlantis
BeatmapID:2149743
BeatmapSetID:1028100

[Difficulty]
HPDrainRate:3
CircleSize:3
OverallDifficulty:6
ApproachRate:9
SliderMultiplier:1.6
SliderTickRate:1

[Events]
//Background and Video events
0,0,"obraz06.jpg",0,0
//Break Periods
//Storyboard Layer 0 (Background)
//Storyboard Layer 1 (Fail)
//Storyboard Layer 2 (Pass)
//Storyboard Layer 3 (Foreground)
//Storyboard Layer 4 (Overlay)
//Storyboard Sound Samples

[TimingPoints]
23675,363.416111447608,4,2,0,100,1,0
23675,-153.846153846154,4,2,0,100,0,0
46933,-100,4,2,0,100,0,0
70192,-90.9090909090909,4,2,0,100,0,0
70192,-83.3333333333333,4,2,0,100,0,0
87636,-90.9090909090909,4,2,0,100,0,0
116709,-76.9230769230769,4,2,0,100,0,0
139968,-66.6666666666667,4,2,0,100,0,0

[Colours]
Combo1 : 255,191,0
Combo2 : 198,23,4
Combo3 : 18,124,255

[HitObjects]
256,192,20767,12,0,23311,0:0:0:0:
191,19,23674,6,0,L|163:213,1,160
233,319,24401,1,0,0:0:0:0:
260,222,24583,1,0,0:0:0:0:
163,249,24765,1,0,0:0:0:0:
320,300,24946,1,0,0:0:0:0:
127,324,25128,6,0,P|91:289|91:218,2,103.999995239258
205,309,26037,1,0,0:0:0:0:
264,256,26218,1,0,0:0:0:0:
287,180,26400,1,0,0:0:0:0:
268,102,26582,6,0,B|220:83|220:83|148:90,2,103.999995239258
340,205,27490,1,0,0:0:0:0:
352,105,27672,1,0,0:0:0:0:
250,180,27854,1,0,0:0:0:0:
353,283,28035,6,0,P|395:260|418:191,1,103.999995239258
248,293,28762,1,0,0:0:0:0:
208,137,29126,1,0,0:0:0:0:
71,293,29489,5,0,0:0:0:0:
71,293,29671,1,0,0:0:0:0:
119,140,29853,1,0,0:0:0:0:
119,140,30034,1,0,0:0:0:0:
231,218,30216,1,0,0:0:0:0:
231,218,30398,1,0,0:0:0:0:
74,217,30579,1,0,0:0:0:0:
74,217,30761,1,0,0:0:0:0:
208,137,30943,6,0,L|333:123,1,103.999995239258
421,191,31670,1,0,0:0:0:0:
421,191,31851,1,0,0:0:0:0:
307,249,32033,1,0,0:0:0:0:
446,288,32215,1,0,0:0:0:0:
274,337,32396,6,0,L|272:218,2,103.999995239258
182,336,33305,1,0,0:0:0:0:
131,232,33487,1,0,0:0:0:0:
219,263,33668,1,0,0:0:0:0:
63,292,33850,6,0,L|53:164,1,103.999995239258
195,157,34577,1,0,0:0:0:0:
195,157,34759,1,0,0:0:0:0:
206,266,34940,1,0,0:0:0:0:
115,186,35122,1,0,0:0:0:0:
280,208,35304,6,0,L|293:88,2,103.999995239258
269,293,36212,1,0,0:0:0:0:
340,344,36394,1,0,0:0:0:0:
417,316,36576,1,0,0:0:0:0:
439,216,36757,6,0,L|313:201,2,103.999995239258
272,156,37848,2,0,P|301:135|333:125,1,51.999997619629
254,240,38211,6,0,P|213:217|137:230,1,103.999995239258
45,315,38938,1,0,0:0:0:0:
45,315,39120,1,0,0:0:0:0:
155,307,39301,1,0,0:0:0:0:
40,218,39483,1,0,0:0:0:0:
153,114,39665,6,0,L|155:242,1,103.999995239258
332,167,40392,2,0,L|333:59,1,103.999995239258
329,271,41118,6,0,P|382:289|448:293,1,103.999995239258
423,149,41845,1,0,0:0:0:0:
423,149,42027,1,0,0:0:0:0:
472,233,42209,1,0,0:0:0:0:
370,214,42390,1,0,0:0:0:0:
355,88,42572,6,0,P|386:71|471:73,2,103.999995239258
215,42,43662,1,0,0:0:0:0:
145,186,44026,6,0,L|137:137,3,25.9999988098145
231,162,44389,2,0,L|233:132,3,25.9999988098145
311,180,44753,2,0,L|315:210,1,25.9999988098145
390,242,44934,2,0,L|379:277,1,25.9999988098145
332,338,45116,2,0,L|302:333,1,25.9999988098145
259,268,45298,2,0,L|225:274,1,25.9999988098145
137,333,45479,5,0,0:0:0:0:
118,323,45570,1,0,0:0:0:0:
103,308,45661,1,0,0:0:0:0:
92,289,45752,1,0,0:0:0:0:
90,267,45843,1,0,0:0:0:0:
97,247,45934,1,0,0:0:0:0:
111,232,46025,1,0,0:0:0:0:
127,219,46115,1,0,0:0:0:0:
143,204,46206,5,0,0:0:0:0:
171,223,46297,1,0,0:0:0:0:
202,237,46388,1,0,0:0:0:0:
236,243,46479,1,0,0:0:0:0:
270,245,46570,1,0,0:0:0:0:
304,238,46661,1,0,0:0:0:0:
337,225,46751,1,0,0:0:0:0:
366,207,46842,1,0,0:0:0:0:
386,178,46933,6,0,P|397:124|405:4,1,160
463,210,47478,1,0,0:0:0:0:
300,128,47660,1,0,0:0:0:0:
482,95,47842,1,0,0:0:0:0:
270,139,48023,1,0,0:0:0:0:
382,263,48205,1,0,0:0:0:0:
278,303,48387,6,0,P|238:293|189:289,1,80
74,181,48750,2,0,P|114:179|155:171,1,80
54,23,49114,2,0,P|41:61|31:104,1,80
33,255,49477,1,0,0:0:0:0:
112,104,49659,1,0,0:0:0:0:
235,198,49840,6,0,L|59:177,1,160
214,280,50386,1,0,0:0:0:0:
306,163,50567,1,0,0:0:0:0:
199,118,50749,1,0,0:0:0:0:
293,244,50931,1,0,0:0:0:0:
289,83,51112,1,0,0:0:0:0:
148,212,51294,6,0,P|200:200|306:263,1,160
453,169,51839,1,0,0:0:0:0:
371,140,52021,2,0,P|373:180|386:220,1,80
491,344,52384,2,0,P|504:305|506:261,1,80
378,352,52748,5,0,0:0:0:0:
385,217,52929,1,0,0:0:0:0:
248,355,53111,1,0,0:0:0:0:
250,214,53293,1,0,0:0:0:0:
376,324,53475,1,0,0:0:0:0:
205,282,53656,1,0,0:0:0:0:
397,201,53838,1,0,0:0:0:0:
262,116,54020,1,0,0:0:0:0:
333,247,54201,6,0,P|358:207|377:90,1,160
250,197,54747,2,0,P|201:204|159:205,1,80
329,271,55110,1,0,0:0:0:0:
177,292,55292,1,0,0:0:0:0:
331,179,55473,1,0,0:0:0:0:
199,75,55655,6,0,P|182:116|278:193,1,160
355,60,56200,1,0,0:0:0:0:
439,144,56382,2,0,P|433:188|416:233,1,80
308,342,56745,2,0,P|296:301|291:261,1,80
88,211,57109,6,0,L|266:197,1,160
442,148,57654,1,0,0:0:0:0:
275,88,57836,1,0,0:0:0:0:
388,215,58017,1,0,0:0:0:0:
257,70,58199,1,0,0:0:0:0:
251,226,58381,1,0,0:0:0:0:
233,57,58562,6,0,L|64:42,1,160
41,212,59108,1,0,0:0:0:0:
28,120,59289,1,0,0:0:0:0:
139,212,59471,1,0,0:0:0:0:
206,102,59653,1,0,0:0:0:0:
262,253,59834,1,0,0:0:0:0:
85,342,60016,6,0,P|143:289|138:211,1,160
294,337,60561,1,0,0:0:0:0:
218,251,60743,1,0,0:0:0:0:
360,251,60925,1,0,0:0:0:0:
305,112,61106,2,0,P|288:153|278:195,1,80
389,106,61470,6,0,P|363:56|257:57,2,160
382,308,62378,1,0,0:0:0:0:
306,177,62560,1,0,0:0:0:0:
438,211,62742,1,0,0:0:0:0:
298,296,62923,6,0,B|288:160|288:160|317:187,1,160
206,337,63469,1,0,0:0:0:0:
174,211,63650,2,0,L|158:101,1,80
69,42,64014,1,0,0:0:0:0:
69,42,64195,1,0,0:0:0:0:
38,211,64377,6,0,P|72:182|177:216,1,160
233,326,64922,1,0,0:0:0:0:
369,267,65104,1,0,0:0:0:0:
206,341,65286,1,0,0:0:0:0:
265,191,65467,1,0,0:0:0:0:
304,355,65649,1,0,0:0:0:0:
111,285,65831,6,0,B|144:251|144:251|275:278,2,160
321,333,66739,1,0,0:0:0:0:
321,333,66921,2,0,P|331:282|335:249,1,80
308,127,67284,6,0,B|263:113|220:115|220:115|183:125|139:126,1,160
57,257,67830,1,0,0:0:0:0:
191,208,68011,1,0,0:0:0:0:
42,164,68193,1,0,0:0:0:0:
141,280,68375,1,0,0:0:0:0:
148,126,68556,1,0,0:0:0:0:
70,323,68738,6,0,P|106:355|215:319,1,160
312,155,69283,1,0,0:0:0:0:
402,256,69465,2,0,P|372:289|333:306,1,80
177,210,69828,2,0,P|221:207|260:220,1,80
88,318,70192,6,0,L|80:126,1,176.000005371094
211,287,70737,1,0,0:0:0:0:
251,144,70919,1,0,0:0:0:0:
135,219,71100,1,0,0:0:0:0:
329,181,71282,1,0,0:0:0:0:
149,111,71464,1,0,0:0:0:0:
382,115,71645,6,0,P|404:154|343:273,1,176.000005371094
170,314,72191,2,0,L|281:309,1,95.9999970703126
51,343,72554,1,0,0:0:0:0:
137,177,72736,1,0,0:0:0:0:
163,315,72917,1,0,0:0:0:0:
56,194,73099,6,0,B|49:45|49:45|88:74,1,191.999994140625
260,232,73644,1,0,0:0:0:0:
224,98,73826,1,0,0:0:0:0:
164,262,74008,1,0,0:0:0:0:
305,157,74189,1,0,0:0:0:0:
157,287,74371,1,0,0:0:0:0:
291,326,74553,6,0,L|483:342,1,191.999994140625
404,160,75098,1,0,0:0:0:0:
333,118,75280,2,0,P|322:167|348:217,1,95.9999970703126
503,78,75643,2,0,L|399:65,1,95.9999970703126
229,194,76006,5,0,0:0:0:0:
383,140,76188,1,0,0:0:0:0:
201,109,76370,1,0,0:0:0:0:
407,149,76552,1,0,0:0:0:0:
217,212,76733,1,0,0:0:0:0:
284,53,76915,1,0,0:0:0:0:
329,246,77097,1,0,0:0:0:0:
117,163,77278,1,0,0:0:0:0:
221,321,77460,6,0,P|249:280|183:168,1,191.999994140625
122,342,78005,1,0,0:0:0:0:
117,163,78187,1,0,0:0:0:0:
248,276,78369,1,0,0:0:0:0:
46,287,78550,1,0,0:0:0:0:
260,184,78732,1,0,0:0:0:0:
27,309,78914,6,0,L|26:111,1,191.999994140625
168,267,79459,1,0,0:0:0:0:
260,184,79641,1,0,0:0:0:0:
263,349,79822,1,0,0:0:0:0:
182,174,80004,1,0,0:0:0:0:
131,340,80186,1,0,0:0:0:0:
369,230,80367,6,0,B|374:177|374:177|350:123|350:123|357:39,2,176.000005371094
260,345,81276,1,0,0:0:0:0:
210,185,81458,1,0,0:0:0:0:
395,300,81639,1,0,0:0:0:0:
152,269,81821,6,0,B|3:267|3:267|63:213,1,191.999994140625
232,206,82366,1,0,0:0:0:0:
116,123,82548,1,0,0:0:0:0:
141,268,82730,1,0,0:0:0:0:
218,111,82911,1,0,0:0:0:0:
259,267,83093,1,0,0:0:0:0:
393,190,83275,6,0,P|380:132|277:162,2,191.999994140625
305,338,84183,1,0,0:0:0:0:
178,235,84365,2,0,L|290:228,1,95.9999970703126
402,317,84728,6,0,P|413:266|424:105,1,191.999994140625
306,208,85274,1,0,0:0:0:0:
255,71,85455,1,0,0:0:0:0:
172,204,85637,1,0,0:0:0:0:
266,54,85819,1,0,0:0:0:0:
164,223,86000,1,0,0:0:0:0:
146,65,86182,6,0,P|73:51|11:138,1,191.999994140625
135,294,86727,1,0,0:0:0:0:
284,148,86909,2,0,L|87:138,1,191.999994140625
233,262,87454,1,0,0:0:0:0:
315,70,87636,6,0,P|334:129|337:257,1,176.000005371094
218,336,88181,1,0,0:0:0:0:
239,175,88363,1,0,0:0:0:0:
360,273,88544,1,0,0:0:0:0:
149,261,88726,1,0,0:0:0:0:
361,181,88908,1,0,0:0:0:0:
131,155,89089,6,0,B|115:18|115:18|157:44,2,176.000005371094
230,220,89998,1,0,0:0:0:0:
291,136,90180,2,0,L|295:32,1,88.000002685547
347,209,90543,6,0,P|383:172|501:204,1,176.000005371094
328,333,91088,1,0,0:0:0:0:
471,282,91270,1,0,0:0:0:0:
299,222,91452,1,0,0:0:0:0:
339,359,91633,1,0,0:0:0:0:
386,189,91815,1,0,0:0:0:0:
282,300,91997,6,0,P|239:318|158:226,1,176.000005371094
286,95,92542,1,0,0:0:0:0:
403,191,92724,2,0,P|356:219|314:237,1,88.000002685547
160,113,93087,2,0,P|207:141|249:158,1,88.000002685547
169,246,93450,6,0,P|92:269|-17:337,1,176.000005371094
225,313,93996,1,0,0:0:0:0:
55,225,94177,1,0,0:0:0:0:
232,139,94359,1,0,0:0:0:0:
142,303,94541,1,0,0:0:0:0:
310,234,94722,1,0,0:0:0:0:
211,86,94904,6,0,L|221:300,1,176.000005371094
381,344,95449,2,0,P|336:340|273:338,1,88.000002685547
127,344,95813,1,0,0:0:0:0:
309,243,95994,1,0,0:0:0:0:
88,166,96176,1,0,0:0:0:0:
216,319,96358,6,0,P|151:261|46:273,1,176.000005371094
127,344,96903,1,0,0:0:0:0:
190,186,97085,1,0,0:0:0:0:
284,307,97266,1,0,0:0:0:0:
119,235,97448,1,0,0:0:0:0:
307,322,97630,1,0,0:0:0:0:
91,224,97811,6,0,P|89:146|184:88,1,176.000005371094
234,255,98357,1,0,0:0:0:0:
345,176,98538,2,0,L|359:72,1,88.000002685547
265,247,98902,2,0,L|275:339,1,88.000002685547
249,149,99265,5,0,0:0:0:0:
160,296,99447,1,0,0:0:0:0:
125,122,99628,1,0,0:0:0:0:
270,246,99810,1,0,0:0:0:0:
68,177,99992,1,0,0:0:0:0:
239,71,100174,1,0,0:0:0:0:
160,296,100355,1,0,0:0:0:0:
140,93,100537,1,0,0:0:0:0:
294,249,100719,6,0,B|308:213|308:166|308:166|328:132|327:65,1,176.000005371094
471,217,101264,2,0,L|391:168,1,88.000002685547
234,321,101627,1,0,0:0:0:0:
288,179,101809,1,0,0:0:0:0:
380,251,101991,1,0,0:0:0:0:
216,223,102172,6,0,P|204:172|314:95,1,176.000005371094
351,286,102718,1,0,0:0:0:0:
142,224,102899,1,0,0:0:0:0:
348,190,103081,1,0,0:0:0:0:
120,231,103263,1,0,0:0:0:0:
368,297,103444,1,0,0:0:0:0:
94,243,103626,6,0,B|77:193|92:149|92:149|107:95|78:45,1,176.000005371094
53,320,104171,2,0,P|104:326|152:308,1,88.000002685547
331,217,104535,1,0,0:0:0:0:
164,191,104716,1,0,0:0:0:0:
297,318,104898,1,0,0:0:0:0:
91,244,105080,6,0,B|89:101|89:101|122:135,2,176.000005371094
189,333,105988,1,0,0:0:0:0:
269,187,106170,1,0,0:0:0:0:
91,244,106352,1,0,0:0:0:0:
279,291,106533,6,0,L|480:325,2,176.000005371094
157,209,107442,1,0,0:0:0:0:
269,111,107624,2,0,P|271:164|269:219,1,88.000002685547
151,322,107987,6,0,P|208:297|322:349,1,176.000005371094
404,180,108532,2,0,P|412:248|416:291,1,88.000002685547
305,204,108896,1,0,0:0:0:0:
405,84,109077,1,0,0:0:0:0:
245,50,109259,1,0,0:0:0:0:
388,201,109441,6,0,P|358:144|238:158,1,176.000005371094
200,296,109986,1,0,0:0:0:0:
97,196,110168,2,0,L|91:69,1,88.000002685547
228,195,110531,2,0,L|224:296,1,88.000002685547
412,169,110894,6,0,P|325:137|229:108,1,176.000005371094
68,195,111439,2,0,L|177:180,1,88.000002685547
311,284,111803,1,0,0:0:0:0:
162,262,111985,1,0,0:0:0:0:
296,147,112166,1,0,0:0:0:0:
218,326,112348,6,0,P|150:346|83:244,2,176.000005371094
346,220,113257,1,0,0:0:0:0:
217,102,113438,2,0,P|205:151|197:211,1,88.000002685547
434,117,113802,6,0,P|379:82|297:169,1,176.000005371094
258,298,114347,1,0,0:0:0:0:
21,190,114529,2,0,P|76:155|159:247,1,176.000005371094
118,329,115074,1,0,0:0:0:0:
279,290,115255,5,0,0:0:0:0:
300,274,115346,1,0,0:0:0:0:
315,252,115437,1,0,0:0:0:0:
326,228,115528,1,0,0:0:0:0:
331,202,115619,1,0,0:0:0:0:
325,176,115710,1,0,0:0:0:0:
311,153,115800,1,0,0:0:0:0:
290,136,115891,1,0,0:0:0:0:
263,136,115982,5,0,0:0:0:0:
272,93,116073,1,0,0:0:0:0:
300,60,116164,1,0,0:0:0:0:
340,43,116255,1,0,0:0:0:0:
384,46,116346,1,0,0:0:0:0:
421,68,116436,1,0,0:0:0:0:
444,105,116527,1,0,0:0:0:0:
447,149,116618,1,0,0:0:0:0:
442,180,116709,6,0,P|382:164|213:160,1,207.999990478516
90,266,117254,1,0,0:0:0:0:
275,235,117436,1,0,0:0:0:0:
177,97,117618,1,0,0:0:0:0:
177,300,117799,1,0,0:0:0:0:
63,158,117981,1,0,0:0:0:0:
303,247,118163,6,0,L|511:302,1,207.999990478516
458,118,118708,1,0,0:0:0:0:
458,118,118890,2,0,L|339:118,1,103.999995239258
173,193,119253,2,0,P|231:183|286:182,1,103.999995239258
165,271,119616,6,0,P|100:232|153:118,1,207.999990478516
311,302,120161,1,0,0:0:0:0:
330,134,120343,1,0,0:0:0:0:
173,193,120525,1,0,0:0:0:0:
404,191,120707,1,0,0:0:0:0:
159,179,120888,1,0,0:0:0:0:
419,169,121070,6,0,P|431:119|293:70,1,207.999990478516
244,194,121615,1,0,0:0:0:0:
138,122,121797,2,0,P|125:70|117:20,1,103.999995239258
45,201,122160,2,0,P|36:252|24:302,1,103.999995239258
156,286,122524,6,0,B|217:274|217:274|263:293|263:293|379:279,1,207.999990478516
490,170,123069,1,0,0:0:0:0:
322,144,123251,1,0,0:0:0:0:
446,252,123432,1,0,0:0:0:0:
259,216,123614,1,0,0:0:0:0:
385,78,123796,1,0,0:0:0:0:
300,284,123977,6,0,P|238:299|188:183,1,207.999990478516
294,77,124522,1,0,0:0:0:0:
409,224,124704,1,0,0:0:0:0:
187,156,124886,1,0,0:0:0:0:
375,132,125068,2,0,L|485:125,1,103.999995239258
294,77,125431,6,0,L|79:63,2,207.999990478516
431,161,126340,1,0,0:0:0:0:
256,203,126521,1,0,0:0:0:0:
428,277,126703,1,0,0:0:0:0:
266,293,126885,6,0,B|106:300|106:300|159:270,1,207.999990478516
315,148,127430,1,0,0:0:0:0:
160,46,127612,2,0,P|146:97|148:151,1,103.999995239258
327,249,127975,2,0,P|328:197|314:147,1,103.999995239258
223,302,128338,6,0,P|168:332|173:229,1,207.999990478516
351,295,128883,1,0,0:0:0:0:
216,162,129065,1,0,0:0:0:0:
412,101,129247,1,0,0:0:0:0:
192,148,129429,1,0,0:0:0:0:
430,124,129610,1,0,0:0:0:0:
173,131,129792,6,0,L|159:339,1,207.999990478516
342,242,130337,1,0,0:0:0:0:
244,334,130519,1,0,0:0:0:0:
198,181,130701,1,0,0:0:0:0:
292,159,130882,2,0,L|396:161,1,103.999995239258
134,282,131246,6,0,P|122:219|120:71,2,207.999990478516
234,329,132154,1,0,0:0:0:0:
376,248,132336,1,0,0:0:0:0:
247,211,132518,1,0,0:0:0:0:
396,335,132699,6,0,P|438:289|365:173,1,207.999990478516
252,300,133244,1,0,0:0:0:0:
65,180,133426,2,0,L|168:167,1,103.999995239258
252,300,133790,2,0,L|355:313,1,103.999995239258
469,183,134153,6,0,B|431:150|431:150|433:315,2,207.999990478516
273,94,135062,1,0,0:0:0:0:
463,178,135243,1,0,0:0:0:0:
244,82,135425,1,0,0:0:0:0:
354,266,135607,6,0,P|361:61|363:51,1,207.999990478516
261,204,136152,1,0,0:0:0:0:
135,144,136333,1,0,0:0:0:0:
272,102,136515,1,0,0:0:0:0:
164,238,136697,2,0,L|21:230,1,103.999995239258
301,312,137060,6,0,L|327:98,1,207.999990478516
398,225,137605,1,0,0:0:0:0:
497,312,137787,2,0,L|471:98,1,207.999990478516
357,319,138332,1,0,0:0:0:0:
165,231,138514,5,0,0:0:0:0:
201,210,138605,1,0,0:0:0:0:
241,218,138696,1,0,0:0:0:0:
263,253,138787,1,0,0:0:0:0:
251,292,138877,5,0,0:0:0:0:
217,317,138968,1,0,0:0:0:0:
175,321,139059,1,0,0:0:0:0:
134,310,139150,1,0,0:0:0:0:
100,284,139241,5,0,0:0:0:0:
74,251,139332,1,0,0:0:0:0:
63,210,139423,2,0,L|72:155,1,51.999997619629
150,86,139604,2,0,L|207:75,1,51.999997619629
250,158,139786,2,0,L|307:167,1,51.999997619629
461,178,139968,6,0,P|497:119|365:103,1,240.000009155274
334,324,140513,1,0,0:0:0:0:
252,108,140694,1,0,0:0:0:0:
197,284,140876,1,0,0:0:0:0:
380,151,141058,1,0,0:0:0:0:
92,120,141240,1,0,0:0:0:0:
290,263,141421,6,0,L|312:138,1,120.000004577637
157,50,141785,2,0,L|177:168,1,120.000004577637
238,329,142148,1,0,0:0:0:0:
76,224,142330,1,0,0:0:0:0:
318,236,142512,1,0,0:0:0:0:
113,312,142693,1,0,0:0:0:0:
391,261,142875,6,0,B|413:211|372:167|334:153|334:153|363:52,1,240.000009155274
145,183,143420,1,0,0:0:0:0:
320,237,143602,1,0,0:0:0:0:
128,307,143784,1,0,0:0:0:0:
156,100,143965,1,0,0:0:0:0:
206,271,144147,1,0,0:0:0:0:
55,154,144329,6,0,L|309:142,1,240.000009155274
407,296,144874,1,0,0:0:0:0:
446,133,145055,2,0,L|454:9,1,120.000004577637
302,262,145419,2,0,L|294:138,1,120.000004577637
196,327,145782,5,0,0:0:0:0:
255,142,145964,1,0,0:0:0:0:
345,335,146146,1,0,0:0:0:0:
255,114,146327,1,0,0:0:0:0:
192,347,146509,1,0,0:0:0:0:
252,84,146691,1,0,0:0:0:0:
382,232,146873,1,0,0:0:0:0:
151,177,147054,1,0,0:0:0:0:
458,188,147236,6,0,P|466:251|440:301,1,120.000004577637
259,303,147599,2,0,P|233:249|242:191,1,120.000004577637
399,69,147963,1,0,0:0:0:0:
367,255,148145,1,0,0:0:0:0:
256,76,148326,1,0,0:0:0:0:
440,128,148508,1,0,0:0:0:0:
159,168,148690,6,0,L|21:132,1,120.000004577637
229,259,149053,2,0,L|345:228,1,120.000004577637
136,285,149416,1,0,0:0:0:0:
293,352,149598,1,0,0:0:0:0:
64,338,149780,1,0,0:0:0:0:
164,197,149962,1,0,0:0:0:0:
274,340,150143,6,0,L|309:83,2,240.000009155274
444,228,151052,1,0,0:0:0:0:
298,333,151234,1,0,0:0:0:0:
477,209,151415,1,0,0:0:0:0:
263,146,151597,6,0,L|119:133,1,120.000004577637
31,257,151960,2,0,L|150:267,1,120.000004577637
369,263,152324,1,0,0:0:0:0:
241,354,152506,1,0,0:0:0:0:
240,135,152687,1,0,0:0:0:0:
379,241,152869,1,0,0:0:0:0:
176,199,153051,6,0,P|158:130|170:77,1,120.000004577637
439,84,153414,2,0,P|457:153|445:206,1,120.000004577637
286,329,153777,1,0,0:0:0:0:
297,145,153959,1,0,0:0:0:0:
461,288,154141,2,0,L|325:256,1,120.000004577637
197,150,154504,6,0,B|207:335|207:335|243:278,1,240.000009155274
343,106,155049,1,0,0:0:0:0:
176,160,155231,1,0,0:0:0:0:
354,225,155413,1,0,0:0:0:0:
146,178,155595,1,0,0:0:0:0:
366,256,155776,1,0,0:0:0:0:
124,196,155958,6,0,P|99:252|112:325,1,120.000004577637
248,165,156321,2,0,P|212:115|142:90,1,120.000004577637
265,310,156685,2,0,L|383:285,1,120.000004577637
474,140,157048,2,0,L|356:165,1,120.000004577637
198,258,157412,6,0,L|211:6,1,240.000009155274
355,269,157957,1,0,0:0:0:0:
383,95,158138,1,0,0:0:0:0:
366,302,158320,1,0,0:0:0:0:
486,188,158502,1,0,0:0:0:0:
221,188,158684,1,0,0:0:0:0:
376,380,158865,6,0,P|448:298|372:221,1,240.000009155274
71,316,159410,1,0,0:0:0:0:
287,209,159592,1,0,0:0:0:0:
69,197,159774,1,0,0:0:0:0:
216,360,159956,2,0,L|217:217,1,120.000004577637
296,35,160319,6,0,B|310:239|310:239|341:195,1,240.000009155274
441,66,160864,1,0,0:0:0:0:
441,289,161046,1,0,0:0:0:0:
223,189,161227,1,0,0:0:0:0:
437,158,161409,1,0,0:0:0:0:
249,277,161591,1,0,0:0:0:0:
303,76,161773,6,0,B|308:178|308:178|343:214|343:214|332:318,1,240.000009155274
166,355,162318,1,0,0:0:0:0:
105,182,162499,1,0,0:0:0:0:
322,214,162681,1,0,0:0:0:0:
86,311,162863,5,0,0:0:0:0:
193,106,163045,1,0,0:0:0:0:
271,358,163226,1,0,0:0:0:0:
