osu file format v14

[General]
AudioFilename: audio.mp3
AudioLeadIn: 0
PreviewTime: 63469
Countdown: 0
SampleSet: Normal
StackLeniency: 0.7
Mode: 0
LetterboxInBreaks: 0
WidescreenStoryboard: 1

[Editor]
Bookmarks: 135737,143006
DistanceSpacing: 1.3
BeatDivisor: 2
GridSize: 32
TimelineZoom: 1

[Metadata]
Title:Rules of Nature
TitleUnicode:Rules of Nature
Artist:Jamie Christopherson
ArtistUnicode:Jamie Christopherson
Creator:Revolver
Version:NORMAL
Source:Metal Gear Rising: Revengeance
Tags:jason miller raiden jack the ripper platinum platinumgames mgs mgr solid metal english video game gouhin deetz diodex
BeatmapID:3296019
BeatmapSetID:1614414

[Difficulty]
HPDrainRate:3
CircleSize:3
OverallDifficulty:4.5
ApproachRate:5.5
SliderMultiplier:1.2
SliderTickRate:1

[Events]
//Background and Video events
0,0,"disgusting.jpg",0,0
//Break Periods
2,95514,97421
//Storyboard Layer 0 (Background)
//Storyboard Layer 1 (Fail)
//Storyboard Layer 2 (Pass)
//Storyboard Layer 3 (Foreground)
//Storyboard Layer 4 (Overlay)
//Storyboard Sound Samples

[TimingPoints]
700,461.538461538462,4,1,0,35,1,0
22853,-100,4,1,0,50,0,0
65315,-100,4,1,0,65,0,1
94853,-100,4,1,0,65,0,0
113315,-100,4,1,0,65,0,1
120700,-100,4,1,0,65,0,0
135469,-100,4,1,0,5,0,0

[Colours]
Combo1 : 255,94,55
Combo2 : 173,255,95
Combo3 : 17,254,176
Combo4 : 255,88,100

[HitObjects]
15,29,8084,6,0,P|78:11|141:38,1,120
189,171,9007,2,0,P|252:189|315:162,1,120
403,53,9930,6,0,B|436:90|436:90|420:177,1,120
320,276,10853,2,0,B|287:313|287:313|303:400,1,120
453,354,11776,6,0,L|477:215,1,120,0|8,0:0|0:0,0:0:0:0:
359,128,12700,2,0,L|338:9,1,120,0|8,0:0|0:0,0:0:0:0:
218,15,13623,6,0,P|180:4|145:18,1,60
125,56,14084,2,0,P|114:94|128:129,1,60,8|0,0:0|0:0,0:0:0:0:
172,139,14546,2,0,P|181:174|172:206,1,60,8|0,0:0|0:0,0:0:0:0:
131,236,15007,2,0,L|137:303,1,60
113,351,15469,6,0,P|44:361|-17:326,1,120,4|0,0:0|0:0,0:0:0:0:
5,281,16161,1,0,0:0:0:0:
27,130,16623,1,0,0:0:0:0:
27,130,16853,2,0,P|49:112|84:107,1,60,8|4,0:0|0:3,0:0:0:0:
132,134,17315,6,0,B|188:126|188:126|201:131|201:131|259:124,1,120,2|0,0:3|0:0,0:0:0:0:
310,121,18007,2,0,P|326:158|319:196,1,60,2|0,0:3|0:0,0:0:0:0:
310,238,18469,1,0,0:0:0:0:
310,238,18700,1,0,0:0:0:0:
377,378,19161,6,0,P|284:359|254:380,1,120,2|0,0:3|0:0,0:0:0:0:
207,368,19853,2,0,L|188:241,1,120,2|0,0:3|0:0,0:0:0:0:
184,189,20546,2,0,P|153:181|115:191,1,60,8|4,0:0|0:3,0:0:0:0:
68,203,21007,6,0,B|73:159|73:159|89:135|89:135|94:84,1,120,2|0,0:3|0:0,0:0:0:0:
239,32,21930,2,0,B|282:26|282:26|306:10|306:10|357:5,1,120,8|8,0:0|0:0,0:0:0:0:
509,2,22853,5,4,0:0:0:0:
393,106,23315,1,0,0:0:0:0:
393,106,23546,2,0,P|372:174|401:229,1,120,4|0,0:0|0:0,0:0:0:0:
414,271,24238,2,0,P|375:259|332:267,1,60,2|0,0:3|0:0,0:0:0:0:
306,294,24700,1,0,0:0:0:0:
172,225,25161,5,0,0:0:0:0:
172,225,25392,2,0,L|187:150,1,60,4|0,0:0|0:0,0:0:0:0:
193,106,25853,2,0,L|181:47,1,60,2|4,0:3|0:2,0:0:0:0:
137,4,26315,1,4,0:2:0:0:
137,4,26546,2,0,B|110:33|110:33|26:23,1,120,4|0,0:0|0:0,0:0:0:0:
101,162,27469,6,0,P|112:196|106:230,1,60,2|2,0:3|0:3,0:0:0:0:
77,270,27930,2,0,P|75:299|85:327,1,60,2|0,0:3|0:0,0:0:0:0:
141,350,28392,6,0,L|260:364,1,120,4|0,0:0|0:0,0:0:0:0:
383,268,29315,2,0,L|503:253,1,120,4|4,0:2|0:2,0:0:0:0:
487,97,30238,6,0,P|457:102|432:119,1,60,4|0,0:0|0:0,0:0:0:0:
386,156,30700,2,0,B|333:126|333:177|269:157,1,120,2|0,0:3|0:0,0:0:0:0:
227,125,31392,1,8,0:3:0:0:
227,125,31623,1,0,0:0:0:0:
150,260,32084,6,0,B|118:289|118:289|24:266,1,120,4|0,0:2|0:0,0:0:0:0:
18,222,32776,1,4,0:2:0:0:
18,222,33007,2,0,P|2:189|7:156,1,60,4|0,0:2|0:0,0:0:0:0:
42,120,33469,2,0,P|71:120|97:134,1,60,4|4,0:2|0:3,0:0:0:0:
150,164,33930,6,0,B|157:118|157:118|170:101|170:101|176:49,1,120,4|0,0:2|0:0,0:0:0:0:
330,27,34853,2,0,P|360:12|406:13,1,60,2|2,0:3|0:3,0:0:0:0:
423,56,35315,2,0,P|453:70|499:70,1,60,2|0,0:3|0:0,0:0:0:0:
507,125,35776,6,0,P|515:160|503:204,1,60,4|0,0:0|0:0,0:0:0:0:
475,232,36238,2,0,P|440:240|396:228,1,60,0|4,3:0|3:3,3:0:0:0:
370,198,36700,6,8,L|290:209,2,80
334,100,37623,6,0,P|338:70|329:42,1,60,2|2,0:3|0:3,0:0:0:0:
198,128,38315,2,0,P|194:157|203:185,1,60,2|2,0:3|0:3,0:0:0:0:
76,95,39007,6,0,L|63:216,2,120,2|2|0,0:2|0:3|0:0,0:0:0:0:
210,15,40392,1,2,0:3:0:0:
300,141,40853,1,8,0:0:0:0:
455,129,41315,6,0,L|429:68,1,60,4|0,0:0|0:0,0:0:0:0:
420,14,41776,2,0,P|343:41|292:28,1,120,0|2,0:0|0:3,0:0:0:0:
152,13,42700,6,0,P|139:43|140:74,1,60,2|0,0:3|0:0,0:0:0:0:
176,117,43161,2,0,L|168:197,1,60,4|0,0:0|0:0,0:0:0:0:
166,240,43623,1,0,0:0:0:0:
166,240,43853,2,0,P|231:264|293:238,1,120,4|0,0:3|0:0,0:0:0:0:
306,197,44546,2,0,P|340:191|372:201,1,60,8|8,0:0|0:0,0:0:0:0:
400,244,45007,1,4,0:0:0:0:
498,365,45469,6,0,P|510:331|500:297,1,60,0|4,0:0|0:3,0:0:0:0:
492,249,45930,2,0,P|488:219|499:192,1,60,2|2,0:3|0:3,0:0:0:0:
503,131,46392,2,0,L|426:136,1,60,2|2,0:3|0:3,0:0:0:0:
386,114,46853,6,0,B|337:101|337:149|252:118,2,120,4|0|0,0:0|0:0|0:0,0:0:0:0:
276,218,48238,2,0,P|291:250|286:287,1,60,8|8,0:0|0:0,0:0:0:0:
268,330,48700,1,4,0:0:0:0:
185,197,49161,1,0,0:0:0:0:
66,298,49623,1,0,0:0:0:0:
40,144,50084,1,0,0:0:0:0:
153,36,50546,6,0,P|182:56|228:54,1,60,4|0,0:2|0:0,0:0:0:0:
266,41,51007,1,0,0:0:0:0:
266,41,51238,2,0,P|323:31|388:56,1,120,4|4,0:2|0:3,0:0:0:0:
440,47,51930,1,8,0:0:0:0:
388,194,52392,6,0,P|320:205|256:175,1,120,6|10,0:0|0:0,0:0:0:0:
226,150,53084,2,0,P|158:139|94:169,1,120,2|2,0:0|0:0,0:0:0:0:
73,202,53776,2,0,L|89:265,1,60,8|10,0:0|0:0,0:0:0:0:
101,318,54238,6,0,P|159:289|221:303,1,120,4|8,0:3|0:0,0:0:0:0:
354,359,55161,2,0,L|482:340,1,120,0|8,0:0|0:0,0:0:0:0:
491,186,56084,6,0,P|426:209|356:186,1,120,4|8,0:0|0:0,0:0:0:0:
269,86,57007,1,0,0:0:0:0:
424,97,57469,1,8,0:0:0:0:
290,177,57930,6,0,L|271:303,1,120,4|8,0:0|0:0,0:0:0:0:
135,217,58853,1,0,0:0:0:0:
160,371,59315,2,0,P|123:377|84:360,1,60,8|8,0:0|0:0,0:0:0:0:
79,315,59776,6,0,L|90:244,1,60,4|4,0:2|0:3,0:0:0:0:
135,217,60238,2,0,L|124:146,1,60,4|4,0:2|0:3,0:0:0:0:
119,97,60700,2,0,P|145:81|192:85,1,60,4|4,0:2|0:3,0:0:0:0:
229,100,61161,1,4,0:2:0:0:
256,192,61392,12,2,63469,0:0:0:0:
419,135,65315,6,0,L|384:257,1,120,4|4,0:0|0:3,0:0:0:0:
369,308,66007,1,4,0:0:0:0:
268,195,66469,5,8,0:3:0:0:
268,195,66700,2,0,P|236:179|192:181,1,60,8|8,0:0|0:0,0:0:0:0:
160,204,67161,1,4,0:0:0:0:
160,204,67392,2,0,L|148:126,1,60,0|4,0:0|0:3,0:0:0:0:
145,84,67853,2,0,B|192:60|192:60|262:91,2,120,4|4|4,0:0|0:3|0:3,0:0:0:0:
84,82,69007,5,4,0:0:0:0:
164,222,69469,1,4,0:3:0:0:
164,222,69700,1,0,0:0:0:0:
312,173,70161,6,0,L|388:179,1,60,2|14,0:0|0:0,0:0:0:0:
427,202,70623,2,0,L|435:133,1,60,2|4,0:0|0:0,0:0:0:0:
440,82,71084,2,0,P|409:93|373:84,1,60,2|2,0:0|0:0,0:0:0:0:
333,54,71546,2,0,B|260:26|259:98|146:51,1,180,6|8,0:0|0:3,0:0:0:0:
109,20,72469,5,8,0:0:0:0:
109,20,72700,2,0,B|76:89|76:89|91:158,1,120,4|4,0:0|0:0,0:0:0:0:
125,176,73392,1,0,0:0:0:0:
319,46,74084,6,0,P|353:42|395:53,1,60,8|0,0:0|0:0,0:0:0:0:
416,93,74546,2,0,P|408:148|353:158,1,120,4|0,0:0|0:0,0:0:0:0:
296,139,75238,2,0,P|264:128|229:133,1,60,4|4,0:3|0:0,0:0:0:0:
194,170,75700,1,2,0:0:0:0:
194,170,75930,1,0,0:0:0:0:
218,15,76392,6,0,B|149:5|149:5|127:21|127:21|34:7,1,180,6|4,0:0|0:0,0:0:0:0:
75,161,77546,2,0,P|84:193|77:224,1,60,8|8,0:3|0:0,0:0:0:0:
38,263,78007,2,0,P|33:292|110:319,1,120,8|4,0:0|0:3,0:0:0:0:
161,304,78700,1,4,0:2:0:0:
161,304,78930,2,0,P|192:296|228:301,1,60,4|4,0:2|0:2,0:0:0:0:
264,338,79392,2,0,P|295:346|331:341,1,60,4|2,0:2|0:3,0:0:0:0:
379,318,79853,5,2,0:3:0:0:
379,318,80084,2,0,L|362:186,1,120,4|0,0:0|0:0,0:0:0:0:
404,51,81007,5,2,0:3:0:0:
404,51,81238,2,0,L|329:57,1,60,8|8,0:3|0:0,0:0:0:0:
189,44,81930,2,0,L|120:32,1,60,4|0,0:0|0:0,0:0:0:0:
70,22,82392,1,0,0:0:0:0:
145,164,82853,5,2,0:3:0:0:
145,164,83084,2,0,P|159:202|151:234,1,60,8|4,0:3|0:2,0:0:0:0:
126,274,83546,1,4,0:2:0:0:
126,274,83776,2,0,B|273:268,1,120,4|0,0:0|0:0,0:0:0:0:
370,173,84700,6,0,P|382:143|377:111,1,60,2|10,0:3|0:0,0:0:0:0:
346,72,85161,1,10,0:0:0:0:
346,72,85392,2,0,L|269:81,1,60,2|4,0:0|0:0,0:0:0:0:
240,118,85853,2,0,L|163:109,1,60,2|2,0:0|0:0,0:0:0:0:
120,111,86315,6,0,P|153:172|129:242,1,120,6|2,0:0|0:3,0:0:0:0:
89,244,87007,1,0,0:0:0:0:
183,368,87469,6,0,P|218:374|260:352,1,60,4|0,0:0|0:0,0:0:0:0:
272,315,87930,2,0,P|307:308|349:331,1,60,8|2,0:0|0:3,0:0:0:0:
371,358,88392,2,0,P|406:364|448:342,1,60,2|10,0:3|0:0,0:0:0:0:
449,300,88853,6,0,L|432:235,1,60,4|2,0:3|0:0,0:0:0:0:
420,183,89315,2,0,P|328:197|289:129,1,180,6|2,0:0|0:3,0:0:0:0:
195,6,90469,2,0,P|155:3|114:20,1,60,10|4,0:0|0:3,0:0:0:0:
115,67,90930,1,2,0:0:0:0:
115,67,91161,6,0,B|62:82|62:27|-24:69,1,120,4|0,0:0|0:0,0:0:0:0:
1,119,91853,2,0,P|-1:159|17:189,1,60,4|0,0:0|0:0,0:0:0:0:
61,201,92315,2,0,P|70:242|59:280,1,60,4|0,0:2|0:0,0:0:0:0:
57,318,92776,2,0,L|199:302,2,120,2|4|4,0:3|0:3|0:3,0:0:0:0:
166,207,94161,6,0,P|157:172|170:132,1,60,4|8,0:2|0:0,0:0:0:0:
205,108,94623,1,8,0:0:0:0:
205,108,94853,2,0,B|266:89|266:133|325:115,1,120,4|0,0:0|0:0,0:0:0:0:
177,283,98546,6,0,P|211:293|255:280,1,60,4|0,0:0|0:0,0:0:0:0:
275,245,99007,2,0,P|309:235|379:274,1,120
495,377,99930,1,4,0:0:0:0:
493,220,100392,6,0,P|495:183|482:146,1,60,2|4,0:3|0:0,0:0:0:0:
433,139,100853,2,0,P|426:109|430:80,1,60,2|2,0:3|0:3,0:0:0:0:
472,38,101315,2,0,L|350:49,2,120,4|4|4,0:0|0:0|0:0,0:0:0:0:
430,188,102700,6,0,P|396:205|357:199,1,60,0|4,0:0|0:0,0:0:0:0:
331,163,103161,2,0,P|297:145|258:152,1,60
226,167,103623,1,4,0:0:0:0:
226,167,103853,2,0,L|232:236,2,60,2|2|4,0:3|0:3|0:0,0:0:0:0:
190,118,104546,6,0,P|155:105|105:112,1,60,2|2,0:3|0:3,0:0:0:0:
85,142,105007,2,0,L|97:213,1,60,4|2,0:0|0:3,0:0:0:0:
144,236,105469,1,0,0:0:0:0:
34,346,105930,5,4,0:0:0:0:
34,346,106161,2,0,P|74:339|109:352,1,60
149,362,106623,1,4,0:0:0:0:
149,362,106853,2,0,L|268:344,1,120,0|4,0:0|0:0,0:0:0:0:
423,351,107776,6,0,P|428:312|412:280,1,60,2|4,0:3|0:0,0:0:0:0:
385,244,108238,2,0,P|377:215|383:186,1,60,2|0,0:3|0:0,0:0:0:0:
428,147,108700,2,0,L|411:62,1,60,4|0,0:0|0:0,0:0:0:0:
405,29,109161,2,0,L|331:41,1,60,4|0,0:0|0:0,0:0:0:0:
289,59,109623,6,0,B|229:34|229:89|150:53,1,120,4|0,0:0|0:0,0:0:0:0:
114,43,110315,2,0,P|93:80|94:116,1,60,4|0,0:0|0:0,0:0:0:0:
129,150,110776,1,0,0:0:0:0:
129,150,111007,2,0,L|108:284,1,120,4|0,0:0|0:0,0:0:0:0:
101,328,111700,5,12,0:0:0:0:
247,265,112161,1,4,0:3:0:0:
247,265,112392,2,0,P|279:273|309:262,1,60,12|0,0:0|0:0,0:0:0:0:
344,220,112853,2,0,P|376:212|406:223,1,60,8|4,0:0|0:3,0:0:0:0:
448,257,113315,6,0,L|458:137,1,120,4|0,0:0|0:0,0:0:0:0:
465,77,114007,1,2,0:3:0:0:
465,77,114238,2,0,P|431:67|391:77,1,60,2|4,0:3|0:3,0:0:0:0:
371,119,114700,1,0,0:0:0:0:
226,59,115161,6,0,L|144:70,1,60,4|0,0:0|0:0,0:0:0:0:
127,112,115623,2,0,L|51:99,1,60,8|4,0:3|0:3,0:0:0:0:
8,111,116084,2,0,P|-4:149|2:176,1,60,4|0,0:2|0:0,0:0:0:0:
40,211,116546,2,0,P|42:240|31:268,1,60,4|4,0:2|0:2,0:0:0:0:
3,321,117007,5,4,0:0:0:0:
148,376,117469,2,0,P|179:380|214:365,1,60,8|4,0:3|0:3,0:0:0:0:
244,325,117930,2,0,P|275:321|310:336,1,60,8|8,0:3|0:3,0:0:0:0:
337,378,118392,1,8,0:3:0:0:
434,256,118853,6,0,P|437:217|424:174,1,60,4|0,0:0|0:0,0:0:0:0:
379,168,119315,2,0,P|374:138|378:108,1,60
417,63,119776,6,0,B|372:83|342:54|342:54|326:74|326:74|291:48|229:63,1,180,0|8,0:0|0:3,0:0:0:0:
209,96,120700,6,0,L|195:178,1,60,4|0,0:0|0:0,0:0:0:0:
42,163,121392,2,0,L|52:222,1,60,4|0,0:0|0:0,0:0:0:0:
38,377,122084,2,0,L|107:360,1,60,4|0,0:0|0:0,0:0:0:0:
212,258,122776,2,0,L|281:275,1,60,4|0,0:0|0:0,0:0:0:0:
403,354,123469,6,0,P|419:318|410:277,1,60,4|0,0:0|0:0,0:0:0:0:
385,247,123930,2,0,P|381:214|395:187,1,60,4|0,0:0|0:0,0:0:0:0:
428,142,124392,6,0,L|416:80,1,60,4|0,0:0|0:0,0:0:0:0:
278,9,125084,2,0,L|266:67,1,60,4|0,0:0|0:0,0:0:0:0:
249,223,125776,2,0,L|170:211,1,60,4|0,0:0|0:0,0:0:0:0:
109,79,126469,2,0,L|49:88,1,60,4|0,0:0|0:0,0:0:0:0:
29,242,127161,6,0,P|64:241|91:259,1,60,4|0,0:0|0:0,0:0:0:0:
130,293,127623,2,0,P|156:306|186:304,1,60,4|0,0:0|0:0,0:0:0:0:
227,260,128084,6,0,L|235:197,1,60,4|0,0:0|0:0,0:0:0:0:
366,116,128776,2,0,L|358:53,1,60,4|0,0:0|0:0,0:0:0:0:
203,74,129469,2,0,L|136:56,1,60,4|0,0:0|0:0,0:0:0:0:
27,161,130161,6,0,P|14:198|19:228,1,60,4|0,0:0|0:0,0:0:0:0:
60,267,130623,1,0,0:0:0:0:
60,267,130853,2,0,B|74:312|74:312|46:390,1,120,4|4,0:0|0:0,0:0:0:0:
204,361,131776,6,0,L|225:298,1,60,4|0,0:0|0:0,0:0:0:0:
280,158,132469,2,0,L|261:101,1,60,4|0,0:0|0:0,0:0:0:0:
139,2,133161,2,0,L|207:8,1,60,4|0,0:0|0:0,0:0:0:0:
345,60,133853,6,0,P|377:67|413:54,1,60,4|2,0:0|0:3,0:0:0:0:
460,36,134315,1,2,0:3:0:0:
460,36,134546,2,0,B|483:109|483:109|460:164,1,120,4|4,0:0|0:0,0:0:0:0:
256,192,135469,12,0,142853,2:0:0:0:
