osu file format v14

[General]
AudioFilename: audio.mp3
AudioLeadIn: 0
PreviewTime: 63469
Countdown: 0
SampleSet: Normal
StackLeniency: 1
Mode: 0
LetterboxInBreaks: 0
WidescreenStoryboard: 1

[Editor]
Bookmarks: 37776
DistanceSpacing: 0.4
BeatDivisor: 4
GridSize: 32
TimelineZoom: 1.8

[Metadata]
Title:Rules of Nature
TitleUnicode:Rules of Nature
Artist:Jamie Christopherson
ArtistUnicode:Jamie Christopherson
Creator:Revolver
Version:INSANE
Source:Metal Gear Rising: Revengeance
Tags:jason miller raiden jack the ripper platinum platinumgames mgs mgr solid metal english video game gouhin deetz diodex
BeatmapID:3301729
BeatmapSetID:1614414

[Difficulty]
HPDrainRate:4
CircleSize:3.5
OverallDifficulty:8
ApproachRate:9
SliderMultiplier:3
SliderTickRate:1

[Events]
//Background and Video events
0,0,"disgusting.jpg",0,0
//Break Periods
2,95053,97946
//Storyboard Layer 0 (Background)
//Storyboard Layer 1 (Fail)
//Storyboard Layer 2 (Pass)
//Storyboard Layer 3 (Foreground)
//Storyboard Layer 4 (Overlay)
//Storyboard Sound Samples

[TimingPoints]
700,461.538461538462,4,1,0,35,1,0
8084,-166.666666666667,4,1,0,35,0,0
11776,-153.846153846153,4,1,0,35,0,0
15469,-100,4,1,0,35,0,0
22853,-100,4,1,0,50,0,0
65315,-83.3333333333333,4,1,0,65,0,1
72469,-83.3333333333333,4,1,0,65,0,1
73853,-83.3333333333333,4,1,0,65,0,1
76392,-83.3333333333333,4,1,0,65,0,1
77546,-83.3333333333333,4,1,0,65,0,1
94853,-83.3333333333333,4,1,0,65,0,0
98546,-133.333333333333,4,1,0,65,0,0
105930,-100,4,1,0,65,0,0
113315,-83.3333333333333,4,1,0,65,0,1
120700,-133.333333333333,4,1,0,65,0,0
123469,-100,4,1,0,65,0,0
124392,-133.333333333333,4,1,0,65,0,0
127161,-100,4,1,0,65,0,0
128084,-133.333333333333,4,1,0,65,0,0
130853,-100,4,1,0,65,0,0
131776,-133.333333333333,4,1,0,65,0,0
133853,-80,4,1,0,65,0,0
135584,-100,4,1,0,5,0,0

[Colours]
Combo1 : 255,94,55
Combo2 : 173,255,95
Combo3 : 17,254,176
Combo4 : 255,88,100

[HitObjects]
245,305,8084,5,0,0:0:0:0:
178,179,8546,1,0,0:0:0:0:
307,117,9007,1,0,0:0:0:0:
381,250,9469,1,0,0:0:0:0:
156,263,9930,5,0,0:0:0:0:
246,70,10392,1,0,0:0:0:0:
453,146,10853,1,0,0:0:0:0:
370,344,11315,1,0,0:0:0:0:
55,283,11776,6,0,P|36:225|101:157,1,146.249993305207
138,105,12238,2,0,L|245:131,1,97.4999955368044,8|0,0:0|0:0,0:0:0:0:
477,193,12700,6,0,P|496:135|431:67,1,146.249993305207
393,17,13161,1,8,0:0:0:0:
259,131,13392,6,0,L|250:191,2,48.7499977684022
193,226,13738,2,0,P|239:213|297:205,1,97.4999955368044
364,181,14084,6,0,L|425:195,3,48.7499977684022,8|0|0|0,0:0|0:0|0:0|0:0,0:0:0:0:
272,240,14546,2,0,P|282:305|288:363,1,97.4999955368044,8|0,0:0|0:0,0:0:0:0:
110,169,15007,5,8,0:0:0:0:
104,140,15123,1,8,0:0:0:0:
98,111,15238,1,8,0:0:0:0:
91,82,15353,1,8,0:0:0:0:
112,41,15469,5,4,0:0:0:0:
112,41,15584,2,0,L|204:22,1,75
265,78,15815,6,0,P|318:82|421:113,1,150,2|0,0:3|0:0,0:0:0:0:
295,249,16161,1,2,0:3:0:0:
295,249,16276,2,0,B|139:270,2,150
338,128,16853,6,0,P|356:167|367:219,1,75,8|0,0:0|0:0,0:0:0:0:
366,362,17084,2,0,P|369:330|379:288,1,75,4|0,0:3|0:0,0:0:0:0:
421,100,17315,5,2,0:3:0:0:
421,100,17430,2,0,L|437:17,1,75
512,222,17661,2,0,P|467:209|357:198,1,150,2|0,0:3|0:0,0:0:0:0:
262,171,18007,1,2,0:3:0:0:
262,171,18123,2,0,L|188:203,1,75
103,169,18353,2,0,L|124:12,1,150,2|0,0:3|0:0,0:0:0:0:
30,46,18700,2,0,P|13:87|20:125,1,75,8|0,0:0|0:0,0:0:0:0:
199,133,18930,2,0,P|214:99|208:57,1,75,8|0,0:0|0:0,0:0:0:0:
83,196,19161,5,2,0:3:0:0:
83,196,19276,2,0,L|98:291,1,75
44,325,19507,2,0,P|122:302|201:307,1,150,2|0,0:3|0:0,0:0:0:0:
354,266,19853,1,2,0:3:0:0:
354,266,19969,2,0,P|411:296|529:323,1,150
279,378,20315,5,0,0:0:0:0:
279,378,20430,1,0,0:0:0:0:
279,378,20546,2,0,P|276:326|272:274,1,75,8|0,0:0|0:0,0:0:0:0:
242,123,20776,2,0,P|244:164|250:209,1,75,4|0,0:3|0:0,0:0:0:0:
323,74,21007,5,2,0:3:0:0:
323,74,21123,2,0,P|327:34|314:-10,1,75
127,19,21353,2,0,P|144:88|150:171,1,150,2|0,0:3|0:0,0:0:0:0:
34,136,21700,2,0,L|47:63,1,75,2|0,0:3|0:0,0:0:0:0:
232,46,21930,5,8,0:0:0:0:
238,90,22046,1,0,0:0:0:0:
246,134,22161,1,4,0:3:0:0:
502,202,22392,5,8,0:0:0:0:
462,181,22507,1,8,0:0:0:0:
417,185,22623,1,8,0:0:0:0:
382,213,22738,1,8,0:0:0:0:
359,252,22853,6,0,P|350:182|328:79,1,150,4|0,0:0|0:0,0:0:0:0:
420,318,23200,1,8,0:3:0:0:
420,318,23315,2,0,P|468:324|508:335,1,75
248,358,23546,2,0,P|175:364|93:359,1,150,4|0,0:0|0:0,0:0:0:0:
172,268,23892,1,8,0:3:0:0:
172,268,24007,2,0,L|80:259,1,75
166,39,24238,2,0,B|143:99|143:99|164:130|148:205,1,150,2|0,0:3|0:0,0:0:0:0:
68,150,24584,1,2,0:3:0:0:
68,150,24700,6,0,P|24:115|44:10,1,150,4|0,0:0|0:0,0:0:0:0:
231,95,25046,1,8,0:3:0:0:
231,95,25161,2,0,L|325:77,1,75
283,6,25392,2,0,B|366:5|336:34|440:39,1,150,4|0,0:0|0:0,0:0:0:0:
512,16,25738,1,8,0:3:0:0:
512,16,25853,6,0,P|504:56|498:98,1,75,2|0,0:3|0:0,0:0:0:0:
363,125,26084,2,0,P|369:166|376:215,1,75,4|0,0:2|0:0,0:0:0:0:
475,187,26315,2,0,P|470:227|464:269,1,75,4|0,0:2|0:0,0:0:0:0:
393,340,26546,6,0,P|317:336|227:343,1,150,4|0,0:0|0:0,0:0:0:0:
175,259,26892,1,8,0:3:0:0:
175,259,27007,2,0,P|178:209|180:99,1,150,0|4,0:0|0:3,0:0:0:0:
180,109,27469,6,0,P|213:133|257:129,1,75,2|0,0:3|0:0,0:0:0:0:
87,156,27700,2,0,P|50:176|30:207,1,75,2|0,0:3|0:0,0:0:0:0:
157,22,27930,2,0,P|167:120|184:186,1,150,2|0,0:3|0:0,0:0:0:0:
322,349,28392,6,0,P|337:275|345:201,1,150,4|0,0:0|0:0,0:0:0:0:
354,96,28738,1,8,0:3:0:0:
354,96,28853,2,0,B|408:90|408:90|441:110|441:110|498:100,1,150,0|4,0:0|0:3,0:0:0:0:
465,206,29200,1,2,0:3:0:0:
465,206,29315,2,0,P|424:194|384:186,1,75,4|0,0:2|0:0,0:0:0:0:
240,228,29546,2,0,P|280:218|314:204,1,75,4|0,0:2|0:0,0:0:0:0:
358,346,29776,2,0,P|316:374|197:334,1,150,4|0,0:2|0:0,0:0:0:0:
139,301,30123,1,0,0:0:0:0:
139,301,30238,6,0,B|155:226|155:226|85:181|101:96,1,225,4|8,0:0|0:3,0:0:0:0:
212,126,30700,2,0,P|252:122|287:100,1,75,2|0,0:3|0:0,0:0:0:0:
359,0,30930,2,0,P|402:102|369:209,1,225,4|4,0:0|0:3,0:0:0:0:
237,309,31392,2,0,L|315:282,1,75,8|0,0:3|0:0,0:0:0:0:
371,206,31623,6,0,P|428:226|461:322,1,150,8|0,0:0|0:0,0:0:0:0:
374,356,31969,1,8,0:0:0:0:
374,356,32084,6,0,P|303:373|241:333,1,150,4|0,0:2|0:0,0:0:0:0:
113,228,32430,2,0,P|62:264|71:390,1,150,4|0,0:2|0:0,0:0:0:0:
232,245,32776,2,0,L|244:167,1,75,4|0,0:2|0:0,0:0:0:0:
233,81,33007,6,0,P|317:110|392:107,1,150,4|0,0:2|0:0,0:0:0:0:
455,194,33353,1,8,0:3:0:0:
455,194,33469,2,0,P|380:191|302:209,1,150,4|4,0:2|0:3,0:0:0:0:
214,323,33815,1,0,0:0:0:0:
214,323,33930,2,0,P|201:259|165:168,1,150,4|0,0:2|0:0,0:0:0:0:
232,78,34276,1,8,0:3:0:0:
232,78,34392,2,0,P|323:88|395:108,1,150
367,204,34738,1,0,0:3:0:0:
367,204,34853,6,0,P|345:140|335:113,1,75,2|0,0:3|0:0,0:0:0:0:
256,189,35084,2,0,P|243:224|231:259,1,75,2|0,0:3|0:0,0:0:0:0:
159,174,35315,2,0,P|78:180|-9:182,1,150,2|0,0:3|0:0,0:0:0:0:
170,384,35776,2,0,P|251:378|338:376,1,150
335,273,36123,1,8,0:3:0:0:
335,273,36238,2,0,P|364:256|409:243,1,75
229,219,36469,2,0,P|219:182|201:147,1,75,4|0,0:3|0:0,0:0:0:0:
127,262,36700,6,8,P|80:281|32:293,2,100
210,222,37161,5,8,0:0:0:0:
298,219,37315,1,8,0:0:0:0:
374,263,37469,1,8,0:0:0:0:
468,249,37623,6,0,P|457:301|417:350,1,75,2|2,0:3|0:3,0:0:0:0:
298,219,37853,2,0,P|301:187|325:140,1,75,2|2,0:3|0:3,0:0:0:0:
60,322,38315,6,0,P|44:289|40:252,1,75,2|2,0:3|0:3,0:0:0:0:
188,151,38546,2,0,P|204:185|210:222,1,75,2|2,0:3|0:3,0:0:0:0:
200,310,39007,6,0,P|241:312|284:318,1,75,2|2,0:2|0:2,0:0:0:0:
362,368,39238,2,0,P|399:365|436:360,1,75,2|2,0:2|0:2,0:0:0:0:
512,192,39469,6,0,P|475:170|414:170,1,75,2|2,0:3|0:3,0:0:0:0:
284,248,39700,2,0,P|323:268|375:264,1,75,2|2,0:3|0:3,0:0:0:0:
384,89,40161,6,0,P|347:111|286:111,1,75,2|2,0:3|0:3,0:0:0:0:
176,75,40392,2,0,P|215:55|267:59,1,75,2|2,0:3|0:3,0:0:0:0:
55,34,40623,2,0,P|58:75|65:114,1,75,2|2,0:3|0:3,0:0:0:0:
76,196,40853,5,8,0:0:0:0:
100,233,40969,1,8,0:0:0:0:
142,247,41084,1,8,0:0:0:0:
186,237,41200,1,8,0:0:0:0:
219,206,41315,6,0,P|205:129|189:49,1,150,4|0,0:0|0:0,0:0:0:0:
186,18,41661,1,4,0:3:0:0:
186,18,41776,1,0,0:0:0:0:
420,84,42007,2,0,L|340:76,1,75,4|0,0:3|0:0,0:0:0:0:
298,295,42238,6,0,P|281:185|266:73,1,225,2|0,0:3|0:0,0:0:0:0:
345,76,42700,2,0,P|355:150|366:230,1,150,2|0,0:3|0:0,0:0:0:0:
338,341,43161,6,0,P|235:348|191:278,1,150,4|0,0:0|0:0,0:0:0:0:
187,263,43507,1,4,0:3:0:0:
187,263,43623,1,0,0:0:0:0:
0,384,43853,2,0,P|7:297|18:215,1,150,4|0,0:3|0:0,0:0:0:0:
21,174,44200,1,8,0:3:0:0:
21,174,44315,2,0,P|64:180|116:185,1,75
249,98,44546,6,0,P|210:92|162:111,1,75,8|0,0:0|0:0,0:0:0:0:
225,191,44776,2,0,P|260:200|297:194,1,75,8|0,0:0|0:0,0:0:0:0:
95,183,45007,6,0,P|88:123|118:36,1,150,4|0,0:0|0:0,0:0:0:0:
241,10,45353,1,4,0:3:0:0:
241,10,45469,1,0,0:0:0:0:
0,118,45700,2,0,P|35:101|73:99,1,75,4|0,0:3|0:0,0:0:0:0:
150,165,45930,1,2,0:3:0:0:
157,194,46046,1,2,0:3:0:0:
164,223,46161,1,2,0:3:0:0:
171,251,46276,1,2,0:3:0:0:
177,280,46392,1,2,0:3:0:0:
311,135,46623,2,0,P|317:83|326:31,1,75,2|0,0:3|0:0,0:0:0:0:
334,294,46853,6,0,P|429:286|439:195,1,150,4|0,0:0|0:0,0:0:0:0:
455,184,47200,1,4,0:3:0:0:
455,184,47315,1,0,0:0:0:0:
273,220,47546,2,0,B|177:218|221:264|133:260,1,150,4|0,0:3|0:0,0:0:0:0:
48,221,47892,1,2,0:3:0:0:
48,221,48007,2,0,P|40:261|51:311,1,75
142,346,48238,6,0,P|179:355|215:366,1,75,8|0,0:0|0:0,0:0:0:0:
293,303,48469,2,0,P|330:295|366:284,1,75,8|0,0:0|0:0,0:0:0:0:
350,148,48700,6,0,P|407:189|480:127,1,150,4|0,0:0|0:0,0:0:0:0:
472,95,49046,1,4,0:3:0:0:
472,95,49161,1,0,0:0:0:0:
276,22,49392,2,0,P|238:18|195:38,1,75,4|0,0:3|0:0,0:0:0:0:
229,167,49623,2,0,P|232:81|118:101,1,225,2|0,0:3|0:0,0:0:0:0:
78,186,50084,6,0,P|79:232|78:282,1,75,2|0,0:3|0:0,0:0:0:0:
77,321,50315,1,4,0:3:0:0:
77,321,50546,6,0,P|160:310|235:301,1,150,4|0,0:2|0:0,0:0:0:0:
377,185,50892,2,0,P|293:174|219:165,1,150,4|0,0:2|0:0,0:0:0:0:
34,14,51238,2,0,P|125:70|88:127,1,150,4|0,0:2|0:0,0:0:0:0:
30,236,51584,1,4,0:3:0:0:
30,236,51700,2,0,P|31:187|35:137,1,75,4|0,0:3|0:0,0:0:0:0:
186,236,51930,6,0,P|145:232|74:224,1,75,8|0,0:0|0:0,0:0:0:0:
213,84,52161,2,0,P|249:88|293:92,1,75,8|0,0:0|0:0,0:0:0:0:
327,239,52392,6,0,B|318:151|318:151|337:110|337:110|325:-9,1,225,6|4,0:0|0:3,0:0:0:0:
477,165,52853,2,0,P|436:180|402:171,1,75,10|0,0:0|0:0,0:0:0:0:
233,160,53084,6,0,P|247:247|251:348,1,150,2|0,0:0|0:0,0:0:0:0:
226,363,53430,1,4,0:3:0:0:
226,363,53546,2,0,L|118:327,1,75,2|0,0:0|0:0,0:0:0:0:
19,303,53776,1,8,0:0:0:0:
232,159,54007,6,0,P|200:140|163:138,1,75,10|0,0:0|0:0,0:0:0:0:
53,197,54238,5,4,0:3:0:0:
53,197,54353,2,0,P|65:111|95:26,1,150,8|4,0:0|0:3,0:0:0:0:
232,159,54700,2,0,P|234:84|217:11,1,150,8|4,0:0|0:3,0:0:0:0:
480,61,55046,2,0,P|397:29|331:72,1,150,8|4,0:0|0:3,0:0:0:0:
405,125,55392,2,8,B|410:176|410:176|438:209|438:209|439:265,2,150
361,334,56084,6,0,P|293:310|228:342,1,150,4|0,0:0|0:0,0:0:0:0:
132,369,56430,1,4,0:3:0:0:
132,369,56546,2,0,L|145:267,1,75,8|0,0:0|0:0,0:0:0:0:
17,168,56776,6,0,P|127:148|240:163,1,225,4|0,0:0|0:0,0:0:0:0:
315,209,57238,2,0,P|358:213|399:202,1,75,4|0,0:3|0:0,0:0:0:0:
481,150,57469,2,0,P|412:100|345:150,1,150,8|0,0:0|0:0,0:0:0:0:
149,77,57930,6,0,P|205:83|234:172,1,150,4|0,0:0|0:0,0:0:0:0:
161,246,58276,1,4,0:3:0:0:
161,246,58392,2,0,P|157:206|152:163,1,75,8|0,0:0|0:0,0:0:0:0:
59,83,58623,6,0,P|73:195|89:313,1,225,4|0,0:0|0:0,0:0:0:0:
172,340,59084,2,0,P|209:318|252:293,1,75,8|0,0:3|0:0,0:0:0:0:
395,267,59315,6,0,P|366:244|336:221,1,75,8|0,0:0|0:0,0:0:0:0:
237,162,59546,2,0,P|283:126|314:102,1,75,8|0,0:0|0:0,0:0:0:0:
372,35,59776,6,0,P|415:36|465:55,1,75,4|0,0:2|0:0,0:0:0:0:
468,124,60007,2,0,P|423:122|375:104,1,75,4|0,0:3|0:0,0:0:0:0:
229,37,60238,6,0,P|188:37|136:57,1,75,4|0,0:2|0:0,0:0:0:0:
75,133,60469,2,0,P|123:132|168:113,1,75,4|0,0:3|0:0,0:0:0:0:
237,162,60700,6,0,P|282:162|330:182,1,75,4|0,0:2|0:0,0:0:0:0:
337,249,60930,2,0,P|278:252|244:229,1,75,4|0,0:3|0:0,0:0:0:0:
33,382,61161,6,8,P|30:345|30:307,1,75,4|8,0:2|0:3,0:3:0:0:
139,286,61392,2,8,P|135:243|124:193,1,75,8|8,0:3|0:3,0:3:0:0:
155,47,61623,5,2,0:3:0:0:
196,31,61738,1,2,0:3:0:0:
241,28,61853,1,2,0:3:0:0:
285,39,61969,1,2,0:3:0:0:
323,63,62084,1,2,0:3:0:0:
352,97,62200,1,2,0:3:0:0:
369,138,62315,1,2,0:3:0:0:
368,183,62430,1,2,0:3:0:0:
362,227,62546,6,0,P|406:218|478:209,1,75,2|2,0:3|0:3,0:0:0:0:
232,319,62776,2,0,P|181:324|116:337,1,75,2|2,0:3|0:3,0:0:0:0:
455,133,63007,6,0,P|458:89|456:43,1,75,2|2,0:3|0:3,0:0:0:0:
154,246,63238,2,0,P|155:206|162:150,1,75,2|2,0:3|0:3,0:0:0:0:
180,61,63469,5,2,0:0:0:0:
180,61,64161,1,2,0:0:0:0:
180,61,64853,1,2,0:0:0:0:
180,61,65315,6,0,B|106:76|118:1|1:27,1,179.999994506836,4|0,0:0|0:0,0:0:0:0:
52,113,65661,1,8,0:3:0:0:
52,113,65776,2,0,P|58:165|65:204,1,89.9999972534181,4|0,0:3|0:0,0:0:0:0:
215,328,66007,2,0,P|199:191|178:52,1,269.999991760254,4|0,0:0|0:0,0:0:0:0:
175,5,66469,1,8,0:3:0:0:
299,167,66700,2,0,P|344:170|389:155,1,89.9999972534181,8|0,0:0|0:0,0:0:0:0:
478,34,66930,2,0,P|435:20|390:23,1,89.9999972534181,8|0,0:0|0:0,0:0:0:0:
279,258,67161,6,0,P|381:259|467:194,1,179.999994506836,4|0,0:0|0:0,0:0:0:0:
487,298,67507,1,8,0:3:0:0:
487,298,67623,2,0,P|471:340|466:385,1,89.9999972534181,4|0,0:3|0:0,0:0:0:0:
361,366,67853,2,0,B|346:346|317:335|276:336|278:366|232:400|197:398|163:366,1,179.999994506836,4|0,0:0|0:0,0:0:0:0:
42,384,68200,1,8,0:3:0:0:
42,384,68315,2,0,P|36:334|45:284,1,89.9999972534181,4|0,0:3|0:0,0:0:0:0:
95,214,68546,2,0,P|101:169|92:125,1,89.9999972534181,8|0,0:0|0:0,0:0:0:0:
56,85,68776,1,4,0:3:0:0:
449,166,69007,6,0,B|361:182|372:127|275:143,1,179.999994506836,4|0,0:0|0:0,0:0:0:0:
221,220,69353,1,8,0:3:0:0:
221,220,69469,2,0,P|231:272|248:351,1,89.9999972534181,4|0,0:3|0:0,0:0:0:0:
253,360,69700,1,4,0:0:0:0:
336,256,70161,2,0,P|388:246|437:276,1,89.9999972534181,2|0,0:0|0:0,0:0:0:0:
367,111,70392,2,0,P|344:150|281:156,1,89.9999972534181,14|0,0:0|0:0,0:0:0:0:
484,197,70623,2,0,P|454:158|448:111,1,89.9999972534181,2|0,0:0|0:0,0:0:0:0:
466,68,70853,5,4,0:0:0:0:
336,256,71084,2,0,P|388:246|437:276,1,89.9999972534181,2|0,0:0|0:0,0:0:0:0:
367,111,71315,2,0,P|344:150|281:156,1,89.9999972534181,2|0,0:0|0:0,0:0:0:0:
223,36,71546,2,0,B|254:123|182:123|222:210,1,179.999994506836,6|0,0:0|0:0,0:0:0:0:
252,375,71892,1,8,0:3:0:0:
252,375,72007,2,0,P|236:311|252:267,1,89.9999972534181,4|0,0:3|0:0,0:0:0:0:
303,162,72238,2,8,P|319:226|303:270,1,89.9999972534181,8|8,0:3|0:3,0:3:0:0:
150,275,72469,5,8,0:0:0:0:
418,368,72700,6,0,P|401:241|382:117,1,179.999994506836,4|0,0:0|0:0,0:0:0:0:
329,67,73046,1,8,0:3:0:0:
329,67,73161,2,0,P|381:87|456:72,1,89.9999972534181,4|0,0:0|0:0,0:0:0:0:
503,246,73392,2,0,P|364:263|239:209,1,269.999991760254,4|0,0:0|0:0,0:0:0:0:
191,135,73853,2,0,P|126:100|77:115,1,89.9999972534181,8|0,0:3|0:0,0:0:0:0:
76,233,74084,2,0,P|180:245|259:202,1,179.999994506836,8|0,0:0|0:0,0:0:0:0:
287,80,74430,1,8,0:0:0:0:
287,80,74546,6,0,P|313:116|315:166,1,89.9999972534181,4|0,0:0|0:0,0:0:0:0:
351,238,74776,2,0,P|415:323|500:299,1,179.999994506836,8|0,0:3|0:0,0:0:0:0:
290,384,75123,1,4,0:3:0:0:
290,384,75238,2,0,P|283:340|276:296,1,89.9999972534181,4|0,0:3|0:0,0:0:0:0:
269,242,75469,5,4,0:0:0:0:
352,127,75700,2,0,P|305:142|232:123,1,89.9999972534181,2|0,0:0|0:0,0:0:0:0:
221,107,75930,5,12,0:0:0:0:
33,33,76161,2,0,P|83:17|153:28,1,89.9999972534181,10|0,0:0|0:0,0:0:0:0:
59,288,76392,6,0,P|76:180|100:55,1,179.999994506836,6|0,0:0|0:0,0:0:0:0:
221,107,76738,1,8,0:3:0:0:
221,107,76853,2,0,P|296:102|336:78,1,89.9999972534181,4|0,0:3|0:0,0:0:0:0:
512,52,77084,2,0,P|389:0|249:30,1,269.999991760254,4|0,0:0|0:0,0:0:0:0:
231,196,77546,6,0,P|226:144|216:77,1,89.9999972534181,8|0,0:3|0:0,0:0:0:0:
315,327,77776,2,0,P|318:275|323:227,1,89.9999972534181,8|0,0:0|0:0,0:0:0:0:
370,384,78007,2,0,P|292:359|150:396,1,179.999994506836,8|4,0:0|0:0,0:0:0:0:
99,218,78353,1,8,0:3:0:0:
99,218,78469,2,0,P|112:266|102:332,1,89.9999972534181,4|0,0:3|0:0,0:0:0:0:
95,357,78700,5,4,0:2:0:0:
195,208,78930,5,4,0:2:0:0:
26,271,79161,5,4,0:2:0:0:
204,290,79392,5,4,0:2:0:0:
53,36,79623,5,2,0:3:0:0:
69,42,79738,1,2,0:3:0:0:
85,49,79853,1,2,0:3:0:0:
102,54,79969,1,2,0:3:0:0:
170,75,80084,6,0,P|154:203|154:275,1,179.999994506836,4|0,0:0|0:0,0:0:0:0:
278,344,80430,1,8,0:3:0:0:
278,344,80546,2,0,P|284:292|279:250,1,89.9999972534181
277,155,80776,1,2,0:3:0:0:
330,159,80892,1,2,0:3:0:0:
374,189,81007,1,2,0:3:0:0:
397,238,81123,1,2,0:3:0:0:
403,291,81238,2,0,P|393:333|389:380,1,89.9999972534181,8|0,0:3|0:0,0:0:0:0:
498,170,81469,2,0,P|507:212|512:259,1,89.9999972534181,8|0,0:0|0:0,0:0:0:0:
434,7,81700,2,0,P|424:49|420:96,1,89.9999972534181,8|0,0:0|0:0,0:0:0:0:
374,189,81930,6,0,P|268:184|240:81,1,179.999994506836,4|0,0:0|0:0,0:0:0:0:
337,23,82276,1,8,0:3:0:0:
337,23,82392,2,0,P|334:79|307:151,1,89.9999972534181
152,28,82623,1,2,0:3:0:0:
152,81,82738,1,2,0:3:0:0:
150,134,82853,1,2,0:3:0:0:
150,188,82969,1,2,0:3:0:0:
152,241,83084,6,0,P|206:242|270:234,1,89.9999972534181,8|0,0:3|0:0,0:0:0:0:
414,116,83315,2,0,P|374:108|304:117,1,89.9999972534181,4|0,0:2|0:0,0:0:0:0:
366,217,83546,2,0,P|356:270|360:328,1,89.9999972534181,4|0,0:2|0:0,0:0:0:0:
459,323,83776,6,0,P|366:343|248:318,1,179.999994506836,4|0,0:0|0:0,0:0:0:0:
84,322,84123,1,8,0:3:0:0:
84,322,84238,2,0,P|150:341|187:360,1,89.9999972534181
296,140,84469,1,2,0:3:0:0:
283,191,84584,1,2,0:3:0:0:
242,224,84700,1,2,0:3:0:0:
189,225,84815,1,2,0:3:0:0:
147,193,84930,2,0,P|157:144|169:97,1,89.9999972534181,10|0,0:0|0:0,0:0:0:0:
363,71,85161,2,0,P|373:114|382:158,1,89.9999972534181,10|0,0:0|0:0,0:0:0:0:
453,270,85392,5,2,0:0:0:0:
453,270,85507,1,0,0:0:0:0:
453,270,85623,2,0,P|405:250|355:258,1,89.9999972534181,4|0,0:0|0:0,0:0:0:0:
290,301,85853,2,0,P|266:338|262:383,1,89.9999972534181,2|0,0:0|0:0,0:0:0:0:
382,158,86084,2,0,P|337:126|273:123,1,89.9999972534181,2|0,0:0|0:0,0:0:0:0:
211,165,86315,1,6,0:0:0:0:
211,165,86430,1,0,0:0:0:0:
211,165,86546,2,0,P|171:198|156:251,1,89.9999972534181
63,346,86776,5,2,0:3:0:0:
63,292,86892,1,2,0:3:0:0:
60,238,87007,1,2,0:3:0:0:
60,183,87123,1,2,0:3:0:0:
63,128,87238,2,0,L|76:29,1,89.9999972534181,8|0,0:3|0:0,0:0:0:0:
177,37,87469,6,0,P|261:13|337:57,1,179.999994506836,4|0,0:0|0:0,0:0:0:0:
288,146,87815,1,8,0:3:0:0:
288,146,87930,2,0,P|332:163|378:151,1,89.9999972534181,8|0,0:0|0:0,0:0:0:0:
431,73,88161,5,2,0:3:0:0:
461,117,88276,1,2,0:3:0:0:
464,170,88392,1,2,0:3:0:0:
444,220,88507,1,2,0:3:0:0:
405,258,88623,2,0,P|360:269|304:276,1,89.9999972534181,10|0,0:0|0:0,0:0:0:0:
269,250,88853,5,4,0:3:0:0:
111,171,89084,2,0,P|106:225|119:318,1,89.9999972534181,2|0,0:0|0:0,0:0:0:0:
290,353,89315,2,0,P|311:237|311:124,1,179.999994506836,6|0,0:0|0:0,0:0:0:0:
187,68,89661,1,8,0:3:0:0:
187,68,89776,2,0,P|236:89|288:80,1,89.9999972534181,8|0,0:0|0:0,0:0:0:0:
348,8,90007,5,2,0:3:0:0:
380,50,90123,1,2,0:3:0:0:
386,103,90238,1,2,0:3:0:0:
364,152,90353,1,2,0:3:0:0:
314,175,90469,2,0,P|319:229|328:296,1,89.9999972534181,10|0,0:0|0:0,0:0:0:0:
332,317,90700,5,4,0:3:0:0:
512,337,90930,2,0,P|515:293|503:248,1,89.9999972534181,2|0,0:0|0:0,0:0:0:0:
386,103,91161,2,0,P|396:202|412:283,1,179.999994506836,4|0,0:0|0:0,0:0:0:0:
490,137,91507,1,8,0:3:0:0:
490,136,91623,2,0,P|486:91|480:46,1,89.9999972534181
386,103,91853,2,0,B|301:92|326:165|217:155,1,179.999994506836,4|0,0:0|0:0,0:0:0:0:
91,38,92200,1,8,0:3:0:0:
91,38,92315,2,0,P|174:16|237:75,1,179.999994506836,4|0,0:2|0:0,0:0:0:0:
220,155,92661,1,2,0:3:0:0:
220,155,92776,2,0,P|231:252|243:303,1,89.9999972534181,2|0,0:3|0:3,0:0:0:0:
88,279,93007,6,0,P|137:296|182:308,1,89.9999972534181,4|0,0:2|0:0,0:0:0:0:
409,297,93238,2,0,P|360:280|315:268,1,89.9999972534181,4|0,0:3|0:0,0:0:0:0:
59,176,93469,2,0,P|102:191|145:204,1,89.9999972534181,4|0,0:2|0:0,0:0:0:0:
343,379,93700,2,0,P|301:365|258:352,1,89.9999972534181,4|0,0:3|0:0,0:0:0:0:
392,163,93930,6,0,P|349:174|305:181,1,89.9999972534181,4|0,0:2|0:0,0:0:0:0:
85,324,94161,2,0,P|128:312|172:305,1,89.9999972534181,4|0,0:2|0:0,0:0:0:0:
137,118,94392,6,8,P|207:149|238:163,1,89.9999972534181
491,333,94623,2,8,P|421:302|390:288,1,89.9999972534181
283,94,94853,5,4,0:0:0:0:
464,248,98546,6,0,P|379:221|322:255,1,112.500004291535,4|0,0:0|0:0,0:0:0:0:
291,314,98892,1,2,0:3:0:0:
290,314,99007,2,0,P|263:323|238:337,1,56.2500021457673
186,253,99238,1,4,0:0:0:0:
186,253,99469,2,0,P|196:172|210:82,1,168.750006437302,0|0,0:0|0:3,0:0:0:0:
213,52,99930,1,4,0:0:0:0:
370,253,100161,2,0,P|391:193|393:176,1,56.2500021457673,2|2,0:3|0:3,0:0:0:0:
451,141,100392,6,0,P|478:145|506:149,1,56.2500021457673,4|2,0:0|0:3,0:0:0:0:
448,53,100623,2,0,P|390:44|369:41,1,56.2500021457673,2|2,0:3|0:3,0:0:0:0:
237,156,100853,6,0,P|295:165|316:168,1,56.2500021457673,2|2,0:3|0:3,0:0:0:0:
234,68,101084,2,0,P|206:63|178:59,1,56.2500021457673,2|2,0:3|0:3,0:0:0:0:
94,244,101315,6,0,P|152:235|173:232,1,56.2500021457673,4|0,0:0|0:0,0:0:0:0:
91,332,101546,2,0,P|63:336|35:340,1,56.2500021457673,2|2,0:3|0:3,0:0:0:0:
291,342,101776,6,0,L|221:331,1,56.2500021457673,4|0,0:0|0:0,0:0:0:0:
46,166,102007,2,0,L|133:147,1,56.2500021457673,2|2,0:3|0:3,0:0:0:0:
343,67,102238,6,0,P|291:56|210:79,1,112.500004291535,4|0,0:0|0:0,0:0:0:0:
237,156,102584,1,2,0:3:0:0:
237,156,102700,2,0,L|304:147,1,56.2500021457673
389,147,102930,1,4,0:0:0:0:
389,147,103161,2,0,B|411:222|411:222|376:249|371:318,1,168.750006437302
480,303,103623,1,4,0:0:0:0:
480,303,103853,2,0,L|503:244,1,56.2500021457673,2|2,0:3|0:3,0:0:0:0:
389,147,104084,6,0,L|442:120,1,56.2500021457673,2|2,0:3|0:3,0:0:0:0:
264,68,104315,2,0,L|328:94,1,56.2500021457673,4|2,0:0|0:3,0:0:0:0:
264,226,104546,6,0,L|237:173,1,56.2500021457673,2|2,0:3|0:3,0:0:0:0:
185,351,104776,2,0,L|211:287,1,56.2500021457673,2|2,0:3|0:3,0:0:0:0:
79,97,105007,6,0,P|126:113|166:125,1,56.2500021457673,4|0,0:0|0:3,0:0:0:0:
55,246,105238,2,0,P|65:220|73:193,1,56.2500021457673,2|2,0:3|0:3,0:0:0:0:
100,18,105469,6,0,P|147:34|187:46,1,56.2500021457673,4|0,0:0|0:0,0:0:0:0:
116,322,105700,2,0,P|126:296|134:269,1,56.2500021457673,2|2,0:3|0:3,0:0:0:0:
238,175,105930,6,0,P|321:192|396:164,1,150,4|0,0:0|0:0,0:0:0:0:
437,102,106276,1,2,0:3:0:0:
437,102,106392,2,0,P|448:140|456:202,1,75
416,264,106623,2,0,P|413:316|422:358,1,75,4|2,0:0|0:3,0:0:0:0:
182,267,106853,6,0,P|216:194|363:203,1,225,0|2,0:0|0:3,0:0:0:0:
341,233,107315,5,4,0:0:0:0:
330,20,107546,2,0,P|268:16|244:13,1,75,2|2,0:3|0:3,0:0:0:0:
191,90,107776,2,0,P|153:93|116:95,1,75,2|2,0:3|0:3,0:0:0:0:
9,3,108007,2,0,P|46:8|82:17,1,75,4|0,0:0|0:0,0:0:0:0:
166,186,108238,2,0,P|128:189|91:191,1,75,2|2,0:3|0:3,0:0:0:0:
52,168,108469,1,0,0:0:0:0:
227,238,108700,6,0,P|166:158|28:190,1,225,4|0,0:0|0:0,0:0:0:0:
109,271,109161,2,0,P|170:351|308:319,1,225,4|0,0:0|0:0,0:0:0:0:
300,30,109623,6,0,P|319:134|320:266,1,225,4|2,0:0|0:3,0:0:0:0:
109,271,110084,5,0,0:0:0:0:
109,271,110315,2,0,P|103:153|135:23,1,225,4|2,0:0|0:3,0:0:0:0:
300,30,110776,5,0,0:0:0:0:
300,30,111007,2,0,P|402:86|512:33,1,225,4|2,0:0|0:3,0:0:0:0:
495,4,111469,5,0,0:0:0:0:
470,259,111700,2,0,P|469:212|462:156,1,75,12|0,0:0|0:0,0:0:0:0:
370,176,111930,2,0,P|369:131|359:92,1,75,12|0,0:0|0:0,0:0:0:0:
267,235,112161,2,0,P|262:189|243:147,1,75,4|0,0:3|0:0,0:0:0:0:
110,105,112392,1,12,0:0:0:0:
110,105,112507,2,0,P|201:63|275:59,1,150,8|0,0:0|0:0,0:0:0:0:
77,223,112853,5,8,0:0:0:0:
78,237,112969,1,4,0:3:0:0:
79,251,113084,1,4,0:3:0:0:
80,265,113200,1,4,0:3:0:0:
41,313,113315,6,0,P|118:360|199:337,1,179.999994506836,4|0,0:0|0:0,0:0:0:0:
263,269,113661,1,8,0:3:0:0:
263,269,113776,2,0,L|368:282,1,89.9999972534181
457,298,114007,5,2,0:3:0:0:
484,251,114123,1,2,0:3:0:0:
475,197,114238,1,2,0:3:0:0:
431,164,114353,1,2,0:3:0:0:
377,154,114469,2,0,P|380:109|387:53,1,89.9999972534181,4|0,0:3|0:0,0:0:0:0:
278,102,114700,2,0,P|275:147|268:203,1,89.9999972534181,4|0,0:2|0:0,0:0:0:0:
472,98,114930,2,0,P|475:53|482:-3,1,89.9999972534181,4|0,0:2|0:0,0:0:0:0:
165,53,115161,6,0,P|300:52|342:-48,1,179.999994506836,4|0,0:0|0:0,0:0:0:0:
52,125,115507,1,8,0:3:0:0:
52,125,115623,2,0,P|55:80|62:24,1,89.9999972534181,8|0,0:3|0:0,0:0:0:0:
146,143,115853,2,0,P|152:188|155:233,1,89.9999972534181,4|0,0:3|0:0,0:0:0:0:
77,284,116084,5,4,0:2:0:0:
77,284,116200,2,0,P|177:317|246:255,1,179.999994506836,8|0,0:3|0:0,0:0:0:0:
254,199,116546,2,0,P|300:207|342:217,1,89.9999972534181,4|0,0:2|0:0,0:0:0:0:
495,291,116776,2,0,P|454:300|390:304,1,89.9999972534181,4|0,0:2|0:0,0:0:0:0:
455,106,117007,6,0,P|355:163|216:110,1,269.999991760254,4|0,0:0|0:0,0:0:0:0:
135,38,117469,5,8,0:3:0:0:
97,76,117584,1,8,0:3:0:0:
72,124,117700,2,4,P|67:174|82:226,1,89.9999972534181,4|4,0:3|0:3,0:3:0:0:
331,199,117930,2,0,P|241:190|136:160,1,179.999994506836,8|8,0:3|0:3,0:0:0:0:
234,21,118392,1,8,0:3:0:0:
234,21,118853,5,4,0:0:0:0:
300,82,118969,1,8,0:3:0:0:
162,198,119200,1,8,0:3:0:0:
337,162,119430,1,8,0:3:0:0:
169,95,119661,1,8,0:3:0:0:
238,266,119892,1,8,0:3:0:0:
340,268,120007,6,8,P|329:311|327:356,1,89.9999972534181,8|8,0:3|0:3,0:3:0:0:
461,263,120238,2,8,P|459:216|450:169,1,89.9999972534181,8|8,0:3|0:3,0:3:0:0:
337,162,120469,2,8,P|334:112|346:71,1,89.9999972534181,8|8,0:3|0:3,0:3:0:0:
61,71,120700,6,0,P|116:94|203:84,1,112.500004291535,4|0,0:0|0:0,0:0:0:0:
14,269,121046,2,0,P|53:211|60:123,1,112.500004291535
229,335,121392,2,0,P|182:304|86:305,1,112.500004291535,4|0,0:0|0:0,0:0:0:0:
260,122,121738,2,0,P|237:191|250:277,1,112.500004291535
343,195,122084,6,0,P|403:208|469:184,1,112.500004291535,4|0,0:0|0:0,0:0:0:0:
404,104,122430,2,0,P|416:52|393:-22,1,112.500004291535
311,46,122776,2,0,P|252:37|185:57,1,112.500004291535,4|0,0:0|0:0,0:0:0:0:
257,144,123123,2,0,P|252:204|268:270,1,112.500004291535
474,92,123469,6,0,P|433:108|387:95,1,75,4|0,0:0|0:0,0:0:0:0:
311,46,123700,2,0,P|270:30|224:43,1,75
148,92,123930,2,0,P|107:108|61:95,1,75,4|0,0:0|0:0,0:0:0:0:
29,200,124161,2,0,L|36:303,1,75
138,344,124392,6,0,B|196:341|196:341|248:267,1,112.500004291535,4|0,0:0|0:0,0:0:0:0:
274,157,124738,2,0,B|329:184|329:184|345:263,1,112.500004291535
276,66,125084,2,0,B|213:65|213:65|162:146,1,112.500004291535,4|0,0:0|0:0,0:0:0:0:
149,222,125430,2,0,B|96:202|96:202|73:132,1,112.500004291535
166,22,125776,6,0,P|243:26|327:50,1,112.500004291535,4|0,0:0|0:0,0:0:0:0:
346,138,126123,2,0,P|339:212|322:273,1,112.500004291535
259,346,126469,2,0,P|183:339|112:320,1,112.500004291535,4|0,0:0|0:0,0:0:0:0:
61,219,126815,2,0,P|67:144|83:82,1,112.500004291535
145,33,127161,6,0,L|163:116,1,75,4|0,0:0|0:0,0:0:0:0:
184,246,127392,2,0,L|270:225,1,75
381,212,127623,2,0,L|360:124,1,75,4|0,0:0|0:0,0:0:0:0:
348,0,127853,2,0,L|259:22,1,75
326,270,128084,6,0,B|371:251|371:251|462:291,1,112.500004291535,4|0,0:0|0:0,0:0:0:0:
228,281,128430,2,0,B|247:326|247:326|207:417,1,112.500004291535,2|0,0:3|0:0,0:0:0:0:
165,204,128776,2,0,B|120:223|120:223|29:183,1,112.500004291535,4|0,0:0|0:0,0:0:0:0:
257,161,129123,2,0,B|238:116|238:116|278:25,1,112.500004291535,2|0,0:3|0:0,0:0:0:0:
351,124,129469,6,0,B|393:134|393:134|407:156|407:156|489:178,1,112.500004291535,4|0,0:0|0:0,0:0:0:0:
295,240,129815,2,0,B|285:282|285:282|263:296|263:296|241:378,1,112.500004291535,2|0,0:3|0:0,0:0:0:0:
194,228,130161,2,0,B|152:218|152:218|138:196|138:196|56:174,1,112.500004291535,4|0,0:0|0:0,0:0:0:0:
250,112,130507,2,0,B|260:70|260:70|282:56|282:56|304:-26,1,112.500004291535,2|0,0:3|0:0,0:0:0:0:
295,240,130853,6,0,L|398:278,1,75,4|2,0:0|0:3,0:0:0:0:
202,203,131084,2,0,L|158:324,1,75,2|2,0:3|0:3,0:0:0:0:
250,112,131315,2,0,L|129:66,1,75,4|2,0:0|0:3,0:0:0:0:
336,154,131546,2,0,L|380:34,1,75,2|2,0:3|0:3,0:0:0:0:
176,273,131776,6,0,P|117:264|44:264,1,112.500004291535,4|0,0:0|0:0,0:0:0:0:
336,154,132123,2,0,P|398:142|468:145,1,112.500004291535,2|0,0:3|0:0,0:0:0:0:
134,355,132469,2,0,P|74:343|2:346,1,112.500004291535,4|0,0:0|0:0,0:0:0:0:
294,236,132815,2,0,P|361:222|426:227,1,112.500004291535,2|0,0:3|0:0,0:0:0:0:
508,381,133161,6,0,P|505:324|491:270,1,112.500004291535,4|0,0:0|0:0,0:0:0:0:
310,125,133507,2,0,P|295:179|293:235,1,112.500004291535,2|0,0:3|0:0,0:0:0:0:
405,111,133853,6,0,B|531:135,1,93.75,4|2,0:0|0:3,0:0:0:0:
404,223,134084,2,0,B|406:317,1,93.75,2|2,0:3|0:3,0:0:0:0:
293,235,134315,2,0,B|194:254,1,93.75,2|2,0:3|0:3,0:0:0:0:
182,33,134546,6,0,P|199:82|178:132,1,93.75,4|2,0:0|0:3,0:0:0:0:
123,319,134776,2,0,P|105:267|124:189,1,93.75,2|2,0:3|0:3,0:0:0:0:
108,79,135007,6,0,P|53:78|-29:49,1,93.75,4|2,0:0|0:3,0:0:0:0:
273,147,135238,2,0,P|326:147|438:117,1,93.75,2|2,0:3|0:3,0:0:0:0:
425,62,135469,5,4,0:0:0:0:
256,192,135584,12,0,142853,2:0:0:0:
