osu file format v14

[General]
AudioFilename: audio.mp3
AudioLeadIn: 0
PreviewTime: 63469
Countdown: 0
SampleSet: Normal
StackLeniency: 0.7
Mode: 0
LetterboxInBreaks: 0
WidescreenStoryboard: 1

[Editor]
DistanceSpacing: 1
BeatDivisor: 4
GridSize: 32
TimelineZoom: 1

[Metadata]
Title:Rules of Nature
TitleUnicode:Rules of Nature
Artist:Jamie Christopherson
ArtistUnicode:Jamie Christopherson
Creator:Revolver
Version:HARD
Source:Metal Gear Rising: Revengeance
Tags:jason miller raiden jack the ripper platinum platinumgames mgs mgr solid metal english video game gouhin deetz diodex
BeatmapID:3296018
BeatmapSetID:1614414

[Difficulty]
HPDrainRate:4
CircleSize:4
OverallDifficulty:6
ApproachRate:7.5
SliderMultiplier:1.8
SliderTickRate:1

[Events]
//Background and Video events
0,0,"disgusting.jpg",0,0
//Break Periods
2,95053,97721
//Storyboard Layer 0 (Background)
//Storyboard Layer 1 (Fail)
//Storyboard Layer 2 (Pass)
//Storyboard Layer 3 (Foreground)
//Storyboard Layer 4 (Overlay)
//Storyboard Sound Samples

[TimingPoints]
700,461.538461538462,4,1,0,35,1,0
22853,-100,4,1,0,50,0,0
65315,-80,4,1,0,65,0,1
94853,-100,4,1,0,65,0,0
113315,-100,4,1,0,65,0,1
120700,-100,4,1,0,65,0,0
135584,-100,4,1,0,5,0,0

[Colours]
Combo1 : 255,94,55
Combo2 : 173,255,95
Combo3 : 17,254,176
Combo4 : 255,88,100

[HitObjects]
71,44,8084,6,0,P|63:102|90:149,1,90
145,185,8546,2,0,P|203:193|250:166,1,90
284,108,9007,2,0,L|386:95,1,90
423,172,9469,2,0,L|512:183,1,90
465,260,9930,6,0,L|485:366,1,90
391,349,10392,2,0,L|374:260,1,90
327,183,10853,2,0,P|283:166|221:182,1,90
189,245,11315,2,0,P|145:262|83:246,1,90
40,192,11776,6,0,L|58:97,1,90
77,15,12238,1,8,0:0:0:0:
172,156,12700,6,0,L|188:244,1,90
209,322,13162,1,8,0:0:0:0:
272,258,13392,6,0,P|301:249|330:252,1,45
366,299,13623,2,0,P|399:308|446:287,1,45
372,158,14084,1,8,0:0:0:0:
309,92,14315,5,0,0:0:0:0:
309,92,14430,1,0,0:0:0:0:
309,92,14546,1,8,0:0:0:0:
238,148,14776,1,0,0:0:0:0:
156,109,15007,1,8,0:0:0:0:
156,109,15123,1,8,0:0:0:0:
156,109,15238,1,8,0:0:0:0:
91,224,15469,6,0,L|186:215,1,90,4|0,0:0|0:0,0:0:0:0:
270,210,15930,1,0,0:0:0:0:
347,255,16161,2,0,L|443:243,1,90,2|0,0:3|0:0,0:0:0:0:
500,180,16623,5,0,0:0:0:0:
476,324,16853,1,8,0:0:0:0:
476,324,16969,1,0,0:0:0:0:
476,324,17084,1,4,0:3:0:0:
436,243,17315,1,2,0:3:0:0:
359,290,17546,6,0,B|391:181,1,90
415,118,18007,1,2,0:3:0:0:
415,118,18123,1,0,0:0:0:0:
415,118,18238,1,0,0:0:0:0:
324,137,18469,5,0,0:0:0:0:
344,14,18700,2,0,L|254:27,1,90,8|8,0:0|0:0,0:0:0:0:
165,37,19161,5,2,0:3:0:0:
165,37,19276,1,0,0:0:0:0:
165,37,19392,1,0,0:0:0:0:
95,94,19623,1,0,0:0:0:0:
142,170,19853,6,0,L|130:219,2,45,2|0|0,0:3|0:0|0:0,0:0:0:0:
212,113,20315,1,0,0:0:0:0:
274,177,20546,2,0,L|286:226,2,45,8|0|4,0:0|0:0|0:3,0:0:0:0:
320,99,21007,6,0,B|395:84|395:84|425:99|425:99|503:83,1,180,2|0,0:3|0:0,0:0:0:0:
485,175,21700,1,2,0:3:0:0:
485,175,21930,2,0,L|465:263,1,90,8|4,0:0|0:3,0:0:0:0:
386,307,22392,6,0,B|367:265,3,45,8|8|8|8,0:0|0:0|0:0|0:0,0:0:0:0:
351,223,22853,6,0,L|221:206,1,90,4|0,0:0|0:0,0:0:0:0:
171,204,23315,1,0,0:0:0:0:
81,197,23546,2,0,P|68:107|135:55,1,180,4|0,0:0|0:0,0:0:0:0:
217,82,24238,5,2,0:3:0:0:
298,42,24469,1,0,0:0:0:0:
298,42,24584,1,2,0:3:0:0:
298,42,24700,2,0,L|397:48,1,90,4|0,0:0|0:0,0:0:0:0:
468,6,25161,6,0,P|478:53|451:110,2,90,0|4|0,0:0|0:0|0:0,0:0:0:0:
387,47,25853,1,2,0:3:0:0:
297,36,26084,1,4,0:2:0:0:
297,36,26200,1,0,0:0:0:0:
297,36,26315,1,4,0:2:0:0:
225,90,26546,6,0,B|154:43|138:139|37:77,1,180,4|0,0:0|0:0,0:0:0:0:
22,170,27238,1,4,0:3:0:0:
81,237,27469,2,0,L|71:288,2,45,2|0|2,0:3|0:0|0:3,0:0:0:0:
169,217,27930,2,0,L|160:172,2,45,2|0|0,0:3|0:0|0:0,0:0:0:0:
192,304,28392,6,0,P|286:332|376:269,1,180,4|0,0:0|0:0,0:0:0:0:
388,213,29084,1,4,0:3:0:0:
346,133,29315,2,0,P|265:97|182:126,1,180,4|4,0:2|0:2,0:0:0:0:
135,205,30007,1,0,0:0:0:0:
135,205,30123,1,0,0:0:0:0:
135,205,30238,2,0,L|30:189,1,90,4|0,0:0|0:0,0:0:0:0:
34,101,30700,6,0,B|122:103|122:103|132:121|132:121|233:126,1,180,2|0,0:3|0:0,0:0:0:0:
301,135,31392,1,8,0:3:0:0:
301,135,31507,1,0,0:0:0:0:
301,135,31623,2,0,L|326:79,1,45,8|0,0:0|0:0,0:0:0:0:
359,74,31853,2,0,L|340:32,1,45,0|8,0:0|0:0,0:0:0:0:
305,4,32084,6,0,L|130:22,2,135,4|4|4,0:2|0:2|0:2,0:0:0:0:
395,4,33007,2,0,L|493:20,1,90,4|0,0:2|0:0,0:0:0:0:
503,106,33469,2,0,L|414:120,1,90,4|4,0:2|0:3,0:0:0:0:
354,188,33930,2,0,B|279:143|277:227|160:180,1,180,4|0,0:2|0:0,0:0:0:0:
108,132,34623,5,0,0:0:0:0:
108,132,34738,1,0,0:3:0:0:
108,132,34853,1,2,0:3:0:0:
67,212,35084,1,2,0:3:0:0:
117,286,35315,6,0,L|106:335,3,45,2|0|0|0,0:3|0:0|0:0|0:0,0:0:0:0:
97,373,35776,6,0,L|283:340,1,180,4|0,0:0|0:0,0:0:0:0:
362,319,36469,1,4,0:3:0:0:
352,229,36700,6,8,P|303:197|202:234,1,120
200,242,37161,2,0,P|136:252|75:202,1,120,8|8,0:0|0:0,0:0:0:0:
66,169,37623,6,0,L|89:103,2,45,2|2|2,0:3|0:3|0:3,0:0:0:0:
180,29,38315,2,0,L|194:71,2,45,2|2|2,0:3|0:3|0:3,0:0:0:0:
238,199,39007,5,2,0:2:0:0:
275,117,39238,1,2,0:2:0:0:
338,180,39469,2,0,L|328:226,2,45,2|2|2,0:3|0:3|0:3,0:0:0:0:
431,25,40161,1,2,0:3:0:0:
431,25,40276,1,2,0:3:0:0:
431,25,40392,2,0,L|447:122,1,90,2|2,0:3|0:3,0:0:0:0:
382,187,40853,6,0,L|337:179,3,45,8|8|8|8,0:0|0:0|0:0|0:0,0:0:0:0:
296,160,41315,6,0,P|315:214|296:270,1,90,4|0,0:0|0:0,0:0:0:0:
227,281,41776,2,0,P|208:335|227:391,1,90,0|4,0:0|0:3,0:0:0:0:
298,335,42238,2,0,L|390:325,1,90,2|0,0:3|0:0,0:0:0:0:
477,317,42700,1,2,0:3:0:0:
425,243,42930,1,0,0:0:0:0:
479,170,43161,6,0,L|471:76,2,90,4|0|0,0:0|0:0|0:0,0:0:0:0:
396,134,43853,2,0,B|321:126|321:126|316:142|316:142|206:128,1,180,4|0,0:3|0:0,0:0:0:0:
140,116,44546,1,8,0:0:0:0:
77,51,44776,5,8,0:0:0:0:
77,51,44892,1,0,0:0:0:0:
77,51,45007,2,0,P|49:97|52:150,1,90,4|0,0:0|0:0,0:0:0:0:
99,205,45469,2,0,L|80:306,1,90,0|4,0:0|0:3,0:0:0:0:
149,353,45930,2,0,P|197:370|242:356,1,90,2|2,0:3|0:3,0:0:0:0:
295,294,46392,2,0,P|342:279|388:297,1,90,2|2,0:3|0:3,0:0:0:0:
455,338,46853,5,4,0:0:0:0:
463,255,47084,1,0,0:0:0:0:
463,255,47200,1,4,0:3:0:0:
463,255,47315,1,0,0:0:0:0:
412,180,47546,6,0,P|311:130|243:156,1,180,4|0,0:3|0:0,0:0:0:0:
187,211,48238,2,0,L|89:198,2,90,8|8|4,0:0|0:0|0:0,0:0:0:0:
243,281,48930,1,0,0:0:0:0:
321,237,49161,6,0,P|333:184|318:130,1,90,0|4,0:0|0:3,0:0:0:0:
254,95,49623,2,0,P|241:42|257:-12,1,90,2|0,0:3|0:0,0:0:0:0:
329,45,50084,1,2,0:3:0:0:
413,13,50315,1,4,0:3:0:0:
469,83,50546,6,0,L|435:261,1,180,4|0,0:2|0:0,0:0:0:0:
415,347,51238,2,0,B|303:314|303:314|241:347,1,180,4|4,0:2|0:3,0:0:0:0:
157,353,51930,1,8,0:0:0:0:
157,353,52046,1,0,0:0:0:0:
157,353,52161,1,8,0:0:0:0:
81,304,52392,6,0,L|106:173,1,90,6|0,0:0|0:0,0:0:0:0:
115,127,52853,1,10,0:0:0:0:
182,186,53084,2,0,P|225:197|278:168,1,90,2|0,0:0|0:0,0:0:0:0:
332,118,53546,2,0,P|375:107|428:136,1,90,2|8,0:0|0:0,0:0:0:0:
461,201,54007,1,10,0:0:0:0:
407,273,54238,6,0,L|326:288,1,45,4|8,0:3|0:0,0:0:0:0:
276,308,54584,2,0,L|231:299,1,45,4|8,0:3|0:0,0:0:0:0:
144,275,54930,2,0,L|63:290,1,45,4|8,0:3|0:0,0:0:0:0:
28,228,55276,2,0,L|43:147,1,45,4|8,0:3|0:0,0:0:0:0:
55,95,55623,1,8,0:0:0:0:
123,153,55853,1,8,0:0:0:0:
170,76,56084,6,0,P|211:60|269:72,1,90,4|0,0:0|0:0,0:0:0:0:
293,147,56546,2,0,P|334:163|392:151,1,90,8|4,0:0|0:0,0:0:0:0:
452,105,57007,2,0,L|432:59,2,45,0|0|4,0:0|0:0|0:3,0:0:0:0:
487,188,57469,1,8,0:0:0:0:
461,274,57700,1,0,0:0:0:0:
379,312,57930,6,0,L|274:295,1,90,4|0,0:0|0:0,0:0:0:0:
201,277,58392,2,0,L|112:291,1,90,8|4,0:0|0:0,0:0:0:0:
23,305,58853,2,0,L|5:346,2,45,0|0|8,0:0|0:0|0:3,0:0:0:0:
53,219,59315,2,0,L|37:104,1,90,8|8,0:0|0:0,0:0:0:0:
22,41,59776,6,0,P|65:28|121:43,1,90,4|4,0:2|0:3,0:0:0:0:
168,104,60238,2,0,P|211:117|267:102,1,90,4|4,0:2|0:3,0:0:0:0:
318,44,60700,2,0,L|337:156,1,90,4|4,0:2|0:3,0:0:0:0:
395,197,61161,2,8,L|376:309,1,90,4|8,0:2|0:3,0:3:0:0:
256,192,61623,12,2,63469,0:0:0:0:
256,192,64161,5,2,0:0:0:0:
35,36,64853,1,2,0:0:0:0:
7,259,65315,6,0,P|69:279|141:253,1,112.5,4|0,0:0|0:0,0:0:0:0:
182,179,65776,1,4,0:3:0:0:
69,174,66007,2,0,L|93:58,1,112.5,4|0,0:0|0:0,0:0:0:0:
190,9,66469,1,8,0:3:0:0:
282,73,66700,1,8,0:0:0:0:
376,12,66930,6,0,L|491:30,1,112.5,8|4,0:0|0:0,0:0:0:0:
471,141,67392,2,0,L|356:159,1,112.5,0|4,0:0|0:3,0:0:0:0:
282,73,67853,2,0,L|264:188,1,112.5,4|0,0:0|0:0,0:0:0:0:
187,266,68315,2,0,L|169:154,1,112.5,4|8,0:3|0:0,0:0:0:0:
153,43,68776,5,4,0:3:0:0:
153,43,68892,1,0,0:0:0:0:
153,43,69007,2,0,P|97:28|31:52,1,112.5,4|0,0:0|0:0,0:0:0:0:
8,148,69469,1,4,0:3:0:0:
80,234,69700,2,0,L|61:350,1,112.5,4|0,0:0|0:0,0:0:0:0:
162,294,70161,5,2,0:0:0:0:
247,367,70392,1,14,0:0:0:0:
325,286,70623,2,0,L|303:161,1,112.5,2|4,0:0|0:0,0:0:0:0:
283,64,71084,1,2,0:0:0:0:
205,145,71315,1,2,0:0:0:0:
143,50,71546,2,0,L|180:284,1,225,6|4,0:0|0:3,0:0:0:0:
247,360,72238,5,8,0:3:0:0:
287,255,72469,1,8,0:0:0:0:
178,272,72700,6,0,P|65:293|76:190,1,225,4|4,0:0|0:0,0:0:0:0:
141,137,73392,2,0,L|115:24,1,112.5,4|0,0:0|0:0,0:0:0:0:
227,42,73853,1,8,0:3:0:0:
227,42,73969,1,0,0:0:0:0:
227,42,74084,2,0,P|280:65|343:41,2,112.5,8|0|4,0:0|0:0|0:0,0:0:0:0:
115,27,74776,6,0,P|125:168|200:177,1,225,8|4,0:3|0:3,0:0:0:0:
113,270,75469,1,4,0:0:0:0:
201,339,75700,1,2,0:0:0:0:
293,276,75930,2,0,L|318:151,1,112.5,12|10,0:0|0:0,0:0:0:0:
325,53,76392,2,0,B|211:26|238:106|91:70,1,225,6|4,0:0|0:3,0:0:0:0:
13,10,77084,5,4,0:0:0:0:
18,122,77315,1,0,0:0:0:0:
18,122,77430,1,0,0:0:0:0:
18,122,77546,2,0,L|0:237,1,112.5,8|8,0:3|0:0,0:0:0:0:
112,246,78007,2,0,L|129:357,2,112.5,8|4|4,0:0|0:0|0:3,0:0:0:0:
182,157,78700,5,4,0:2:0:0:
239,253,78930,2,0,P|291:271|359:251,1,112.5,4|4,0:2|0:2,0:0:0:0:
406,163,79392,2,0,P|460:151|512:169,1,112.5,4|2,0:2|0:3,0:0:0:0:
454,265,79853,1,2,0:3:0:0:
345,259,80084,6,0,L|109:189,1,225,4|0,0:0|0:0,0:0:0:0:
19,168,80776,1,2,0:3:0:0:
19,168,80892,1,2,0:3:0:0:
19,168,81007,1,2,0:3:0:0:
100,90,81238,5,8,0:3:0:0:
190,22,81469,2,0,L|306:34,1,112.5,8|8,0:0|0:0,0:0:0:0:
371,122,81930,2,0,L|255:134,1,112.5,4|0,0:0|0:0,0:0:0:0:
146,139,82392,5,0,0:0:0:0:
146,139,82507,1,0,0:0:0:0:
146,139,82623,1,2,0:3:0:0:
207,232,82853,1,2,0:3:0:0:
259,133,83084,1,8,0:3:0:0:
339,211,83315,2,0,P|393:230|452:189,1,112.5,4|4,0:2|0:2,0:0:0:0:
482,106,83776,6,0,L|248:134,1,225,4|0,0:0|0:0,0:0:0:0:
145,139,84469,1,2,0:3:0:0:
50,99,84700,1,2,0:3:0:0:
50,99,84815,1,2,0:3:0:0:
50,99,84930,2,0,L|62:231,1,112.5,10|10,0:0|0:0,0:0:0:0:
17,315,85392,6,0,P|82:295|155:316,1,112.5,2|4,0:0|0:0,0:0:0:0:
210,374,85853,1,2,0:0:0:0:
248,268,86084,1,2,0:0:0:0:
280,160,86315,2,0,B|152:119|196:220|47:180,1,225,6|2,0:0|0:3,0:0:0:0:
32,76,87007,5,2,0:3:0:0:
127,16,87238,1,8,0:3:0:0:
127,16,87353,1,0,0:0:0:0:
127,16,87469,2,0,L|258:37,1,112.5,4|0,0:0|0:0,0:0:0:0:
278,138,87930,2,0,L|389:120,1,112.5,8|2,0:0|0:3,0:0:0:0:
500,103,88392,5,2,0:3:0:0:
500,103,88507,1,2,0:3:0:0:
500,103,88623,1,10,0:0:0:0:
389,120,88853,2,0,P|351:170|361:239,1,112.5,4|2,0:3|0:0,0:0:0:0:
430,298,89315,6,0,P|320:234|202:305,1,225,6|8,0:0|0:0,0:0:0:0:
171,358,90007,1,2,0:3:0:0:
171,358,90123,1,2,0:3:0:0:
171,358,90238,1,2,0:3:0:0:
110,263,90469,1,10,0:0:0:0:
175,171,90700,2,0,L|156:52,1,112.5,4|2,0:3|0:0,0:0:0:0:
45,44,91161,6,0,B|156:-7|152:82|280:43,1,225,4|0,0:0|0:0,0:0:0:0:
366,3,91853,2,0,L|332:133,1,112.5,4|0,0:0|0:0,0:0:0:0:
403,204,92315,2,0,P|338:226|268:184,1,112.5,4|0,0:2|0:0,0:0:0:0:
212,141,92776,2,0,P|147:119|77:161,1,112.5,2|4,0:3|0:2,0:0:0:0:
3,176,93238,2,0,L|25:292,1,112.5,4|4,0:3|0:2,0:0:0:0:
133,312,93700,2,0,L|153:201,1,112.5,4|4,0:3|0:2,0:0:0:0:
170,90,94161,5,4,0:2:0:0:
260,156,94392,2,8,L|252:219,4,56.25,8|8|8|8|4,0:0|0:0|0:0|0:0|0:0,0:0:0:0:
30,48,98546,6,0,P|79:30|141:59,1,90,4|0,0:0|0:0,0:0:0:0:
155,118,99007,2,0,P|204:136|266:107,1,90,0|4,0:0|0:0,0:0:0:0:
280,47,99469,2,0,L|246:236,1,180,0|4,0:0|0:0,0:0:0:0:
230,312,100161,1,2,0:3:0:0:
312,275,100392,6,0,L|436:284,1,90,2|4,0:3|0:0,0:0:0:0:
423,193,100853,2,0,L|299:202,1,90,2|2,0:3|0:3,0:0:0:0:
248,224,101315,1,4,0:0:0:0:
266,135,101546,1,2,0:3:0:0:
223,56,101776,2,0,L|117:51,1,90,4|2,0:0|0:3,0:0:0:0:
53,8,102238,6,0,P|41:54|58:108,1,90,4|0,0:0|0:0,0:0:0:0:
110,162,102700,1,0,0:0:0:0:
61,237,102930,2,0,L|82:332,2,90,4|0|0,0:0|0:0|0:0,0:0:0:0:
110,162,103623,1,4,0:0:0:0:
176,222,103853,1,2,0:3:0:0:
243,161,104084,6,0,L|262:65,1,90,2|4,0:3|0:0,0:0:0:0:
338,26,104546,2,0,L|355:114,1,90,2|2,0:3|0:3,0:0:0:0:
377,201,105007,1,4,0:0:0:0:
362,289,105238,1,2,0:3:0:0:
278,323,105469,2,0,L|165:315,1,90,4|2,0:0|0:3,0:0:0:0:
102,344,105930,2,0,P|100:290|129:242,1,90,4|0,0:0|0:0,0:0:0:0:
187,204,106392,5,0,0:0:0:0:
175,114,106623,1,4,0:0:0:0:
227,41,106853,2,0,B|288:73|288:73|411:42,1,180,0|4,0:0|0:0,0:0:0:0:
483,23,107546,1,2,0:3:0:0:
471,111,107776,6,0,L|477:208,1,90,2|4,0:3|0:0,0:0:0:0:
485,290,108238,2,0,P|441:304|386:282,1,90,2|0,0:3|0:0,0:0:0:0:
338,226,108700,2,0,P|294:212|239:234,1,90,4|0,0:0|0:0,0:0:0:0:
236,311,109161,2,0,P|191:326|142:295,1,90,4|0,0:0|0:0,0:0:0:0:
139,220,109623,2,0,P|142:308|71:358,1,180,4|0,0:0|0:0,0:0:0:0:
61,268,110315,2,0,B|46:176,1,90,4|0,0:0|0:0,0:0:0:0:
29,90,110776,5,0,0:0:0:0:
116,111,111007,2,0,B|225:157|192:76|319:121,1,180,4|0,0:0|0:0,0:0:0:0:
326,195,111700,2,0,L|431:179,1,90,12|12,0:0|0:0,0:0:0:0:
463,105,112161,2,0,L|358:89,1,90,4|12,0:3|0:0,0:0:0:0:
307,30,112623,2,0,P|285:85|305:151,2,90,0|8|4,0:0|0:0|0:3,0:0:0:0:
216,32,113315,5,4,0:0:0:0:
155,98,113546,1,0,0:0:0:0:
155,98,113661,1,8,0:3:0:0:
155,98,113776,1,0,0:0:0:0:
88,36,114007,5,2,0:3:0:0:
31,105,114238,1,2,0:3:0:0:
31,105,114353,1,2,0:3:0:0:
31,105,114469,1,4,0:3:0:0:
46,193,114700,6,0,L|33:236,2,45,4|0|4,0:2|0:0|0:2,0:0:0:0:
132,218,115161,2,0,L|119:174,2,45,4|0|0,0:0|0:0|0:0,0:0:0:0:
222,215,115623,6,0,L|209:258,2,45,8|0|4,0:3|0:0|0:3,0:0:0:0:
254,130,116084,1,4,0:2:0:0:
330,79,116315,1,0,0:0:0:0:
330,79,116430,1,0,0:0:0:0:
330,79,116546,1,4,0:2:0:0:
388,146,116776,1,4,0:2:0:0:
435,69,117007,6,0,L|540:92,1,90,4|0,0:0|0:0,0:0:0:0:
505,176,117469,1,8,0:3:0:0:
505,176,117584,1,8,0:3:0:0:
505,176,117700,2,4,L|520:280,1,90,4|8,0:3|0:3,0:3:0:0:
460,334,118161,1,8,0:3:0:0:
380,292,118392,2,0,L|268:331,1,90,8|0,0:3|0:0,0:0:0:0:
222,267,118853,6,0,L|210:318,4,45,4|8|0|8|0,0:0|0:3|0:0|0:3|0:0,0:0:0:0:
244,179,119546,1,0,0:0:0:0:
244,179,119661,1,8,0:3:0:0:
244,179,119776,2,0,B|134:175|134:175|120:201|120:201|-30:197,1,270,0|8,0:0|0:3,0:0:0:0:
19,112,120700,6,0,L|37:16,1,90,4|0,0:0|0:0,0:0:0:0:
215,7,121392,2,0,L|231:95,1,90,4|0,0:0|0:0,0:0:0:0:
411,105,122084,2,0,L|428:-2,1,90,4|0,0:0|0:0,0:0:0:0:
485,186,122776,2,0,L|366:225,1,90,4|0,0:0|0:0,0:0:0:0:
223,252,123469,5,4,0:0:0:0:
250,166,123700,1,0,0:0:0:0:
178,111,123930,2,0,L|73:134,1,90,4|0,0:0|0:0,0:0:0:0:
25,194,124392,6,0,P|16:244|39:290,1,90,4|0,0:0|0:0,0:0:0:0:
188,364,125084,2,0,P|238:373|284:350,1,90,4|0,0:0|0:0,0:0:0:0:
370,207,125776,2,0,P|379:157|356:111,1,90,4|0,0:0|0:0,0:0:0:0:
207,33,126469,2,0,P|165:18|121:27,1,90,4|0,0:0|0:0,0:0:0:0:
25,194,127161,5,4,0:0:0:0:
104,150,127392,1,0,0:0:0:0:
182,193,127623,2,0,L|281:180,1,90,4|0,0:0|0:0,0:0:0:0:
332,114,128084,6,0,P|360:157|350:214,1,90,4|0,0:0|0:0,0:0:0:0:
232,322,128776,2,0,P|180:324|136:287,1,90,4|0,0:0|0:0,0:0:0:0:
86,135,129469,2,0,P|109:89|163:69,1,90,4|0,0:0|0:0,0:0:0:0:
312,14,130161,6,0,L|301:113,1,90,4|0,0:0|0:0,0:0:0:0:
291,193,130623,1,0,0:0:0:0:
224,252,130853,2,0,P|179:270|134:258,1,90,4|2,0:0|0:3,0:0:0:0:
100,180,131315,2,0,P|55:162|10:173,1,90,4|2,0:0|0:3,0:0:0:0:
51,252,131776,6,0,L|61:350,1,90,4|0,0:0|0:0,0:0:0:0:
239,362,132469,2,0,L|328:352,1,90,4|0,0:0|0:0,0:0:0:0:
496,287,133161,2,0,L|486:189,1,90,4|0,0:0|0:0,0:0:0:0:
308,177,133854,6,0,P|264:194|218:186,1,90,4|2,0:0|0:3,0:0:0:0:
172,113,134315,1,2,0:3:0:0:
104,52,134546,2,0,P|83:94|94:156,1,90,4|2,0:0|0:3,0:0:0:0:
131,213,135007,2,0,L|106:324,1,90,4|2,0:0|0:3,0:0:0:0:
44,362,135469,5,4,0:0:0:0:
256,192,135584,12,0,142853,2:0:0:0:
