osu file format v14

[General]
AudioFilename: audio.mp3
AudioLeadIn: 0
PreviewTime: 63469
Countdown: 0
SampleSet: Normal
StackLeniency: 1
Mode: 0
LetterboxInBreaks: 0
WidescreenStoryboard: 1

[Editor]
Bookmarks: 15469,22853,65315,98546,142853
DistanceSpacing: 1.1
BeatDivisor: 4
GridSize: 32
TimelineZoom: 1.4

[Metadata]
Title:Rules of Nature
TitleUnicode:Rules of Nature
Artist:Jamie Christopherson
ArtistUnicode:Jamie Christopherson
Creator:Revolver
Version:AND THEY RUN WHEN THE SUN COMES UP
Source:Metal Gear Rising: Revengeance
Tags:jason miller raiden jack the ripper platinum platinumgames mgs mgr solid metal english video game gouhin deetz diodex
BeatmapID:3296020
BeatmapSetID:1614414

[Difficulty]
HPDrainRate:5
CircleSize:4
OverallDifficulty:8.5
ApproachRate:9.3
SliderMultiplier:3
SliderTickRate:1

[Events]
//Background and Video events
0,0,"disgusting.jpg",0,0
//Break Periods
2,95053,97992
//Storyboard Layer 0 (Background)
//Storyboard Layer 1 (Fail)
//Storyboard Layer 2 (Pass)
//Storyboard Layer 3 (Foreground)
//Storyboard Sound Samples

[TimingPoints]
700,461.538461538462,4,1,0,35,1,0
8084,-166.666666666667,4,1,0,35,0,0
11776,-133.333333333333,4,1,0,35,0,0
15469,-100,4,1,0,35,0,0
22853,-100,4,1,0,50,0,0
65315,-83.3333333333333,4,1,0,65,0,1
72469,-62.5,4,1,0,65,0,1
73853,-83.3333333333333,4,1,0,65,0,1
76392,-71.4285714285714,4,1,0,65,0,1
77546,-83.3333333333333,4,1,0,65,0,1
94853,-83.3333333333333,4,1,0,65,0,0
98546,-133.333333333333,4,1,0,65,0,0
105930,-100,4,1,0,65,0,0
113315,-83.3333333333333,4,1,0,65,0,1
120700,-142.857142857143,4,1,0,65,0,0
123469,-83.3333333333333,4,1,0,65,0,0
124392,-142.857142857143,4,1,0,65,0,0
127161,-83.3333333333333,4,1,0,65,0,0
128084,-100,4,1,0,65,0,0
130853,-66.6666666666667,4,1,0,65,0,0
131776,-83.3333333333333,4,1,0,65,0,0
133853,-60.6060606060606,4,1,0,65,0,0
135584,-100,4,1,0,5,0,0

[Colours]
Combo1 : 255,94,55
Combo2 : 173,255,95
Combo3 : 17,254,176
Combo4 : 255,88,100

[HitObjects]
38,257,8084,6,0,P|98:239|185:249,1,134.999995880127,0|0,0:0|2:0,0:0:0:0:
250,267,8546,2,0,P|235:201|222:73,2,179.999994506836
474,266,9930,6,0,P|465:338|456:367,1,89.9999972534181
360,335,10392,2,0,L|168:353,2,179.999994506836
501,185,11776,6,0,P|470:143|356:165,1,168.750006437302
313,222,12238,2,0,L|185:203,1,112.500004291535,8|0,0:0|0:0,0:0:0:0:
4,82,12700,6,0,P|35:40|149:62,1,168.750006437302
192,119,13162,2,0,L|320:100,1,112.500004291535,8|0,0:0|0:0,0:0:0:0:
123,272,13623,5,0,0:0:0:0:
123,272,13738,2,0,L|3:242,1,112.500004291535
212,320,14084,2,0,L|277:303,1,56.2500021457673,8|0,0:0|0:0,0:0:0:0:
343,374,14315,1,0,0:0:0:0:
254,223,14546,6,0,L|322:241,1,56.2500021457673,8|0,0:0|0:0,0:0:0:0:
475,317,14776,2,0,L|420:331,1,56.2500021457673
284,145,15007,5,8,0:0:0:0:
339,138,15122,1,8,0:0:0:0:
391,158,15237,1,8,0:0:0:0:
429,198,15353,1,8,0:0:0:0:
283,315,15469,5,4,0:0:0:0:
283,315,15584,2,0,P|240:312|198:301,1,75
355,279,15815,2,0,P|444:298|474:358,1,150,2|0,0:3|0:0,0:0:0:0:
247,384,16161,1,2,0:3:0:0:
247,384,16276,2,0,P|244:296|238:227,2,150
131,378,16853,2,0,P|67:377|38:371,1,75,8|0,0:0|0:0,0:0:0:0:
39,232,17084,1,4,0:3:0:0:
39,232,17315,5,2,0:3:0:0:
39,232,17430,2,0,P|34:194|36:157,1,75
38,7,17661,2,0,P|108:60|94:126,1,150,2|0,0:3|0:0,0:0:0:0:
161,283,18007,1,2,0:3:0:0:
161,283,18123,2,0,P|100:289|59:298,1,75
201,142,18353,2,0,P|270:88|330:118,1,150,2|0,0:3|0:0,0:0:0:0:
353,215,18700,2,0,P|343:284|340:319,1,75,8|0,0:0|0:0,0:0:0:0:
273,377,18930,2,0,P|266:339|262:302,1,75,8|0,0:0|0:0,0:0:0:0:
444,233,19161,5,2,0:3:0:0:
444,233,19276,2,0,P|434:302|431:337,1,75
348,369,19507,2,0,P|268:354|189:359,1,150,2|0,0:3|0:0,0:0:0:0:
96,279,19853,1,2,0:3:0:0:
96,279,19969,2,0,P|78:156|71:111,1,150
145,19,20315,1,0,0:0:0:0:
145,19,20430,1,0,0:0:0:0:
145,19,20546,2,0,L|234:26,1,75,8|0,0:0|0:0,0:0:0:0:
324,108,20776,2,0,L|249:102,1,75,4|0,0:3|0:0,0:0:0:0:
412,0,21007,5,2,0:3:0:0:
412,0,21123,2,0,L|405:89,1,75
468,159,21353,2,0,P|372:181|291:214,1,150,2|0,0:3|0:0,0:0:0:0:
253,284,21700,2,0,P|173:267|152:259,1,75,2|0,0:3|0:0,0:0:0:0:
73,203,21930,2,0,P|35:208|-1:217,1,75,8|0,0:0|0:0,0:0:0:0:
126,346,22161,1,4,0:3:0:0:
281,163,22392,5,8,0:0:0:0:
266,91,22507,1,8,0:0:0:0:
208,45,22622,1,8,0:0:0:0:
135,46,22738,1,8,0:0:0:0:
184,214,22853,6,0,P|286:190|397:183,1,150,4|0,0:0|0:0,0:0:0:0:
157,293,23200,1,8,0:3:0:0:
157,293,23315,2,0,P|116:283|57:284,1,75
376,52,23546,2,0,P|457:76|462:192,1,150,4|0,0:0|0:0,0:0:0:0:
426,282,23892,1,8,0:3:0:0:
426,282,24007,2,0,P|385:293|334:324,1,75
223,192,24238,2,0,P|164:110|96:109,1,150,2|0,0:3|0:0,0:0:0:0:
55,139,24584,1,2,0:3:0:0:
128,371,24700,6,0,P|222:337|276:320,1,150,4|0,0:0|0:0,0:0:0:0:
337,354,25046,1,8,0:3:0:0:
349,125,25161,2,0,P|410:132|456:142,1,75
439,280,25392,2,0,B|356:281|386:252|282:247,1,150,4|0,0:0|0:0,0:0:0:0:
218,241,25738,1,8,0:3:0:0:
161,53,25853,6,0,P|222:46|268:36,1,75,2|0,0:3|0:0,0:0:0:0:
122,232,26084,2,0,P|84:225|47:222,1,75,4|0,0:2|0:0,0:0:0:0:
188,145,26315,2,0,P|225:151|262:154,1,75,4|0,0:2|0:0,0:0:0:0:
205,334,26546,6,0,P|129:330|39:337,1,150,4|0,0:0|0:0,0:0:0:0:
300,382,26892,1,8,0:3:0:0:
246,253,27007,2,0,P|324:254|361:352,1,150,0|4,0:0|0:3,0:0:0:0:
363,307,27469,6,0,P|373:239|381:213,1,75,2|0,0:3|0:0,0:0:0:0:
316,90,27700,2,0,P|324:126|327:163,1,75,2|0,0:3|0:0,0:0:0:0:
442,363,27930,2,0,P|458:242|474:183,1,150,2|0,0:3|0:0,0:0:0:0:
464,215,28392,6,0,P|479:141|487:67,1,150,4|0,0:0|0:0,0:0:0:0:
334,213,28738,1,8,0:3:0:0:
401,132,28853,2,0,P|315:105|261:141,1,150,0|4,0:0|0:3,0:0:0:0:
216,229,29200,1,2,0:3:0:0:
216,229,29315,2,0,L|122:221,1,75,4|0,0:2|0:0,0:0:0:0:
37,138,29546,2,0,L|111:144,1,75,4|0,0:2|0:0,0:0:0:0:
210,308,29776,2,0,L|49:296,1,150,4|0,0:2|0:0,0:0:0:0:
9,240,30123,1,0,0:0:0:0:
265,370,30238,6,0,B|387:373|332:280|471:276,1,225,4|8,0:0|0:3,0:0:0:0:
509,207,30700,2,0,P|459:189|422:177,1,75,2|0,0:3|0:0,0:0:0:0:
180,234,30930,2,0,P|152:119|249:71,1,225,4|4,0:0|0:3,0:0:0:0:
340,245,31392,2,0,P|290:263|253:275,1,75,8|0,0:3|0:0,0:0:0:0:
287,10,31623,6,0,P|368:-11|429:35,1,150,8|0,0:0|0:0,0:0:0:0:
468,89,31969,1,8,0:0:0:0:
397,275,32084,6,0,P|326:292|264:252,1,150,4|0,0:2|0:0,0:0:0:0:
101,193,32430,2,0,P|162:153|233:170,1,150,4|0,0:2|0:0,0:0:0:0:
88,293,32776,2,0,P|35:287|3:268,1,75,4|0,0:2|0:0,0:0:0:0:
0,90,33007,6,0,P|67:58|142:55,1,150,4|0,0:2|0:0,0:0:0:0:
308,167,33353,1,8,0:3:0:0:
308,167,33469,2,0,P|233:164|165:132,1,150,4|4,0:2|0:3,0:0:0:0:
370,107,33815,1,0,0:0:0:0:
370,108,33930,2,0,P|437:76|512:73,1,150,4|0,0:2|0:0,0:0:0:0:
342,239,34276,1,8,0:3:0:0:
497,254,34392,2,0,P|445:319|387:295,1,150
277,157,34738,1,0,0:3:0:0:
235,275,34853,6,0,P|213:211|203:184,1,75,2|0,0:3|0:0,0:0:0:0:
244,27,35084,2,0,P|231:62|219:97,1,75,2|0,0:3|0:0,0:0:0:0:
162,312,35315,2,0,P|132:223|93:145,1,150,2|0,0:3|0:0,0:0:0:0:
107,172,35776,6,0,P|91:101|137:44,1,150,4|0,0:0|0:0,0:0:0:0:
105,264,36123,1,8,0:3:0:0:
105,264,36238,2,0,P|48:252|15:248,1,75
175,215,36469,2,0,P|212:209|248:200,1,75,4|0,0:3|0:0,0:0:0:0:
405,290,36700,6,8,P|350:268|282:254,2,100
59,370,37161,5,8,0:0:0:0:
152,332,37315,1,8,0:0:0:0:
251,342,37469,1,8,0:0:0:0:
92,218,37623,6,0,P|146:245|186:257,1,75,2|2,0:3|0:3,0:0:0:0:
300,177,37853,2,0,P|265:190|232:208,1,75,2|2,0:3|0:3,0:0:0:0:
474,47,38316,6,0,P|420:74|380:86,1,75,2|2,0:3|0:3,0:0:0:0:
266,6,38546,2,0,P|300:19|333:37,1,75,2|2,0:3|0:3,0:0:0:0:
38,150,39007,5,2,0:2:0:0:
34,127,39122,1,2,0:2:0:0:
30,105,39237,1,2,0:2:0:0:
25,83,39353,1,2,0:2:0:0:
0,231,39469,6,0,P|54:258|94:270,1,75,2|2,0:3|0:3,0:0:0:0:
208,190,39699,2,0,P|174:203|141:221,1,75,2|2,0:3|0:3,0:0:0:0:
486,272,40161,6,0,P|432:299|392:311,1,75,2|2,0:3|0:3,0:0:0:0:
278,231,40391,2,0,P|312:244|345:262,1,75,2|2,0:3|0:3,0:0:0:0:
407,384,40623,2,0,P|374:365|339:352,1,75,2|2,0:3|0:3,0:0:0:0:
160,284,40853,5,8,0:0:0:0:
177,211,40968,1,8,0:0:0:0:
229,159,41083,1,8,0:0:0:0:
301,141,41199,1,8,0:0:0:0:
389,200,41315,6,0,P|383:290|384:361,1,150,4|0,0:0|0:0,0:0:0:0:
313,378,41661,1,4,0:3:0:0:
118,291,41776,1,0,0:0:0:0:
118,291,42007,2,0,P|115:253|116:216,1,75,4|0,0:3|0:0,0:0:0:0:
203,140,42238,6,0,P|195:298|196:369,1,225,2|0,0:3|0:0,0:0:0:0:
38,328,42700,2,0,P|41:244|35:175,1,150,2|0,0:3|0:0,0:0:0:0:
0,8,43161,6,0,P|103:9|147:71,1,150,4|0,0:0|0:0,0:0:0:0:
211,64,43507,1,4,0:3:0:0:
133,228,43623,1,0,0:0:0:0:
133,228,43853,2,0,P|225:218|304:218,1,150,4|0,0:3|0:0,0:0:0:0:
401,303,44200,1,8,0:3:0:0:
401,303,44315,2,0,P|347:289|305:275,1,75
318,140,44546,6,0,P|353:129|390:120,1,75,8|0,0:0|0:0,0:0:0:0:
241,298,44776,2,0,P|204:306|168:317,1,75,8|0,0:0|0:0,0:0:0:0:
379,214,45007,6,0,P|480:227|511:275,1,150,4|0,0:0|0:0,0:0:0:0:
510,343,45353,1,4,0:3:0:0:
321,362,45469,1,0,0:0:0:0:
321,362,45700,2,0,P|284:370|248:381,1,75,4|0,0:3|0:0,0:0:0:0:
285,224,45930,1,2,0:3:0:0:
276,172,46045,1,2,0:3:0:0:
266,120,46160,1,2,0:3:0:0:
256,69,46276,1,2,0:3:0:0:
245,17,46391,1,2,0:3:0:0:
187,208,46623,2,0,P|174:277|167:327,1,75,2|0,0:3|0:0,0:0:0:0:
145,114,46853,6,0,P|50:122|40:213,1,150,4|0,0:0|0:0,0:0:0:0:
48,241,47200,1,4,0:3:0:0:
276,239,47315,1,0,0:0:0:0:
276,239,47546,2,0,B|372:241|328:195|416:199,1,150,4|0,0:3|0:0,0:0:0:0:
488,240,47892,1,2,0:3:0:0:
312,365,48007,2,0,P|248:360|211:363,1,75
383,313,48238,6,0,P|451:332|481:338,1,75,8|0,0:0|0:0,0:0:0:0:
191,258,48469,2,0,P|154:266|118:277,1,75,8|0,0:0|0:0,0:0:0:0:
459,134,48700,6,0,P|402:63|332:81,1,150,4|0,0:0|0:0,0:0:0:0:
314,142,49046,1,4,0:3:0:0:
139,58,49161,1,0,0:0:0:0:
139,58,49392,2,0,P|193:41|219:30,1,75,4|0,0:3|0:0,0:0:0:0:
240,173,49623,2,0,P|155:159|10:170,1,225,2|0,0:3|0:0,0:0:0:0:
23,83,50084,6,0,P|25:14|23:-13,1,75,2|0,0:3|0:0,0:0:0:0:
139,243,50315,1,4,0:3:0:0:
139,243,50546,6,0,P|45:293|-19:263,1,150,4|0,0:2|0:0,0:0:0:0:
323,207,50892,2,0,P|216:204|175:145,1,150,4|0,0:2|0:0,0:0:0:0:
500,267,51238,2,0,P|409:211|402:140,1,150,4|0,0:2|0:0,0:0:0:0:
493,60,51584,1,4,0:3:0:0:
493,60,51700,2,0,P|474:114|445:131,1,75,4|0,0:3|0:0,0:0:0:0:
306,89,51930,6,0,L|418:101,1,75,8|0,0:0|0:0,0:0:0:0:
314,335,52161,2,0,P|341:281|376:278,1,75,8|0,0:0|0:0,0:0:0:0:
134,73,52392,6,0,P|170:162|293:189,1,225,6|4,0:0|0:3,0:0:0:0:
380,96,52853,2,0,P|325:50|313:30,1,75,10|0,0:0|0:0,0:0:0:0:
231,365,53084,6,0,P|294:307|369:270,1,150,2|0,0:0|0:0,0:0:0:0:
420,230,53430,1,4,0:3:0:0:
420,230,53546,2,0,L|528:266,1,75,2|0,0:0|0:0,0:0:0:0:
151,366,53776,1,8,0:0:0:0:
480,155,54007,6,0,L|408:131,1,75,10|0,0:0|0:0,0:0:0:0:
32,229,54238,5,4,0:3:0:0:
32,229,54353,2,0,L|182:281,1,150,8|4,0:0|0:3,0:0:0:0:
410,51,54700,2,0,P|327:19|261:62,1,150,8|4,0:0|0:3,0:0:0:0:
102,333,55046,2,0,P|185:365|251:322,1,150,8|4,0:0|0:3,0:0:0:0:
133,139,55392,2,8,P|64:114|0:146,2,150
379,245,56084,6,0,P|447:269|512:237,1,150,4|0,0:0|0:0,0:0:0:0:
305,183,56430,1,4,0:3:0:0:
305,183,56546,2,0,L|292:285,1,75,8|0,0:0|0:0,0:0:0:0:
226,43,56776,6,0,B|188:124|254:162|205:276,1,225,4|0,0:0|0:0,0:0:0:0:
134,340,57238,2,0,L|50:347,1,75,4|0,0:3|0:0,0:0:0:0:
6,241,57469,2,0,P|75:191|142:241,1,150,8|0,0:0|0:0,0:0:0:0:
378,358,57930,6,0,P|309:379|257:331,1,150,4|0,0:0|0:0,0:0:0:0:
467,287,58276,1,4,0:3:0:0:
467,287,58392,2,0,P|471:347|476:370,1,75,8|0,0:0|0:0,0:0:0:0:
236,240,58623,6,0,P|280:146|401:145,1,225,4|0,0:0|0:0,0:0:0:0:
453,199,59084,2,0,P|407:235|376:259,1,75,8|0,0:3|0:0,0:0:0:0:
401,52,59315,6,0,P|430:75|460:98,1,75,8|0,0:0|0:0,0:0:0:0:
494,266,59546,2,0,P|448:302|417:326,1,75,8|0,0:0|0:0,0:0:0:0:
129,353,59776,6,0,P|69:337|36:333,1,75,4|0,0:2|0:0,0:0:0:0:
53,252,60007,2,0,P|113:268|146:272,1,75,4|0,0:3|0:0,0:0:0:0:
393,245,60238,6,0,P|453:229|486:225,1,75,4|0,0:2|0:0,0:0:0:0:
469,144,60469,2,0,P|409:160|376:164,1,75,4|0,0:3|0:0,0:0:0:0:
138,160,60700,6,0,P|78:144|45:140,1,75,4|0,0:2|0:0,0:0:0:0:
62,59,60931,2,0,P|122:75|155:79,1,75,4|0,0:3|0:0,0:0:0:0:
314,11,61161,6,8,P|374:27|407:31,1,75,4|8,0:2|0:3,0:3:0:0:
253,247,61392,2,8,P|197:266|164:280,1,75,8|8,0:3|0:3,0:3:0:0:
329,121,61623,5,2,0:3:0:0:
394,154,61738,1,2,0:3:0:0:
432,218,61853,1,2,0:3:0:0:
428,292,61969,1,2,0:3:0:0:
386,352,62084,1,2,0:3:0:0:
317,380,62199,1,2,0:3:0:0:
244,366,62315,1,2,0:3:0:0:
191,315,62430,1,2,0:3:0:0:
163,245,62546,6,0,P|100:251|47:263,1,75,2|2,0:3|0:3,0:0:0:0:
349,139,62776,2,0,P|412:133|465:121,1,75,2|2,0:3|0:3,0:0:0:0:
146,333,63007,6,0,P|83:339|30:351,1,75,2|2,0:3|0:3,0:0:0:0:
366,51,63238,2,0,P|429:45|482:33,1,75,2|2,0:3|0:3,0:0:0:0:
256,192,63469,5,2,0:0:0:0:
256,192,64161,1,2,0:0:0:0:
256,192,64853,1,2,0:0:0:0:
42,78,65315,6,0,B|137:61|104:138|218:116,1,179.999994506836,4|0,0:0|0:0,0:0:0:0:
304,66,65661,1,8,0:3:0:0:
304,66,65776,2,0,P|241:43|211:28,1,89.9999972534181,4|0,0:3|0:0,0:0:0:0:
43,325,66007,2,0,P|149:289|319:277,1,269.999991760254,4|0,0:0|0:0,0:0:0:0:
448,189,66469,1,8,0:3:0:0:
448,189,66700,2,0,P|410:205|364:220,1,89.9999972534181,8|0,0:0|0:0,0:0:0:0:
345,346,66930,2,0,P|387:359|429:377,1,89.9999972534181,8|0,0:0|0:0,0:0:0:0:
512,123,67161,6,0,P|460:49|365:71,1,179.999994506836,4|0,0:0|0:0,0:0:0:0:
308,148,67507,1,8,0:3:0:0:
177,21,67623,2,0,P|237:23|277:18,1,89.9999972534181,4|0,0:3|0:0,0:0:0:0:
186,255,67853,2,0,B|107:276|97:198|16:218,1,179.999994506836,4|0,0:0|0:0,0:0:0:0:
0,126,68200,1,8,0:3:0:0:
227,96,68315,2,0,P|229:156|224:196,1,89.9999972534181,4|0,0:3|0:0,0:0:0:0:
73,91,68546,2,0,P|69:46|71:1,1,89.9999972534181,8|0,0:0|0:0,0:0:0:0:
358,0,68776,1,4,0:3:0:0:
357,1,69007,6,0,B|341:98|396:87|380:175,1,179.999994506836,4|0,0:0|0:0,0:0:0:0:
436,368,69353,1,8,0:3:0:0:
436,368,69469,2,0,P|457:289|484:246,1,89.9999972534181,4|0,0:3|0:0,0:0:0:0:
247,102,69700,1,4,0:0:0:0:
247,102,70161,2,0,P|194:74|165:49,1,89.9999972534181,2|0,0:0|0:0,0:0:0:0:
169,247,70392,2,0,P|219:215|255:202,1,89.9999972534181,14|0,0:0|0:0,0:0:0:0:
82,106,70623,2,0,P|84:165|77:203,1,89.9999972534181,2|0,0:0|0:0,0:0:0:0:
357,265,70853,5,4,0:0:0:0:
103,361,71084,6,0,P|90:319|60:286,1,89.9999972534181,2|0,0:0|0:0,0:0:0:0:
408,22,71315,2,0,P|421:64|451:97,1,89.9999972534181,2|0,0:0|0:0,0:0:0:0:
255,383,71546,2,0,B|224:296|296:296|256:209,1,179.999994506836,6|0,0:0|0:0,0:0:0:0:
256,12,71892,1,8,0:3:0:0:
256,12,72007,2,0,P|272:76|256:120,1,89.9999972534181,4|0,0:3|0:0,0:0:0:0:
168,220,72238,2,8,P|152:156|168:112,1,89.9999972534181,8|8,0:3|0:3,0:3:0:0:
480,336,72469,5,8,0:0:0:0:
32,48,72700,6,0,B|5:170|109:142|73:282,1,240,4|0,0:0|0:0,0:0:0:0:
120,376,73046,1,8,0:3:0:0:
120,376,73161,2,0,P|24:352|-20:356,1,120,4|0,0:0|0:0,0:0:0:0:
284,16,73392,2,0,P|412:44|456:276,1,360,4|0,0:0|0:0,0:0:0:0:
401,339,73853,2,0,P|466:374|515:359,1,89.9999972534181,8|0,0:3|0:0,0:0:0:0:
321,249,74084,2,0,P|276:254|140:316,1,179.999994506836,8|0,0:0|0:0,0:0:0:0:
68,274,74430,1,8,0:0:0:0:
8,384,74546,6,0,P|81:375|112:334,1,89.9999972534181,4|0,0:0|0:0,0:0:0:0:
222,158,74776,2,0,P|158:73|73:97,1,179.999994506836,8|0,0:3|0:0,0:0:0:0:
9,161,75123,1,4,0:3:0:0:
306,229,75238,2,0,P|308:184|316:132,1,89.9999972534181,4|0,0:3|0:0,0:0:0:0:
66,330,75469,5,4,0:0:0:0:
66,330,75700,2,0,P|182:305|217:308,1,89.9999972534181,2|0,0:0|0:0,0:0:0:0:
499,263,75930,5,12,0:0:0:0:
499,263,76161,2,0,P|389:216|362:194,1,89.9999972534181,10|0,0:0|0:0,0:0:0:0:
42,121,76392,6,0,B|169:88|124:145|249:107,1,209.999993591309,6|0,0:0|0:0,0:0:0:0:
350,80,76738,1,8,0:3:0:0:
228,281,76853,2,0,P|183:280|122:247,1,104.999996795654,4|0,0:3|0:0,0:0:0:0:
296,5,77084,2,0,P|392:-6|486:178,1,314.999990386963,4|0,0:0|0:0,0:0:0:0:
442,273,77546,6,0,P|468:325|491:384,1,89.9999972534181,8|0,0:3|0:0,0:0:0:0:
360,129,77776,2,0,P|284:96|260:74,1,89.9999972534181,8|0,0:0|0:0,0:0:0:0:
49,293,78007,2,0,P|178:239|252:230,1,179.999994506836,8|4,0:0|0:0,0:0:0:0:
83,104,78353,1,8,0:3:0:0:
83,104,78469,2,0,P|-2:74|-25:50,1,89.9999972534181,4|0,0:3|0:0,0:0:0:0:
322,22,78700,5,4,0:2:0:0:
190,362,78930,5,4,0:2:0:0:
437,176,79161,5,4,0:2:0:0:
74,207,79391,5,4,0:2:0:0:
256,180,79623,5,2,0:3:0:0:
264,183,79738,1,2,0:3:0:0:
268,192,79853,1,2,0:3:0:0:
264,200,79968,1,2,0:3:0:0:
166,276,80084,6,0,P|182:148|182:76,1,179.999994506836,4|0,0:0|0:0,0:0:0:0:
266,0,80430,1,8,0:3:0:0:
266,0,80546,2,0,P|282:80|290:96,1,89.9999972534181
353,314,80776,1,2,0:3:0:0:
439,289,80891,1,2,0:3:0:0:
491,216,81006,1,2,0:3:0:0:
499,125,81122,1,2,0:3:0:0:
496,34,81238,2,0,P|413:46|381:46,1,89.9999972534181,8|0,0:3|0:0,0:0:0:0:
119,227,81469,2,0,P|163:217|207:214,1,89.9999972534181,8|0,0:0|0:0,0:0:0:0:
413,127,81700,2,0,P|368:123|324:113,1,89.9999972534181,8|0,0:0|0:0,0:0:0:0:
8,70,81930,6,0,P|114:75|142:178,1,179.999994506836,4|0,0:0|0:0,0:0:0:0:
136,313,82276,1,8,0:3:0:0:
136,313,82392,2,0,P|58:286|5:278,1,89.9999972534181
203,49,82623,1,2,0:3:0:0:
291,33,82738,1,2,0:3:0:0:
376,59,82853,1,2,0:3:0:0:
439,122,82969,1,2,0:3:0:0:
465,207,83084,6,0,P|409:227|363:251,1,89.9999972534181,8|0,0:3|0:0,0:0:0:0:
130,200,83315,2,0,P|194:169|243:136,1,89.9999972534181,4|0,0:2|0:0,0:0:0:0:
366,356,83546,2,0,P|327:333|286:315,1,89.9999972534181,4|0,0:2|0:0,0:0:0:0:
53,58,83776,6,0,P|165:21|267:54,1,179.999994506836,4|0,0:0|0:0,0:0:0:0:
512,332,84123,1,8,0:3:0:0:
512,332,84238,2,0,P|446:313|409:294,1,89.9999972534181
25,262,84469,1,2,0:3:0:0:
58,180,84584,1,2,0:3:0:0:
130,126,84699,1,2,0:3:0:0:
218,117,84815,1,2,0:3:0:0:
298,152,84930,6,0,P|383:123|406:108,1,89.9999972534181,10|0,0:0|0:0,0:0:0:0:
256,242,85161,2,0,P|215:223|171:213,1,89.9999972534181,10|0,0:0|0:0,0:0:0:0:
424,257,85392,5,2,0:0:0:0:
424,257,85507,1,0,0:0:0:0:
424,257,85623,2,0,P|485:270|522:269,1,89.9999972534181,4|0,0:0|0:0,0:0:0:0:
262,326,85853,6,0,P|201:348|157:376,1,89.9999972534181,2|0,0:0|0:0,0:0:0:0:
369,119,86084,2,0,P|418:161|464:185,1,89.9999972534181,2|0,0:0|0:0,0:0:0:0:
136,130,86315,1,6,0:0:0:0:
136,130,86430,1,0,0:0:0:0:
136,130,86546,2,0,P|148:66|146:14,1,89.9999972534181
29,0,86776,5,2,0:3:0:0:
12,88,86891,1,2,0:3:0:0:
2,177,87006,1,2,0:3:0:0:
0,267,87122,1,2,0:3:0:0:
4,357,87238,2,0,P|78:354|124:347,1,89.9999972534181,8|0,0:3|0:0,0:0:0:0:
349,149,87469,6,0,P|467:156|491:252,1,179.999994506836,4|0,0:0|0:0,0:0:0:0:
456,313,87815,1,8,0:3:0:0:
456,313,87930,2,0,P|411:308|366:308,1,89.9999972534181,8|0,0:0|0:0,0:0:0:0:
187,264,88161,5,2,0:3:0:0:
164,177,88276,1,2,0:3:0:0:
198,95,88391,1,2,0:3:0:0:
272,48,88507,1,2,0:3:0:0:
360,54,88623,2,0,P|403:59|447:70,1,89.9999972534181,10|0,0:0|0:0,0:0:0:0:
85,165,88853,5,4,0:3:0:0:
85,165,89084,2,0,P|74:68|62:17,1,89.9999972534181,2|0,0:0|0:0,0:0:0:0:
427,144,89315,2,0,P|394:287|393:378,1,179.999994506836,6|0,0:0|0:0,0:0:0:0:
281,384,89661,1,8,0:3:0:0:
281,384,89776,2,0,P|222:357|180:350,1,89.9999972534181,8|0,0:0|0:0,0:0:0:0:
111,235,90007,5,2,0:3:0:0:
88,148,90122,1,2,0:3:0:0:
122,66,90237,1,2,0:3:0:0:
196,19,90353,1,2,0:3:0:0:
284,25,90469,2,0,P|327:30|371:41,1,89.9999972534181,10|0,0:0|0:0,0:0:0:0:
9,136,90699,5,4,0:3:0:0:
9,136,90930,2,0,P|-2:39|-14:-12,1,89.9999972534181,2|0,0:0|0:0,0:0:0:0:
351,115,91161,2,0,P|318:258|317:349,1,179.999994506836,4|0,0:0|0:0,0:0:0:0:
235,356,91507,1,8,0:3:0:0:
235,356,91623,2,0,P|224:259|212:208,1,89.9999972534181
88,194,91853,2,0,B|86:280|138:283|140:363,1,179.999994506836,4|0,0:0|0:0,0:0:0:0:
212,106,92200,1,8,0:3:0:0:
212,106,92315,2,0,P|129:44|53:84,1,179.999994506836,4|0,0:2|0:0,0:0:0:0:
0,165,92661,1,2,0:3:0:0:
0,165,92777,2,0,P|11:262|23:313,1,89.9999972534181,2|0,0:3|0:3,0:0:0:0:
262,361,93007,6,0,P|213:344|168:332,1,89.9999972534181,4|0,0:2|0:0,0:0:0:0:
98,165,93238,2,0,P|147:182|192:194,1,89.9999972534181,4|0,0:3|0:0,0:0:0:0:
414,219,93469,2,0,P|371:204|328:191,1,89.9999972534181,4|0,0:2|0:0,0:0:0:0:
250,23,93700,2,0,P|292:37|335:50,1,89.9999972534181,4|0,0:3|0:0,0:0:0:0:
126,268,93930,6,0,P|69:278|35:288,1,89.9999972534181,4|0,0:2|0:0,0:0:0:0:
386,116,94161,2,0,P|443:106|477:96,1,89.9999972534181,4|0,0:2|0:0,0:0:0:0:
82,75,94392,6,8,P|12:44|-19:30,1,89.9999972534181
430,309,94623,2,8,P|500:340|531:354,1,89.9999972534181
256,192,94853,5,4,0:0:0:0:
48,136,98546,6,0,P|133:163|196:181,1,112.500004291535,4|0,0:0|0:0,0:0:0:0:
144,258,98892,1,2,0:3:0:0:
144,258,99007,2,0,P|93:281|69:298,1,56.2500021457673
223,225,99238,1,4,0:0:0:0:
223,225,99469,2,0,B|323:246|282:186|394:207,1,168.750006437302,0|0,0:0|0:3,0:0:0:0:
474,219,99930,1,4,0:0:0:0:
474,219,100161,2,0,P|453:279|451:296,1,56.2500021457673,2|2,0:3|0:3,0:0:0:0:
326,92,100392,6,0,P|384:101|405:104,1,56.2500021457673,2|2,0:3|0:3,0:0:0:0:
452,124,100623,2,0,P|510:133|531:136,1,56.2500021457673,4|2,0:0|0:3,0:0:0:0:
506,342,100853,6,0,P|448:351|427:354,1,56.2500021457673,2|2,0:3|0:3,0:0:0:0:
380,374,101084,2,0,P|322:383|301:386,1,56.2500021457673,2|2,0:3|0:3,0:0:0:0:
291,177,101315,6,0,L|361:188,1,56.2500021457673,4|0,0:0|0:0,0:0:0:0:
498,265,101546,2,0,L|411:284,1,56.2500021457673,2|2,0:3|0:3,0:0:0:0:
368,114,101776,6,0,L|438:125,1,56.2500021457673,4|0,0:0|0:0,0:0:0:0:
416,352,102007,2,0,L|329:371,1,56.2500021457673,2|2,0:3|0:3,0:0:0:0:
119,327,102238,6,0,P|195:329|251:322,1,112.500004291535,4|0,0:0|0:0,0:0:0:0:
56,280,102584,1,2,0:3:0:0:
56,280,102700,2,0,L|-11:279,1,56.2500021457673
132,252,102930,1,4,0:0:0:0:
132,252,103161,2,0,B|111:152|171:193|150:81,1,168.750006437302
101,0,103622,1,4,0:0:0:0:
101,0,103853,2,0,L|179:16,1,56.2500021457673,2|2,0:3|0:3,0:0:0:0:
198,178,104084,6,0,L|145:205,1,56.2500021457673,2|2,0:3|0:3,0:0:0:0:
63,227,104315,2,0,L|-1:201,1,56.2500021457673,4|2,0:0|0:3,0:0:0:0:
21,60,104546,6,0,L|74:33,1,56.2500021457673,2|2,0:3|0:3,0:0:0:0:
156,11,104777,2,0,L|220:37,1,56.2500021457673,2|2,0:3|0:3,0:0:0:0:
198,178,105007,6,0,P|151:162|111:150,1,56.2500021457673,4|0,0:0|0:3,0:0:0:0:
313,92,105238,2,0,P|303:118|295:145,1,56.2500021457673,2|2,0:3|0:3,0:0:0:0:
183,262,105469,6,0,P|136:246|96:234,1,56.2500021457673,4|0,0:0|0:0,0:0:0:0:
378,141,105700,2,0,P|368:167|360:194,1,56.2500021457673,2|2,0:3|0:3,0:0:0:0:
381,377,105930,6,0,P|304:350|229:346,1,150,4|0,0:0|0:0,0:0:0:0:
149,355,106276,1,2,0:3:0:0:
149,355,106392,2,0,L|66:344,1,75
59,176,106623,2,0,P|54:97|53:82,1,75,4|2,0:0|0:3,0:0:0:0:
188,170,106853,6,0,P|154:243|7:234,1,225,0|2,0:0|0:3,0:0:0:0:
31,27,107315,5,4,0:0:0:0:
31,27,107546,2,0,P|93:31|117:34,1,75,2|2,0:3|0:3,0:0:0:0:
260,75,107776,2,0,P|198:79|174:82,1,75,2|2,0:3|0:3,0:0:0:0:
402,44,108007,2,0,P|341:31|317:28,1,75,4|0,0:0|0:0,0:0:0:0:
512,110,108238,2,0,P|450:114|426:117,1,75,2|2,0:3|0:3,0:0:0:0:
262,0,108469,1,0,0:0:0:0:
118,266,108700,6,0,P|179:346|317:314,1,225,4|0,0:0|0:0,0:0:0:0:
467,332,109161,2,0,P|406:252|268:284,1,225,4|0,0:0|0:0,0:0:0:0:
114,104,109623,6,0,P|175:184|313:152,1,225,4|2,0:0|0:3,0:0:0:0:
403,113,110084,5,0,0:0:0:0:
403,113,110315,2,0,P|303:125|262:261,1,225,4|2,0:0|0:3,0:0:0:0:
250,358,110776,5,0,0:0:0:0:
250,358,111007,2,0,P|289:266|192:162,1,225,4|2,0:0|0:3,0:0:0:0:
113,104,111469,5,0,0:0:0:0:
113,104,111700,2,0,P|104:166|121:207,1,75,12|0,0:0|0:0,0:0:0:0:
35,80,111930,2,0,P|38:42|27:7,1,75,12|0,0:0|0:0,0:0:0:0:
13,232,112161,2,0,P|72:243|106:258,1,75,4|0,0:3|0:0,0:0:0:0:
322,117,112392,1,12,0:0:0:0:
322,117,112507,2,0,P|231:159|157:163,1,150,8|0,0:0|0:0,0:0:0:0:
158,265,112853,5,8,0:0:0:0:
179,264,112968,1,4,0:3:0:0:
201,260,113083,1,4,0:3:0:0:
223,253,113199,1,4,0:3:0:0:
31,340,113315,6,0,P|144:345|226:370,1,179.999994506836,4|0,0:0|0:0,0:0:0:0:
302,355,113661,1,8,0:3:0:0:
302,355,113776,2,0,L|407:342,1,89.9999972534181
506,222,114007,5,2,0:3:0:0:
498,133,114122,1,2,0:3:0:0:
440,67,114237,1,2,0:3:0:0:
352,52,114353,1,2,0:3:0:0:
275,93,114469,2,0,P|272:138|265:194,1,89.9999972534181,4|0,0:3|0:0,0:0:0:0:
421,273,114700,2,0,P|424:228|431:172,1,89.9999972534181,4|0,0:2|0:0,0:0:0:0:
184,206,114930,2,0,P|181:251|174:307,1,89.9999972534181,4|0,0:2|0:0,0:0:0:0:
273,14,115161,6,0,P|138:15|96:115,1,179.999994506836,4|0,0:0|0:0,0:0:0:0:
30,152,115507,1,8,0:3:0:0:
30,152,115623,2,0,P|27:197|20:253,1,89.9999972534181,8|0,0:3|0:0,0:0:0:0:
268,356,115853,2,0,P|262:311|259:266,1,89.9999972534181,4|0,0:3|0:0,0:0:0:0:
482,90,116084,5,4,0:2:0:0:
482,90,116200,2,0,P|382:57|313:119,1,179.999994506836,8|0,0:3|0:0,0:0:0:0:
174,108,116546,2,0,P|267:145|302:126,1,89.9999972534181,4|0,0:2|0:0,0:0:0:0:
481,181,116776,2,0,P|437:190|404:220,1,89.9999972534181,4|0,0:2|0:0,0:0:0:0:
67,317,117007,6,0,B|218:324|157:226|312:231,1,269.999991760254,4|0,0:0|0:0,0:0:0:0:
504,296,117469,5,8,0:3:0:0:
470,379,117584,1,8,0:3:0:0:
370,378,117700,2,4,P|331:371|269:342,1,89.9999972534181,4|4,0:3|0:3,0:3:0:0:
169,34,117930,2,0,P|259:43|364:73,1,179.999994506836,8|8,0:3|0:3,0:0:0:0:
45,232,118392,1,8,0:3:0:0:
45,232,118853,5,4,0:0:0:0:
145,348,118969,1,8,0:3:0:0:
436,129,119200,1,8,0:3:0:0:
72,136,119430,1,8,0:3:0:0:
370,344,119661,1,8,0:3:0:0:
251,0,119892,1,8,0:3:0:0:
343,57,120007,6,8,P|282:93|251:113,1,89.9999972534181,8|8,0:3|0:3,0:3:0:0:
89,181,120238,2,8,P|130:199|168:224,1,89.9999972534181,8|8,0:3|0:3,0:3:0:0:
329,334,120469,2,8,P|328:289|328:244,1,89.9999972534181,8|8,0:3|0:3,0:3:0:0:
224,104,120700,6,0,B|269:135|269:135|369:150,1,104.999996795654,4|0,0:0|0:0,0:0:0:0:
168,224,121046,2,0,B|199:178|199:178|214:78,1,104.999996795654
288,280,121392,2,0,B|242:248|242:248|142:233,1,104.999996795654,4|0,0:0|0:0,0:0:0:0:
344,160,121738,2,0,B|312:205|312:205|297:305,1,104.999996795654
206,82,122084,6,0,B|256:92|256:92|332:71,1,104.999996795654,4|0,0:0|0:0,0:0:0:0:
146,240,122430,2,0,B|156:190|156:190|135:114,1,104.999996795654
304,300,122776,2,0,B|254:290|254:290|178:311,1,104.999996795654,4|0,0:0|0:0,0:0:0:0:
364,142,123122,2,0,B|354:192|354:192|375:268,1,104.999996795654
154,40,123469,6,0,L|93:109,1,89.9999972534181,4|0,0:0|0:0,0:0:0:0:
104,293,123700,2,0,L|173:354,1,89.9999972534181
357,343,123930,2,0,L|418:274,1,89.9999972534181,4|0,0:0|0:0,0:0:0:0:
407,90,124161,2,0,L|338:29,1,89.9999972534181
164,167,124392,6,0,B|216:148|216:148|286:75,1,104.999996795654,4|0,0:0|0:0,0:0:0:0:
230,283,124738,2,0,B|211:230|211:230|138:161,1,104.999996795654
346,216,125084,2,0,B|293:236|293:236|224:309,1,104.999996795654,4|0,0:0|0:0,0:0:0:0:
279,101,125430,2,0,B|299:153|299:153|372:224,1,104.999996795654
138,169,125776,6,0,B|174:134|174:134|200:59,1,104.999996795654,4|0,0:0|0:0,0:0:0:0:
232,309,126122,2,0,B|196:272|196:272|122:245,1,104.999996795654
371,214,126469,2,0,B|335:249|335:249|308:323,1,104.999996795654,4|0,0:0|0:0,0:0:0:0:
277,75,126815,2,0,B|312:111|312:111|386:138,1,104.999996795654
72,186,127161,6,0,L|94:276,1,89.9999972534181,4|0,0:0|0:0,0:0:0:0:
250,373,127392,2,0,L|341:351,1,89.9999972534181
437,195,127622,2,0,L|414:104,1,89.9999972534181,4|0,0:0|0:0,0:0:0:0:
260,11,127853,2,0,L|169:30,1,89.9999972534181
298,255,128084,6,0,B|376:259|376:259|449:290,1,150,4|0,0:0|0:0,0:0:0:0:
193,234,128430,2,0,B|189:312|189:312|158:385,1,150,2|0,0:3|0:0,0:0:0:0:
214,129,128776,2,0,B|136:125|136:125|63:94,1,150,4|0,0:0|0:0,0:0:0:0:
319,150,129122,2,0,B|323:72|323:72|354:-1,1,150,2|0,0:3|0:0,0:0:0:0:
285,293,129469,6,0,B|348:316|348:316|362:333|362:333|456:367,1,150,4|0,0:0|0:0,0:0:0:0:
155,221,129815,2,0,B|132:284|132:284|115:298|115:298|81:392,1,150,2|0,0:3|0:0,0:0:0:0:
227,91,130161,2,0,B|164:68|164:68|150:51|150:51|56:17,1,150,4|0,0:0|0:0,0:0:0:0:
357,163,130507,2,0,B|380:100|380:100|397:86|397:86|431:-8,1,150,2|0,0:3|0:0,0:0:0:0:
286,334,130853,6,0,L|411:379,1,112.500004291535,4|2,0:0|0:3,0:0:0:0:
114,222,131084,2,0,L|69:347,1,112.500004291535,2|2,0:3|0:3,0:0:0:0:
226,50,131315,2,0,L|101:5,1,112.500004291535,4|2,0:0|0:3,0:0:0:0:
398,162,131546,2,0,L|443:37,1,112.500004291535,2|2,0:3|0:3,0:0:0:0:
221,368,131776,6,0,B|130:365|130:365|93:254,1,179.999994506836,4|0,0:0|0:0,0:0:0:0:
432,227,132123,2,0,B|429:318|429:318|318:355,1,179.999994506836,2|0,0:3|0:0,0:0:0:0:
291,16,132469,2,0,B|382:19|382:19|419:130,1,179.999994506836,4|0,0:0|0:0,0:0:0:0:
80,157,132816,2,0,B|83:66|83:66|194:29,1,179.999994506836,2|0,0:3|0:0,0:0:0:0:
221,368,133161,6,0,B|130:365|130:365|93:254,1,179.999994506836,4|0,0:0|0:0,0:0:0:0:
432,227,133508,2,0,B|429:318|429:318|318:355,1,179.999994506836,2|0,0:3|0:0,0:0:0:0:
220,103,133853,6,0,B|304:88|304:88|349:139,1,123.750001180172,4|2,0:0|0:3,0:0:0:0:
196,267,134084,2,0,B|142:201|142:201|163:136,1,123.750001180172,2|2,0:3|0:3,0:0:0:0:
351,205,134315,2,0,B|321:285|321:285|254:299,1,123.750001180172,2|2,0:3|0:3,0:0:0:0:
236,8,134546,6,0,L|380:44,1,123.750001180172,4|2,0:0|0:3,0:0:0:0:
72,212,134776,2,0,L|108:68,1,123.750001180172,2|2,0:3|0:3,0:0:0:0:
276,376,135007,2,0,L|132:340,1,123.750001180172,4|2,0:0|0:3,0:0:0:0:
440,172,135238,2,0,L|404:316,1,123.750001180172,2|2,0:3|0:3,0:0:0:0:
256,192,135469,5,4,0:0:0:0:
256,192,135584,12,0,142853,2:0:0:0:
