osu file format v14

[General]
AudioFilename: audio1.mp3
AudioLeadIn: 0
PreviewTime: 52227
Countdown: 0
SampleSet: Normal
StackLeniency: 0.7
Mode: 1
LetterboxInBreaks: 0
WidescreenStoryboard: 1

[Editor]
DistanceSpacing: 1.6
BeatDivisor: 4
GridSize: 32
TimelineZoom: 1.450002

[Metadata]
Title:It Has To Be This Way (Platinum Mix)
TitleUnicode:It Has To Be This Way (Platinum Mix)
Artist:Jamie Christopherson
ArtistUnicode:Jamie Christopherson
Creator:dtn
Version:Kantan
Source:METAL GEAR RISING: REVENGEANCE
Tags:Dtnt0r metal Jimmy Gnecco logan mader mgr Konami MGR Rock English video game vg platinumgames mgs solid spin off soundtrack jack the ripper senator steven armstrong raiden
BeatmapID:3598261
BeatmapSetID:1753596

[Difficulty]
HPDrainRate:8
CircleSize:5
OverallDifficulty:3
ApproachRate:5
SliderMultiplier:1.4
SliderTickRate:1

[Events]
//Background and Video events
0,0,"visual01.jpg",0,90
//Break Periods
//Storyboard Layer 0 (Background)
//Storyboard Layer 1 (Fail)
//Storyboard Layer 2 (Pass)
//Storyboard Layer 3 (Foreground)
//Storyboard Layer 4 (Overlay)
//Storyboard Sound Samples

[TimingPoints]
-163,292.682926829268,4,1,0,60,1,0
22044,-100,4,1,0,60,0,0
22118,-100,4,1,0,64,0,0
22191,-100,4,1,0,65,0,0
22264,-100,4,1,0,66,0,0
22337,-100,4,1,0,68,0,0
22410,-100,4,1,0,69,0,0
22483,-100,4,1,0,70,0,0
22557,-100,4,1,0,71,0,0
22630,-100,4,1,0,72,0,0
22703,-100,4,1,0,73,0,0
22776,-100,4,1,0,75,0,0
22849,-100,4,1,0,76,0,0
22922,-100,4,1,0,77,0,0
22996,-100,4,1,0,78,0,0
23069,-100,4,1,0,79,0,0
23142,-100,4,1,0,80,0,0
23215,-100,4,1,0,82,0,0
23288,-100,4,1,0,83,0,0
23361,-100,4,1,0,84,0,0
23435,-100,4,1,0,85,0,0
23508,-100,4,1,0,86,0,0
23581,-100,4,1,0,87,0,0
23654,-100,4,1,0,88,0,0
23727,-100,4,1,0,90,0,0
23800,-100,4,1,0,91,0,0
23874,-100,4,1,0,92,0,0
23947,-100,4,1,0,93,0,0
24020,-100,4,1,0,94,0,0
24093,-100,4,1,0,95,0,0
24166,-100,4,1,0,97,0,0
24240,-100,4,1,0,98,0,0
24313,-100,4,1,0,99,0,0
24386,-100,4,1,0,90,0,0
52519,-100,4,1,0,90,0,1
80617,-100,4,1,0,90,0,0
122763,-100,4,1,0,90,0,1
150861,-100,4,1,0,90,0,0

[HitObjects]
256,192,422,5,8,0:0:0:0:
256,192,1007,1,4,0:0:0:0:
256,192,3349,1,4,0:0:0:0:
256,192,5105,1,8,0:0:0:0:
256,192,5690,1,4,0:0:0:0:
256,192,6276,1,8,0:0:0:0:
256,192,7446,1,0,0:0:0:0:
256,192,8032,1,12,0:0:0:0:
256,192,9202,1,0,0:0:0:0:
256,192,9788,1,8,0:0:0:0:
256,192,10373,1,4,0:0:0:0:
256,192,12129,1,8,0:0:0:0:
256,192,12715,1,4,0:0:0:0:
256,192,14471,1,8,0:0:0:0:
256,192,15056,1,4,0:0:0:0:
256,192,16227,1,8,0:0:0:0:
256,192,17397,1,12,0:0:0:0:
256,192,17983,1,8,0:0:0:0:
256,192,18568,1,0,0:0:0:0:
256,192,19739,1,0,0:0:0:0:
256,192,20324,1,0,0:0:0:0:
256,192,20910,1,0,0:0:0:0:
256,192,22080,1,8,0:0:0:0:
256,192,22373,1,8,0:0:0:0:
256,192,22666,1,0,0:0:0:0:
256,192,23251,1,8,0:0:0:0:
256,192,23836,1,0,0:0:0:0:
256,192,24422,1,0,0:0:0:0:
254,184,25593,1,8,0:0:0:0:
254,184,26178,1,8,0:0:0:0:
254,184,26471,1,8,0:0:0:0:
254,184,26763,1,0,0:0:0:0:
254,184,27934,1,8,0:0:0:0:
254,184,28519,1,8,0:0:0:0:
254,184,28812,1,8,0:0:0:0:
254,184,29105,1,0,0:0:0:0:
254,184,30276,1,8,0:0:0:0:
254,184,30861,1,8,0:0:0:0:
254,184,31154,1,8,0:0:0:0:
254,184,31446,1,0,0:0:0:0:
254,184,32324,1,0,0:0:0:0:
254,184,32910,1,0,0:0:0:0:
254,184,33202,1,8,0:0:0:0:
254,184,33788,1,0,0:0:0:0:
254,184,34666,1,8,0:0:0:0:
254,184,35251,1,0,0:0:0:0:
254,184,35544,1,8,0:0:0:0:
254,184,36129,1,0,0:0:0:0:
256,192,37007,1,8,0:0:0:0:
256,192,37593,1,0,0:0:0:0:
256,192,37885,1,8,0:0:0:0:
256,192,38471,1,0,0:0:0:0:
256,192,39056,1,0,0:0:0:0:
256,192,39349,1,8,0:0:0:0:
256,192,39641,1,0,0:0:0:0:
256,192,40227,1,8,0:0:0:0:
256,192,40812,1,0,0:0:0:0:
256,192,41690,1,8,0:0:0:0:
256,192,42276,1,0,0:0:0:0:
256,192,42568,1,12,0:0:0:0:
256,192,43154,1,12,0:0:0:0:
254,184,44032,1,8,0:0:0:0:
254,184,44617,1,0,0:0:0:0:
254,184,44910,1,8,0:0:0:0:
254,184,45495,1,12,0:0:0:0:
256,192,46373,1,8,0:0:0:0:
256,192,46958,1,0,0:0:0:0:
256,192,47251,1,8,0:0:0:0:
256,192,47836,1,12,0:0:0:0:
256,192,48715,1,8,0:0:0:0:
256,192,49300,1,0,0:0:0:0:
256,192,49593,1,8,0:0:0:0:
256,192,50178,1,12,0:0:0:0:
256,192,51056,1,12,0:0:0:0:
256,192,51934,1,12,0:0:0:0:
256,192,52519,1,4,0:0:0:0:
256,192,53105,1,8,0:0:0:0:
256,192,53690,1,0,0:0:0:0:
256,192,53983,1,0,0:0:0:0:
256,192,54276,1,8,0:0:0:0:
256,192,54861,1,0,0:0:0:0:
256,192,55446,1,8,0:0:0:0:
256,192,56032,1,0,0:0:0:0:
256,192,56324,1,8,0:0:0:0:
256,192,56617,1,0,0:0:0:0:
256,192,57202,1,0,0:0:0:0:
256,192,57788,1,8,0:0:0:0:
256,192,58373,1,0,0:0:0:0:
256,192,58666,1,0,0:0:0:0:
256,192,58958,1,8,0:0:0:0:
256,192,59544,1,8,0:0:0:0:
256,192,60129,1,0,0:0:0:0:
256,192,60715,1,8,0:0:0:0:
256,192,61885,1,0,0:0:0:0:
256,192,62471,1,8,0:0:0:0:
256,192,63056,1,0,0:0:0:0:
256,192,63349,1,0,0:0:0:0:
256,192,63641,1,8,0:0:0:0:
256,192,64227,1,0,0:0:0:0:
256,192,64812,1,8,0:0:0:0:
256,192,65397,1,0,0:0:0:0:
256,192,65690,1,8,0:0:0:0:
256,192,65983,1,8,0:0:0:0:
256,192,66568,1,0,0:0:0:0:
256,192,67154,1,0,0:0:0:0:
256,192,67739,1,8,0:0:0:0:
256,192,68032,1,8,0:0:0:0:
256,192,68324,1,0,0:0:0:0:
256,192,68910,1,8,0:0:0:0:
256,192,69495,1,0,0:0:0:0:
256,192,70080,1,0,0:0:0:0:
256,192,71251,1,4,0:0:0:0:
256,192,71836,1,8,0:0:0:0:
256,192,72422,1,0,0:0:0:0:
256,192,72715,1,0,0:0:0:0:
256,192,73007,1,8,0:0:0:0:
256,192,73593,1,0,0:0:0:0:
256,192,74178,1,0,0:0:0:0:
256,192,74471,1,8,0:0:0:0:
256,192,74763,1,8,0:0:0:0:
256,192,75349,1,8,0:0:0:0:
256,192,75641,1,8,0:0:0:0:
256,192,75934,1,0,0:0:0:0:
256,192,76519,1,0,0:0:0:0:
256,192,77105,1,8,0:0:0:0:
256,192,78276,1,4,0:0:0:0:
256,192,79154,1,12,0:0:0:0:
256,192,80032,1,8,0:0:0:0:
256,192,80324,1,0,0:0:0:0:
256,192,80617,1,12,0:0:0:0:
256,192,81495,1,12,0:0:0:0:
256,192,82958,1,4,0:0:0:0:
256,192,83836,1,4,0:0:0:0:
256,192,84715,1,8,0:0:0:0:
256,192,85300,1,8,0:0:0:0:
256,192,86471,1,0,0:0:0:0:
256,192,87056,1,0,0:0:0:0:
256,192,87641,1,8,0:0:0:0:
256,192,88812,1,0,0:0:0:0:
256,192,89397,1,8,0:0:0:0:
256,192,89983,1,0,0:0:0:0:
256,192,90861,1,8,0:0:0:0:
256,192,91154,1,0,0:0:0:0:
256,192,91739,1,8,0:0:0:0:
256,192,92324,1,4,0:0:0:0:
256,192,93202,1,12,0:0:0:0:
256,192,93495,1,0,0:0:0:0:
256,192,94080,1,0,0:0:0:0:
256,192,94666,1,4,0:0:0:0:
256,192,95836,1,0,0:0:0:0:
256,192,96422,1,8,0:0:0:0:
256,192,97007,1,8,0:0:0:0:
256,192,98178,1,0,0:0:0:0:
256,192,98763,1,8,0:0:0:0:
256,192,99056,1,8,0:0:0:0:
256,192,99349,1,8,0:0:0:0:
256,192,100227,1,0,0:0:0:0:
256,192,100519,1,8,0:0:0:0:
256,192,101105,1,0,0:0:0:0:
256,192,101690,1,12,0:0:0:0:
256,192,102568,1,12,0:0:0:0:
256,192,102861,1,0,0:0:0:0:
256,192,103446,1,8,0:0:0:0:
256,192,104032,1,4,0:0:0:0:
256,192,105202,1,0,0:0:0:0:
256,192,105788,1,8,0:0:0:0:
256,192,106373,1,0,0:0:0:0:
256,192,107544,1,0,0:0:0:0:
256,192,107836,1,8,0:0:0:0:
256,192,108129,1,8,0:0:0:0:
256,192,108715,1,0,0:0:0:0:
256,192,109885,1,0,0:0:0:0:
256,192,110471,1,8,0:0:0:0:
256,192,111056,1,0,0:0:0:0:
256,192,112227,1,0,0:0:0:0:
256,192,112519,1,0,0:0:0:0:
256,192,112812,1,8,0:0:0:0:
256,192,113397,1,4,0:0:0:0:
256,192,114568,1,0,0:0:0:0:
256,192,115154,1,8,0:0:0:0:
256,192,115739,1,0,0:0:0:0:
256,192,116910,1,0,0:0:0:0:
256,192,117202,1,8,0:0:0:0:
256,192,117495,1,8,0:0:0:0:
256,192,118080,1,0,0:0:0:0:
256,192,119251,1,0,0:0:0:0:
256,192,119544,1,0,0:0:0:0:
256,192,119836,1,8,0:0:0:0:
256,192,120129,1,8,0:0:0:0:
256,192,120422,1,0,0:0:0:0:
256,192,121007,1,8,0:0:0:0:
256,192,121593,1,8,0:0:0:0:
256,192,122178,1,8,0:0:0:0:
256,192,122763,1,4,0:0:0:0:
256,192,123349,1,8,0:0:0:0:
256,192,123641,1,0,0:0:0:0:
256,192,123934,1,0,0:0:0:0:
256,192,124519,1,8,0:0:0:0:
256,192,125105,1,0,0:0:0:0:
256,192,126276,1,0,0:0:0:0:
256,192,126861,1,0,0:0:0:0:
256,192,127446,1,8,0:0:0:0:
256,192,127739,1,8,0:0:0:0:
256,192,128032,1,8,0:0:0:0:
256,192,128617,1,0,0:0:0:0:
256,192,129202,1,8,0:0:0:0:
256,192,129788,1,0,0:0:0:0:
256,192,130958,1,0,0:0:0:0:
256,192,131251,1,0,0:0:0:0:
256,192,131836,1,12,0:0:0:0:
256,192,132129,1,4,0:0:0:0:
256,192,132715,1,8,0:0:0:0:
256,192,133007,1,0,0:0:0:0:
256,192,133300,1,0,0:0:0:0:
256,192,133885,1,8,0:0:0:0:
256,192,135056,1,0,0:0:0:0:
256,192,135641,1,8,0:0:0:0:
256,192,136227,1,0,0:0:0:0:
256,192,136812,1,0,0:0:0:0:
256,192,137397,1,8,0:0:0:0:
256,192,137690,1,0,0:0:0:0:
256,192,137983,1,0,0:0:0:0:
256,192,138568,1,8,0:0:0:0:
256,192,139739,1,8,0:0:0:0:
256,192,140324,1,0,0:0:0:0:
256,192,140617,1,8,0:0:0:0:
256,192,141202,1,12,0:0:0:0:
256,192,141495,1,4,0:0:0:0:
256,192,142080,1,8,0:0:0:0:
256,192,142373,1,0,0:0:0:0:
256,192,142666,1,0,0:0:0:0:
256,192,143251,1,8,0:0:0:0:
256,192,144422,1,0,0:0:0:0:
256,192,145007,1,8,0:0:0:0:
256,192,145300,1,8,0:0:0:0:
256,192,145593,1,0,0:0:0:0:
256,192,146178,1,0,0:0:0:0:
256,192,146763,1,8,0:0:0:0:
256,192,147056,1,0,0:0:0:0:
256,192,147349,1,0,0:0:0:0:
256,192,147934,1,8,0:0:0:0:
256,192,149105,1,8,0:0:0:0:
256,192,149690,1,0,0:0:0:0:
256,192,149983,1,0,0:0:0:0:
256,192,150276,1,8,0:0:0:0:
256,192,150861,1,0,0:0:0:0:
256,192,151739,1,0,0:0:0:0:
256,192,152324,1,0,0:0:0:0:
256,192,152617,1,8,0:0:0:0:
256,192,153202,1,0,0:0:0:0:
256,192,154080,1,0,0:0:0:0:
256,192,154666,1,8,0:0:0:0:
256,192,154958,1,8,0:0:0:0:
256,192,155544,1,0,0:0:0:0:
256,192,156715,1,8,0:0:0:0:
256,192,157300,1,8,0:0:0:0:
256,192,157593,1,8,0:0:0:0:
256,192,157885,1,0,0:0:0:0:
256,192,159056,1,8,0:0:0:0:
256,192,159641,1,0,0:0:0:0:
256,192,159934,1,0,0:0:0:0:
256,192,160227,1,12,0:0:0:0:
256,192,161105,1,12,0:0:0:0:
256,192,161983,1,0,0:0:0:0:
256,192,162568,1,12,0:0:0:0:
256,192,163446,1,12,0:0:0:0:
256,192,163885,1,12,0:0:0:0:
