osu file format v14

[General]
AudioFilename: audio1.mp3
AudioLeadIn: 0
PreviewTime: 52227
Countdown: 0
SampleSet: Normal
StackLeniency: 0.7
Mode: 1
LetterboxInBreaks: 0
WidescreenStoryboard: 1

[Editor]
DistanceSpacing: 1.6
BeatDivisor: 4
GridSize: 32
TimelineZoom: 1.350002

[Metadata]
Title:It Has To Be This Way (Platinum Mix)
TitleUnicode:It Has To Be This Way (Platinum Mix)
Artist:Jamie Christopherson
ArtistUnicode:Jamie Christopherson
Creator:dtn
Version:Futsuu
Source:METAL GEAR RISING: REVENGEANCE
Tags:Dtnt0r metal Jimmy Gnecco logan mader mgr Konami MGR Rock English video game vg platinumgames mgs solid spin off soundtrack jack the ripper senator steven armstrong raiden
BeatmapID:3598260
BeatmapSetID:1753596

[Difficulty]
HPDrainRate:7
CircleSize:5
OverallDifficulty:4
ApproachRate:5
SliderMultiplier:1.4
SliderTickRate:1

[Events]
//Background and Video events
0,0,"visual01.jpg",0,90
//Break Periods
//Storyboard Layer 0 (Background)
//Storyboard Layer 1 (Fail)
//Storyboard Layer 2 (Pass)
//Storyboard Layer 3 (Foreground)
//Storyboard Layer 4 (Overlay)
//Storyboard Sound Samples

[TimingPoints]
-163,292.682926829268,4,1,0,60,1,0
22044,-100,4,1,0,60,0,0
22118,-100,4,1,0,64,0,0
22191,-100,4,1,0,65,0,0
22264,-100,4,1,0,66,0,0
22337,-100,4,1,0,68,0,0
22410,-100,4,1,0,69,0,0
22483,-100,4,1,0,70,0,0
22557,-100,4,1,0,71,0,0
22630,-100,4,1,0,72,0,0
22703,-100,4,1,0,73,0,0
22776,-100,4,1,0,75,0,0
22849,-100,4,1,0,76,0,0
22922,-100,4,1,0,77,0,0
22996,-100,4,1,0,78,0,0
23069,-100,4,1,0,79,0,0
23142,-100,4,1,0,80,0,0
23215,-100,4,1,0,82,0,0
23288,-100,4,1,0,83,0,0
23361,-100,4,1,0,84,0,0
23435,-100,4,1,0,85,0,0
23508,-100,4,1,0,86,0,0
23581,-100,4,1,0,87,0,0
23654,-100,4,1,0,88,0,0
23727,-100,4,1,0,90,0,0
23800,-100,4,1,0,91,0,0
23874,-100,4,1,0,92,0,0
23947,-100,4,1,0,93,0,0
24020,-100,4,1,0,94,0,0
24093,-100,4,1,0,95,0,0
24166,-100,4,1,0,97,0,0
24240,-100,4,1,0,98,0,0
24313,-100,4,1,0,99,0,0
24386,-100,4,1,0,90,0,0
52519,-100,4,1,0,90,0,1
80617,-100,4,1,0,90,0,0
122763,-100,4,1,0,90,0,1
150861,-100,4,1,0,90,0,0

[HitObjects]
256,192,422,5,8,0:0:0:0:
256,192,715,1,8,0:0:0:0:
256,192,1007,1,4,0:0:0:0:
256,192,1300,1,8,0:0:0:0:
256,192,1593,1,0,0:0:0:0:
256,192,1885,1,8,0:0:0:0:
256,192,2763,1,8,0:0:0:0:
256,192,3056,1,8,0:0:0:0:
256,192,3349,1,4,0:0:0:0:
256,192,3641,1,0,0:0:0:0:
256,192,3934,1,8,0:0:0:0:
256,192,4227,1,8,0:0:0:0:
256,192,5105,1,8,0:0:0:0:
256,192,5397,1,8,0:0:0:0:
256,192,5544,1,8,0:0:0:0:
256,192,5690,1,4,0:0:0:0:
256,192,5983,1,8,0:0:0:0:
256,192,6276,1,8,0:0:0:0:
256,192,6568,1,0,0:0:0:0:
256,192,6715,1,0,0:0:0:0:
256,192,6861,1,8,0:0:0:0:
256,192,7446,1,0,0:0:0:0:
256,192,7739,1,0,0:0:0:0:
256,192,8032,1,12,0:0:0:0:
256,192,8324,1,0,0:0:0:0:
256,192,8617,1,8,0:0:0:0:
256,192,9202,1,0,0:0:0:0:
256,192,9495,1,0,0:0:0:0:
256,192,9788,1,8,0:0:0:0:
256,192,9934,1,0,0:0:0:0:
256,192,10080,1,8,0:0:0:0:
256,192,10227,1,8,0:0:0:0:
256,192,10373,1,4,0:0:0:0:
256,192,10666,1,8,0:0:0:0:
256,192,10958,1,0,0:0:0:0:
256,192,11251,1,8,0:0:0:0:
256,192,12129,1,8,0:0:0:0:
256,192,12422,1,8,0:0:0:0:
256,192,12715,1,4,0:0:0:0:
256,192,13007,1,0,0:0:0:0:
256,192,13300,1,8,0:0:0:0:
256,192,13593,1,8,0:0:0:0:
256,192,14471,1,8,0:0:0:0:
256,192,14763,1,8,0:0:0:0:
256,192,14910,1,8,0:0:0:0:
256,192,15056,1,4,0:0:0:0:
256,192,15349,1,0,0:0:0:0:
256,192,15641,1,8,0:0:0:0:
256,192,15934,1,0,0:0:0:0:
256,192,16080,1,0,0:0:0:0:
256,192,16227,1,8,0:0:0:0:
256,192,16812,1,0,0:0:0:0:
256,192,17105,1,0,0:0:0:0:
256,192,17397,1,12,0:0:0:0:
256,192,17690,1,0,0:0:0:0:
256,192,17983,1,8,0:0:0:0:
256,192,18276,1,8,0:0:0:0:
256,192,18568,1,0,0:0:0:0:
256,192,19154,1,8,0:0:0:0:
256,192,19300,1,0,0:0:0:0:
256,192,19446,1,8,0:0:0:0:
256,192,19593,1,8,0:0:0:0:
256,192,19739,1,0,0:0:0:0:
256,192,20032,1,0,0:0:0:0:
256,192,20324,1,0,0:0:0:0:
256,192,20617,1,0,0:0:0:0:
256,192,20910,1,0,0:0:0:0:
256,192,21202,1,0,0:0:0:0:
256,192,21495,1,0,0:0:0:0:
256,192,22080,1,8,0:0:0:0:
256,192,22373,1,8,0:0:0:0:
256,192,22666,1,0,0:0:0:0:
256,192,22812,1,8,0:0:0:0:
256,192,22958,1,0,0:0:0:0:
256,192,23105,1,0,0:0:0:0:
256,192,23251,1,8,0:0:0:0:
256,192,23544,1,0,0:0:0:0:
256,192,23690,1,0,0:0:0:0:
256,192,23836,1,0,0:0:0:0:
256,192,24422,1,0,0:0:0:0:
254,184,24715,1,8,0:0:0:0:
254,184,24861,1,0,0:0:0:0:
254,184,25154,1,8,0:0:0:0:
254,184,25300,1,0,0:0:0:0:
254,184,25593,1,8,0:0:0:0:
254,184,25739,1,0,0:0:0:0:
254,184,26178,1,12,0:0:0:0:
254,184,26763,1,0,0:0:0:0:
254,184,27056,1,8,0:0:0:0:
254,184,27202,1,0,0:0:0:0:
254,184,27495,1,8,0:0:0:0:
254,184,27641,1,0,0:0:0:0:
254,184,27934,1,8,0:0:0:0:
254,184,28080,1,0,0:0:0:0:
254,184,28519,1,12,0:0:0:0:
254,184,29105,1,0,0:0:0:0:
254,184,29397,1,8,0:0:0:0:
254,184,29544,1,0,0:0:0:0:
254,184,29836,1,8,0:0:0:0:
254,184,29983,1,0,0:0:0:0:
254,184,30276,1,8,0:0:0:0:
254,184,30422,1,0,0:0:0:0:
254,184,30861,1,12,0:0:0:0:
254,184,31446,1,0,0:0:0:0:
254,184,31739,1,8,0:0:0:0:
254,184,31885,1,0,0:0:0:0:
254,184,32032,1,0,0:0:0:0:
254,184,32324,1,8,0:0:0:0:
254,184,32617,1,0,0:0:0:0:
254,184,32763,1,0,0:0:0:0:
254,184,33202,1,12,0:0:0:0:
254,184,33788,1,0,0:0:0:0:
254,184,33934,1,0,0:0:0:0:
254,184,34519,1,0,0:0:0:0:
254,184,34666,1,8,0:0:0:0:
254,184,35105,1,8,0:0:0:0:
254,184,35251,1,0,0:0:0:0:
254,184,35397,1,0,0:0:0:0:
254,184,35544,1,8,0:0:0:0:
256,176,35983,1,8,0:0:0:0:
254,184,36129,1,0,0:0:0:0:
254,184,36276,1,0,0:0:0:0:
256,192,36861,1,0,0:0:0:0:
256,192,37007,1,8,0:0:0:0:
256,192,37446,1,8,0:0:0:0:
256,192,37593,1,0,0:0:0:0:
256,192,37739,1,0,0:0:0:0:
256,192,37885,1,8,0:0:0:0:
256,192,38324,1,8,0:0:0:0:
256,192,38471,1,0,0:0:0:0:
256,192,38617,1,0,0:0:0:0:
256,192,39202,1,0,0:0:0:0:
256,192,39349,1,8,0:0:0:0:
256,192,39788,1,8,0:0:0:0:
256,192,39934,1,0,0:0:0:0:
256,192,40080,1,0,0:0:0:0:
256,192,40227,1,8,0:0:0:0:
256,192,40666,1,8,0:0:0:0:
256,192,40812,1,0,0:0:0:0:
256,192,40958,1,0,0:0:0:0:
256,192,41544,1,0,0:0:0:0:
256,192,41690,1,8,0:0:0:0:
256,192,42129,1,8,0:0:0:0:
256,192,42276,1,0,0:0:0:0:
256,192,42568,1,8,0:0:0:0:
256,192,42861,1,0,0:0:0:0:
256,192,43154,1,8,0:0:0:0:
254,184,43300,1,0,0:0:0:0:
254,184,43885,1,0,0:0:0:0:
254,184,44032,1,8,0:0:0:0:
254,184,44471,1,8,0:0:0:0:
254,184,44617,1,0,0:0:0:0:
254,184,44763,1,0,0:0:0:0:
254,184,44910,1,8,0:0:0:0:
256,176,45349,1,8,0:0:0:0:
254,184,45495,1,0,0:0:0:0:
254,184,45934,1,8,0:0:0:0:
256,192,46081,1,0,0:0:0:0:
256,192,46227,1,0,0:0:0:0:
256,192,46373,1,8,0:0:0:0:
256,192,46812,1,0,0:0:0:0:
256,192,46959,1,0,0:0:0:0:
256,192,47105,1,0,0:0:0:0:
256,192,47251,1,8,0:0:0:0:
256,192,47690,1,8,0:0:0:0:
256,192,47837,1,0,0:0:0:0:
256,192,47983,1,0,0:0:0:0:
256,192,48568,1,0,0:0:0:0:
256,192,48715,1,8,0:0:0:0:
256,192,49154,5,8,0:0:0:0:
256,192,49300,1,0,0:0:0:0:
256,192,49446,1,0,0:0:0:0:
256,192,49593,1,8,0:0:0:0:
256,192,50178,5,12,0:0:0:0:
256,192,50617,1,12,0:0:0:0:
256,192,51056,1,12,0:0:0:0:
256,192,51495,1,12,0:0:0:0:
256,192,51934,1,12,0:0:0:0:
256,192,52227,1,12,0:0:0:0:
256,192,52519,1,4,0:0:0:0:
256,192,53105,1,0,0:0:0:0:
256,192,53251,1,0,0:0:0:0:
256,192,53397,1,8,0:0:0:0:
256,192,53690,1,0,0:0:0:0:
256,192,53983,1,8,0:0:0:0:
256,192,54129,1,0,0:0:0:0:
256,192,54422,1,0,0:0:0:0:
256,192,54568,1,8,0:0:0:0:
256,192,54861,1,0,0:0:0:0:
256,192,55446,1,0,0:0:0:0:
256,192,55739,1,8,0:0:0:0:
256,192,56032,1,0,0:0:0:0:
256,192,56178,1,0,0:0:0:0:
256,192,56324,1,8,0:0:0:0:
256,192,56617,1,0,0:0:0:0:
256,192,56910,1,8,0:0:0:0:
256,192,57056,1,8,0:0:0:0:
256,192,57202,1,0,0:0:0:0:
256,192,57788,1,0,0:0:0:0:
256,192,57934,1,0,0:0:0:0:
256,192,58080,1,8,0:0:0:0:
256,192,58373,1,0,0:0:0:0:
256,192,58666,1,8,0:0:0:0:
256,192,58812,1,0,0:0:0:0:
256,192,59105,1,0,0:0:0:0:
256,192,59251,1,8,0:0:0:0:
256,192,59544,1,0,0:0:0:0:
256,192,59836,1,8,0:0:0:0:
256,192,60422,1,8,0:0:0:0:
256,192,60715,1,0,0:0:0:0:
256,192,60861,1,0,0:0:0:0:
256,192,61007,1,8,0:0:0:0:
256,192,61300,1,0,0:0:0:0:
256,192,61593,1,8,0:0:0:0:
256,192,61885,1,0,0:0:0:0:
256,192,62471,1,0,0:0:0:0:
256,192,62617,1,0,0:0:0:0:
256,192,62763,1,8,0:0:0:0:
256,192,63056,1,0,0:0:0:0:
256,192,63349,1,8,0:0:0:0:
256,192,63495,1,0,0:0:0:0:
256,192,63788,1,8,0:0:0:0:
256,192,63934,1,8,0:0:0:0:
256,192,64227,1,0,0:0:0:0:
256,192,64812,1,0,0:0:0:0:
256,192,64958,1,0,0:0:0:0:
256,192,65105,1,8,0:0:0:0:
256,192,65397,1,0,0:0:0:0:
256,192,65544,1,0,0:0:0:0:
256,192,65690,1,8,0:0:0:0:
256,192,66276,1,8,0:0:0:0:
256,192,66568,1,0,0:0:0:0:
256,192,66861,1,8,0:0:0:0:
256,192,67154,1,0,0:0:0:0:
256,192,67300,1,0,0:0:0:0:
256,192,67446,1,8,0:0:0:0:
256,192,67739,1,0,0:0:0:0:
256,192,68032,1,8,0:0:0:0:
256,192,68178,1,0,0:0:0:0:
256,192,68471,1,8,0:0:0:0:
256,192,68617,1,0,0:0:0:0:
256,192,68763,1,0,0:0:0:0:
256,192,68910,1,8,0:0:0:0:
256,192,69495,1,0,0:0:0:0:
256,192,69788,1,8,0:0:0:0:
256,192,70080,1,0,0:0:0:0:
256,192,70227,1,0,0:0:0:0:
256,192,70373,1,8,0:0:0:0:
256,192,70958,1,8,0:0:0:0:
256,192,71251,1,4,0:0:0:0:
256,192,71836,1,0,0:0:0:0:
256,192,71983,1,0,0:0:0:0:
256,192,72129,1,8,0:0:0:0:
256,192,72422,1,0,0:0:0:0:
256,192,72715,1,8,0:0:0:0:
256,192,72861,1,0,0:0:0:0:
256,192,73154,1,8,0:0:0:0:
256,192,73300,1,8,0:0:0:0:
256,192,73593,1,0,0:0:0:0:
256,192,74178,1,0,0:0:0:0:
256,192,74471,1,8,0:0:0:0:
256,192,74763,1,8,0:0:0:0:
256,192,74910,1,0,0:0:0:0:
256,192,75056,1,8,0:0:0:0:
256,192,75641,1,8,0:0:0:0:
256,192,75934,1,0,0:0:0:0:
256,192,76519,1,0,0:0:0:0:
256,192,76666,1,0,0:0:0:0:
256,192,76812,1,8,0:0:0:0:
256,192,77105,1,0,0:0:0:0:
256,192,77397,1,8,0:0:0:0:
256,192,77544,1,0,0:0:0:0:
256,192,77836,1,0,0:0:0:0:
256,192,77983,1,8,0:0:0:0:
256,192,78276,1,4,0:0:0:0:
256,192,78715,1,12,0:0:0:0:
256,192,79154,1,12,0:0:0:0:
256,192,79739,1,0,0:0:0:0:
256,192,80032,1,8,0:0:0:0:
256,192,80324,1,0,0:0:0:0:
256,192,80471,1,0,0:0:0:0:
256,192,80617,1,12,0:0:0:0:
256,192,81056,1,12,0:0:0:0:
256,192,81495,1,12,0:0:0:0:
256,192,81934,1,12,0:0:0:0:
256,192,82373,1,8,0:0:0:0:
256,192,82958,1,4,0:0:0:0:
256,192,83397,1,4,0:0:0:0:
256,192,83836,1,4,0:0:0:0:
256,192,84276,1,4,0:0:0:0:
256,192,84715,1,8,0:0:0:0:
256,192,85300,1,8,0:0:0:0:
256,192,85593,1,8,0:0:0:0:
256,192,85885,1,0,0:0:0:0:
256,192,86032,1,0,0:0:0:0:
256,192,86178,1,8,0:0:0:0:
256,192,86471,1,0,0:0:0:0:
256,192,86617,1,0,0:0:0:0:
256,192,86763,1,8,0:0:0:0:
256,192,86910,1,0,0:0:0:0:
256,192,87202,1,0,0:0:0:0:
256,192,87349,1,8,0:0:0:0:
256,192,87641,1,0,0:0:0:0:
256,192,88227,1,0,0:0:0:0:
256,192,88519,1,8,0:0:0:0:
256,192,88812,1,0,0:0:0:0:
256,192,89105,1,8,0:0:0:0:
256,192,89251,1,0,0:0:0:0:
256,192,89397,1,8,0:0:0:0:
256,192,89544,1,8,0:0:0:0:
256,192,89690,1,0,0:0:0:0:
256,192,89983,1,0,0:0:0:0:
256,192,90568,1,0,0:0:0:0:
256,192,90715,1,0,0:0:0:0:
256,192,90861,1,8,0:0:0:0:
256,192,91154,1,0,0:0:0:0:
256,192,91446,1,8,0:0:0:0:
256,192,91593,1,0,0:0:0:0:
256,192,91739,1,8,0:0:0:0:
256,192,92032,1,8,0:0:0:0:
256,192,92324,1,4,0:0:0:0:
256,192,92763,1,4,0:0:0:0:
256,192,93202,1,12,0:0:0:0:
256,192,93495,1,0,0:0:0:0:
256,192,93788,1,8,0:0:0:0:
256,192,94080,1,0,0:0:0:0:
256,192,94227,1,0,0:0:0:0:
256,192,94373,1,0,0:0:0:0:
256,192,94666,1,4,0:0:0:0:
256,192,95251,1,0,0:0:0:0:
256,192,95397,1,0,0:0:0:0:
256,192,95544,1,8,0:0:0:0:
256,192,95836,1,0,0:0:0:0:
256,192,95983,1,0,0:0:0:0:
256,192,96129,1,8,0:0:0:0:
256,192,96276,1,0,0:0:0:0:
256,192,96568,1,0,0:0:0:0:
256,192,96715,1,8,0:0:0:0:
256,192,97007,1,8,0:0:0:0:
256,192,97593,1,0,0:0:0:0:
256,192,97885,1,8,0:0:0:0:
256,192,98178,1,0,0:0:0:0:
256,192,98324,1,8,0:0:0:0:
256,192,98471,1,8,0:0:0:0:
256,192,98763,1,8,0:0:0:0:
256,192,99056,1,0,0:0:0:0:
256,192,99349,1,8,0:0:0:0:
256,192,99788,1,8,0:0:0:0:
256,192,100227,1,8,0:0:0:0:
256,192,100519,1,8,0:0:0:0:
256,192,100812,1,0,0:0:0:0:
256,192,100958,1,8,0:0:0:0:
256,192,101105,1,0,0:0:0:0:
256,192,101690,1,12,0:0:0:0:
256,192,102129,1,12,0:0:0:0:
256,192,102568,1,12,0:0:0:0:
256,192,102861,1,0,0:0:0:0:
256,192,103154,1,8,0:0:0:0:
256,192,103300,1,0,0:0:0:0:
256,192,103446,1,8,0:0:0:0:
256,192,103739,1,8,0:0:0:0:
256,192,104032,1,4,0:0:0:0:
256,192,104617,1,8,0:0:0:0:
256,192,104910,1,0,0:0:0:0:
256,192,105202,1,0,0:0:0:0:
256,192,105349,1,0,0:0:0:0:
256,192,105495,1,8,0:0:0:0:
256,192,105641,1,0,0:0:0:0:
256,192,105788,1,8,0:0:0:0:
256,192,106373,1,0,0:0:0:0:
256,192,106666,1,0,0:0:0:0:
256,192,106812,1,0,0:0:0:0:
256,192,106958,1,8,0:0:0:0:
256,192,107251,1,0,0:0:0:0:
256,192,107544,1,0,0:0:0:0:
256,192,107690,1,0,0:0:0:0:
256,192,107836,1,8,0:0:0:0:
256,192,108129,1,8,0:0:0:0:
256,192,108715,1,0,0:0:0:0:
256,192,109007,1,0,0:0:0:0:
256,192,109154,1,0,0:0:0:0:
256,192,109300,1,8,0:0:0:0:
256,192,109593,1,0,0:0:0:0:
256,192,109885,1,0,0:0:0:0:
256,192,110032,1,0,0:0:0:0:
256,192,110178,1,8,0:0:0:0:
256,192,110471,1,8,0:0:0:0:
256,192,111056,1,0,0:0:0:0:
256,192,111349,1,0,0:0:0:0:
256,192,111495,1,0,0:0:0:0:
256,192,111641,1,8,0:0:0:0:
256,192,111934,1,0,0:0:0:0:
256,192,112227,1,8,0:0:0:0:
256,192,112373,1,8,0:0:0:0:
256,192,112519,1,8,0:0:0:0:
256,192,112812,1,8,0:0:0:0:
256,192,113397,1,4,0:0:0:0:
256,192,113690,1,0,0:0:0:0:
256,192,113836,1,0,0:0:0:0:
256,192,113983,1,8,0:0:0:0:
256,192,114276,1,0,0:0:0:0:
256,192,114568,1,0,0:0:0:0:
256,192,114715,1,0,0:0:0:0:
256,192,114861,1,8,0:0:0:0:
256,192,115154,1,8,0:0:0:0:
256,192,115739,1,0,0:0:0:0:
256,192,116032,1,0,0:0:0:0:
256,192,116178,1,0,0:0:0:0:
256,192,116324,1,8,0:0:0:0:
256,192,116617,1,0,0:0:0:0:
256,192,116910,1,0,0:0:0:0:
256,192,117056,1,0,0:0:0:0:
256,192,117202,1,8,0:0:0:0:
256,192,117495,1,8,0:0:0:0:
256,192,118080,1,0,0:0:0:0:
256,192,118373,1,0,0:0:0:0:
256,192,118519,1,0,0:0:0:0:
256,192,118666,1,8,0:0:0:0:
256,192,118958,1,0,0:0:0:0:
256,192,119251,1,0,0:0:0:0:
256,192,119397,1,0,0:0:0:0:
256,192,119544,1,8,0:0:0:0:
256,192,119690,1,0,0:0:0:0:
256,192,119836,1,8,0:0:0:0:
256,192,120422,1,0,0:0:0:0:
256,192,120715,1,0,0:0:0:0:
256,192,120861,1,0,0:0:0:0:
256,192,121007,1,8,0:0:0:0:
256,192,121300,1,0,0:0:0:0:
256,192,121593,1,8,0:0:0:0:
256,192,121739,1,8,0:0:0:0:
256,192,121885,1,8,0:0:0:0:
256,192,122178,1,8,0:0:0:0:
256,192,122471,1,0,0:0:0:0:
256,192,122617,1,8,0:0:0:0:
256,192,122763,1,4,0:0:0:0:
256,192,123349,1,8,0:0:0:0:
256,192,123641,1,0,0:0:0:0:
256,192,123934,1,0,0:0:0:0:
256,192,124080,1,0,0:0:0:0:
256,192,124227,1,8,0:0:0:0:
256,192,124373,1,0,0:0:0:0:
256,192,124666,1,0,0:0:0:0:
256,192,124812,1,8,0:0:0:0:
256,192,125105,1,0,0:0:0:0:
256,192,125397,1,8,0:0:0:0:
256,192,125544,1,0,0:0:0:0:
256,192,125836,1,0,0:0:0:0:
256,192,125983,1,8,0:0:0:0:
256,192,126276,1,0,0:0:0:0:
256,192,126422,1,0,0:0:0:0:
256,192,126568,1,8,0:0:0:0:
256,192,127154,1,0,0:0:0:0:
256,192,127300,1,8,0:0:0:0:
256,192,127446,1,0,0:0:0:0:
256,192,127739,1,0,0:0:0:0:
256,192,127885,1,0,0:0:0:0:
256,192,128032,1,8,0:0:0:0:
256,192,128324,1,0,0:0:0:0:
256,192,128617,1,0,0:0:0:0:
256,192,128763,1,0,0:0:0:0:
256,192,128910,1,8,0:0:0:0:
256,192,129056,1,0,0:0:0:0:
256,192,129349,1,0,0:0:0:0:
256,192,129495,1,8,0:0:0:0:
256,192,129788,1,0,0:0:0:0:
256,192,130373,1,8,0:0:0:0:
256,192,130666,1,0,0:0:0:0:
256,192,130958,1,0,0:0:0:0:
256,192,131105,1,0,0:0:0:0:
256,192,131251,1,8,0:0:0:0:
256,192,131836,1,12,0:0:0:0:
256,192,132129,1,4,0:0:0:0:
256,192,132715,1,0,0:0:0:0:
256,192,132861,1,0,0:0:0:0:
256,192,133007,1,8,0:0:0:0:
256,192,133300,1,0,0:0:0:0:
256,192,133593,1,8,0:0:0:0:
256,192,133739,1,0,0:0:0:0:
256,192,134032,1,8,0:0:0:0:
256,192,134178,1,8,0:0:0:0:
256,192,134471,1,0,0:0:0:0:
256,192,135056,1,0,0:0:0:0:
256,192,135349,1,8,0:0:0:0:
256,192,135641,1,0,0:0:0:0:
256,192,135788,1,0,0:0:0:0:
256,192,135934,1,8,0:0:0:0:
256,192,136519,1,8,0:0:0:0:
256,192,136666,1,8,0:0:0:0:
256,192,136812,1,0,0:0:0:0:
256,192,137105,1,8,0:0:0:0:
256,192,137397,1,0,0:0:0:0:
256,192,137544,1,0,0:0:0:0:
256,192,137690,1,8,0:0:0:0:
256,192,137983,1,0,0:0:0:0:
256,192,138276,1,8,0:0:0:0:
256,192,138422,1,0,0:0:0:0:
256,192,138715,1,0,0:0:0:0:
256,192,138861,1,8,0:0:0:0:
256,192,139154,1,0,0:0:0:0:
256,192,139739,1,0,0:0:0:0:
256,192,140032,1,8,0:0:0:0:
256,192,140324,1,0,0:0:0:0:
256,192,140471,1,0,0:0:0:0:
256,192,140617,1,8,0:0:0:0:
256,192,141202,1,12,0:0:0:0:
256,192,141495,1,4,0:0:0:0:
256,192,142080,1,0,0:0:0:0:
256,192,142227,1,0,0:0:0:0:
256,192,142373,1,8,0:0:0:0:
256,192,142666,1,0,0:0:0:0:
256,192,142958,1,8,0:0:0:0:
256,192,143105,1,0,0:0:0:0:
256,192,143397,1,8,0:0:0:0:
256,192,143544,1,8,0:0:0:0:
256,192,143836,1,0,0:0:0:0:
256,192,144422,1,0,0:0:0:0:
256,192,144715,1,8,0:0:0:0:
256,192,145007,1,0,0:0:0:0:
256,192,145154,1,0,0:0:0:0:
256,192,145300,1,8,0:0:0:0:
256,192,145446,1,0,0:0:0:0:
256,192,145885,1,8,0:0:0:0:
256,192,146032,1,8,0:0:0:0:
256,192,146178,1,0,0:0:0:0:
256,192,146471,1,8,0:0:0:0:
256,192,146763,1,0,0:0:0:0:
256,192,146910,1,0,0:0:0:0:
256,192,147056,1,8,0:0:0:0:
256,192,147349,1,0,0:0:0:0:
256,192,147641,1,8,0:0:0:0:
256,192,147788,1,0,0:0:0:0:
256,192,148080,1,0,0:0:0:0:
256,192,148227,1,8,0:0:0:0:
256,192,148519,1,0,0:0:0:0:
256,192,149105,1,0,0:0:0:0:
256,192,149397,1,8,0:0:0:0:
256,192,149690,1,0,0:0:0:0:
256,192,149836,1,0,0:0:0:0:
256,192,149983,1,0,0:0:0:0:
256,192,150276,1,8,0:0:0:0:
256,192,150422,1,8,0:0:0:0:
256,192,150568,1,8,0:0:0:0:
256,192,150861,1,0,0:0:0:0:
256,192,151446,1,8,0:0:0:0:
256,192,151739,1,0,0:0:0:0:
256,192,152032,1,0,0:0:0:0:
256,192,152178,1,0,0:0:0:0:
256,192,152324,1,8,0:0:0:0:
256,192,152617,1,8,0:0:0:0:
256,192,153202,1,0,0:0:0:0:
256,192,153495,1,0,0:0:0:0:
256,192,153641,1,0,0:0:0:0:
256,192,153788,1,8,0:0:0:0:
256,192,154080,1,0,0:0:0:0:
256,192,154373,1,0,0:0:0:0:
256,192,154519,1,0,0:0:0:0:
256,192,154666,1,8,0:0:0:0:
256,192,154958,1,8,0:0:0:0:
256,192,155544,1,0,0:0:0:0:
256,192,155836,1,8,0:0:0:0:
256,192,155983,1,0,0:0:0:0:
256,192,156276,1,8,0:0:0:0:
256,192,156422,1,0,0:0:0:0:
256,192,156715,1,8,0:0:0:0:
256,192,156861,1,0,0:0:0:0:
256,192,157300,1,8,0:0:0:0:
256,192,157593,1,8,0:0:0:0:
256,192,157885,1,0,0:0:0:0:
256,192,158178,1,8,0:0:0:0:
256,192,158324,1,0,0:0:0:0:
256,192,158617,1,8,0:0:0:0:
256,192,158763,1,0,0:0:0:0:
256,192,159056,1,8,0:0:0:0:
256,192,159202,1,0,0:0:0:0:
256,192,159641,1,8,0:0:0:0:
256,192,159934,1,8,0:0:0:0:
256,192,160227,1,12,0:0:0:0:
256,192,160666,1,12,0:0:0:0:
256,192,161105,1,12,0:0:0:0:
256,192,161544,1,12,0:0:0:0:
256,192,161983,1,8,0:0:0:0:
256,192,162276,1,0,0:0:0:0:
256,192,162568,1,12,0:0:0:0:
256,192,163007,1,12,0:0:0:0:
256,192,163446,1,12,0:0:0:0:
256,192,163885,1,12,0:0:0:0:
