osu file format v14

[General]
AudioFilename: Jamie Christopherson - A Stranger I Remain (Maniac Agenda Mix) [Metal Gear Rising- Revengeance Vocal Tracks].mp3
AudioLeadIn: 0
PreviewTime: 45392
Countdown: 1
SampleSet: Normal
StackLeniency: 0.7
Mode: 0
LetterboxInBreaks: 1
WidescreenStoryboard: 1

[Editor]
Bookmarks: 3211,9029,21211,45392,46847,57029,70120,81756,93392,105029,116665,134097
DistanceSpacing: 0.8
BeatDivisor: 4
GridSize: 16
TimelineZoom: 1

[Metadata]
Title:A Stranger I Remain (Maniac Agenda Mix)
TitleUnicode:A Stranger I Remain (Maniac Agenda Mix)
Artist:Jamie Christopherson
ArtistUnicode:Jamie Christopherson
Creator:Remco32
Version:Normal
Source:Metal Gear Rising: Revengeance
Tags:
BeatmapID:490992
BeatmapSetID:208522

[Difficulty]
HPDrainRate:6
CircleSize:3
OverallDifficulty:6
ApproachRate:5
SliderMultiplier:1.6
SliderTickRate:2

[Events]
//Background and Video events
0,0,"MGR.jpg",0,0
//Break Periods
2,38115,44169
2,70297,80533
2,102296,115442
//Storyboard Layer 0 (Background)
//Storyboard Layer 1 (Fail)
//Storyboard Layer 2 (Pass)
//Storyboard Layer 3 (Foreground)
//Storyboard Sound Samples

[TimingPoints]
3188,363.636363636364,4,1,0,80,1,0
46847,-100,4,1,0,80,0,1
58483,-100,4,1,0,80,0,0
116642,-100,4,1,0,80,0,1
134097,-100,4,1,0,80,0,0

[Colours]
Combo1 : 2,28,253
Combo2 : 3,199,106
Combo3 : 18,124,255
Combo4 : 236,0,6

[HitObjects]
192,80,21369,5,0,0:0:0:0:
256,80,21551,1,0,0:0:0:0:
320,80,21733,2,0,P|432:160|320:256,1,320
200,257,22824,2,0,P|88:177|200:81,2,320
325,283,24642,5,0,0:0:0:0:
240,192,25006,2,0,L|144:192,1,80
138,75,25551,1,0,0:0:0:0:
10,75,25915,2,0,P|42:171|170:219,2,240
197,116,27551,5,0,0:0:0:0:
320,144,27915,1,0,0:0:0:0:
367,105,28097,1,0,0:0:0:0:
367,41,28278,1,0,0:0:0:0:
240,48,28642,1,0,0:0:0:0:
112,48,29006,2,0,P|128:144|112:176,2,80
112,176,29733,2,0,P|80:272|160:320,1,160
352,192,30824,5,0,0:0:0:0:
288,192,31006,1,0,0:0:0:0:
160,192,31369,1,0,0:0:0:0:
256,112,31733,1,0,0:0:0:0:
320,112,31915,2,2,B|400:112|400:112|464:208|416:224,1,160
352,272,32642,5,2,0:0:0:0:
223,272,33006,1,2,0:0:0:0:
288,160,33369,2,2,B|336:80|336:80|208:64|224:96,1,160
178,165,34097,1,2,0:0:0:0:
87,255,34460,1,2,0:0:0:0:
208,296,34824,2,0,B|314:296|314:296|432:272|352:80,2,320,0|0|0,0:0|0:0|0:0,0:0:0:0:
80,80,37006,6,0,L|80:256,1,160
170,149,37733,1,0,0:0:0:0:
170,149,37915,1,0,0:0:0:0:
256,192,45369,12,4,46460,0:0:0:0:
64,192,46824,6,0,L|307:308,1,240,2|0,0:0|0:0,0:0:0:0:
432,176,47915,1,2,0:0:0:0:
432,112,48097,2,0,P|368:64|320:224,1,320,2|0,0:0|0:0,0:0:0:0:
128,208,49369,1,2,0:0:0:0:
128,144,49551,1,2,0:0:0:0:
320,176,50097,2,0,L|208:176,4,80,0|0|0|0|0,0:0|0:0|0:0|0:0|0:0,0:0:0:0:
256,64,51188,5,2,0:0:0:0:
256,192,51551,1,2,0:0:0:0:
144,128,51915,1,2,0:0:0:0:
272,128,52278,1,2,0:0:0:0:
384,48,52642,6,2,B|480:112|480:240|300:285,1,320,0|0,0:0|0:0,0:0:0:0:
194,282,53733,1,2,0:0:0:0:
129,282,53915,2,2,P|48:240|208:80,1,400
314,68,55188,1,2,0:0:0:0:
336,128,55369,2,0,B|336:224|336:224|256:288|192:224,1,240,2|0,0:0|0:0,0:0:0:0:
160,112,56278,5,2,0:0:0:0:
104,143,56460,1,2,0:0:0:0:
96,208,56642,1,2,0:0:0:0:
157,320,57006,6,0,L|256:320,2,80,0|0|0,0:0|0:0|0:0,0:0:0:0:
32,320,57733,2,0,B|48:240|48:240|96:208|144:208,1,160
256,192,58460,5,0,0:0:0:0:
256,64,58824,1,0,0:0:0:0:
368,128,59188,1,0,0:0:0:0:
240,128,59551,1,0,0:0:0:0:
112,128,59915,1,0,0:0:0:0:
192,224,60278,1,0,0:0:0:0:
64,224,60642,1,0,0:0:0:0:
128,336,61006,1,0,0:0:0:0:
256,336,61369,1,0,0:0:0:0:
384,336,61733,1,0,0:0:0:0:
384,208,62097,6,0,B|384:96|384:96|288:48|160:96,1,320
144,208,63188,2,0,L|320:208,1,160
432,208,63915,1,0,0:0:0:0:
385,89,64278,6,2,B|289:57|160:64|65:89,1,320
95,213,65369,1,0,0:0:0:0:
159,213,65551,2,2,B|261:212|261:212|320:256|304:304|256:320,2,240,0|0|0,0:0|0:0|0:0,0:0:0:0:
159,148,66824,1,0,0:0:0:0:
159,83,67006,2,2,L|401:83,3,240,0|0|0|0,0:0|0:0|0:0|0:0,0:0:0:0:
256,192,69006,12,4,70097,0:0:0:0:
344,158,81733,6,0,B|440:158|488:110|488:110|456:46|328:46,1,320
254,136,82824,1,0,0:0:0:0:
163,226,83188,2,0,B|67:226|19:274|19:274|51:338|179:338,1,320
225,337,84097,1,0,0:0:0:0:
288,337,84278,1,0,0:0:0:0:
384,256,84642,6,0,B|464:160|464:160|352:64|240:48|89:110|32:240,1,640
224,224,86642,6,0,P|192:272|160:288,4,80,0|0|0|0|0,0:0|0:0|0:0|0:0|0:0,0:0:0:0:
224,160,87551,1,4,0:0:0:0:
335,97,87915,5,0,0:0:0:0:
380,142,88097,1,0,0:0:0:0:
224,256,88642,2,0,P|224:288|256:320,2,80,0|0|0,0:0|0:0|0:0,0:0:0:0:
288,262,89188,1,0,0:0:0:0:
252,142,89551,1,0,0:0:0:0:
192,144,89733,1,0,0:0:0:0:
128,160,89915,1,0,0:0:0:0:
80,208,90097,6,0,P|128:256|224:256,3,160,0|0|0|0,0:0|0:0|0:0|0:0,0:0:0:0:
344,259,91551,2,0,B|288:192|240:160|144:128,1,240
256,192,92460,12,4,93369,0:0:0:0:
448,176,93733,5,0,0:0:0:0:
264,224,94278,1,0,0:0:0:0:
247,286,94460,1,0,0:0:0:0:
96,128,94824,5,0,0:0:0:0:
211,77,95188,1,0,0:0:0:0:
273,61,95370,2,0,B|368:64|368:64|400:128|352:208,3,240
288,224,97188,5,0,0:0:0:0:
225,211,97369,1,0,0:0:0:0:
208,336,97733,2,0,B|208:288|272:320|263:290,1,80
325,274,98097,1,0,0:0:0:0:
387,260,98278,1,0,0:0:0:0:
344,138,98642,1,0,0:0:0:0:
240,64,99006,2,0,P|208:80|160:144,2,80,0|0|0,0:0|0:0|0:0,0:0:0:0:
160,160,99733,6,0,L|160:256,1,80
285,267,100278,2,0,L|285:107,2,160,0|0|0,0:0|0:0|0:0,0:0:0:0:
382,187,101369,2,0,L|55:187,1,320
128,288,116642,5,0,0:0:0:0:
256,288,117006,1,0,0:0:0:0:
325,180,117369,2,0,L|389:180,4,40
403,72,118097,5,0,0:0:0:0:
275,66,118461,1,0,0:0:0:0:
202,171,118824,2,0,L|138:171,4,40
96,96,119551,6,0,B|64:176|128:320|272:288|336:272,1,320
285,153,120642,2,0,L|239:191,2,40,0|0|0,0:0|0:0|0:0,0:0:0:0:
337,116,121006,2,0,B|445:173|384:336|192:288,1,320
120,211,122097,5,0,0:0:0:0:
48,96,122460,2,0,L|208:64,1,160
250,110,123006,2,0,L|304:112,4,40,0|0|0|0|0,0:0|0:0|0:0|0:0|0:0,0:0:0:0:
254,174,123551,1,0,0:0:0:0:
370,227,123915,6,0,P|450:163|450:115,1,120
369,107,124460,2,0,L|433:89,6,40,0|0|0|0|0|0|0,0:0|0:0|0:0|0:0|0:0|0:0|0:0,0:0:0:0:
254,49,125369,6,0,P|174:113|174:161,1,120
156,218,125915,2,0,L|92:200,6,40,0|0|0|0|0|0|0,0:0|0:0|0:0|0:0|0:0|0:0|0:0,0:0:0:0:
256,192,126824,12,0,128278,0:0:0:0:
288,80,128642,6,0,L|384:128,1,80
386,174,129006,1,4,0:0:0:0:
309,268,129369,1,0,0:0:0:0:
246,281,129551,1,0,0:0:0:0:
184,263,129733,6,4,L|208:176,1,80
205,57,130278,1,0,0:0:0:0:
143,70,130460,1,0,0:0:0:0:
97,115,130642,1,0,0:0:0:0:
81,177,130824,2,0,P|80:272|144:352,1,160,0|4,0:0|0:0,0:0:0:0:
202,235,131551,5,0,0:0:0:0:
258,204,131733,1,0,0:0:0:0:
320,192,131915,2,2,B|352:208|368:256|368:256|352:304|320:320,2,160
306,67,133006,2,2,B|306:19|306:19|257:67,2,80
432,96,133733,2,2,P|416:128|384:160,1,80,0|2,0:0|0:0,0:0:0:0:
327,188,134097,1,4,0:0:0:0:
