osu file format v14

[General]
AudioFilename: Jamie Christopherson - A Stranger I Remain (Maniac Agenda Mix) [Metal Gear Rising- Revengeance Vocal Tracks].mp3
AudioLeadIn: 0
PreviewTime: 45392
Countdown: 1
SampleSet: Normal
StackLeniency: 0.7
Mode: 0
LetterboxInBreaks: 1
WidescreenStoryboard: 0

[Editor]
Bookmarks: 3211,9029,21211,45392,46847,57029,70120,81756,93392,105029,116665,134097
DistanceSpacing: 0.8
BeatDivisor: 4
GridSize: 16
TimelineZoom: 1.1

[Metadata]
Title:A Stranger I Remain (Maniac Agenda Mix)
TitleUnicode:A Stranger I Remain (Maniac Agenda Mix)
Artist:Jamie Christopherson
ArtistUnicode:Jamie Christopherson
Creator:Remco32
Version:Hard
Source:Metal Gear Rising: Revengeance
Tags:
BeatmapID:490991
BeatmapSetID:208522

[Difficulty]
HPDrainRate:8
CircleSize:4
OverallDifficulty:7
ApproachRate:7
SliderMultiplier:1.6
SliderTickRate:2

[Events]
//Background and Video events
0,0,"MGR.jpg",0,0
//Break Periods
2,38296,44469
2,70297,80833
2,99933,104106
//Storyboard Layer 0 (Background)
//Storyboard Layer 1 (Fail)
//Storyboard Layer 2 (Pass)
//Storyboard Layer 3 (Foreground)
//Storyboard Sound Samples

[TimingPoints]
3188,363.636363636364,4,1,0,80,1,0
46847,-100,4,1,0,80,0,1
57006,-66.6666666666667,4,1,0,80,0,0
70460,-100,4,1,0,80,0,0
105006,-66.6666666666667,4,2,0,80,0,0
116642,-66.6666666666667,4,1,0,100,0,1
134097,-100,4,1,0,100,0,0

[Colours]
Combo1 : 2,28,253
Combo2 : 3,199,106
Combo3 : 18,124,255
Combo4 : 236,0,6

[HitObjects]
48,80,3188,6,0,P|160:64|293:79,1,240,4|0,0:0|0:0,0:0:0:0:
288,208,4097,1,0,0:0:0:0:
224,208,4278,1,0,0:0:0:0:
128,288,4642,2,0,P|48:232|40:216,2,80,0|0|0,0:0|0:0|0:0,0:0:0:0:
192,288,5188,1,0,0:0:0:0:
256,288,5369,2,0,P|336:304|352:352,3,80,0|0|0|0,0:0|0:0|0:0|0:0,0:0:0:0:
394,298,6097,5,4,0:0:0:0:
419,239,6278,1,0,0:0:0:0:
419,110,6642,1,4,0:0:0:0:
394,50,6824,1,0,0:0:0:0:
394,178,7188,1,4,0:0:0:0:
330,178,7369,1,0,0:0:0:0:
211,227,7733,6,2,P|160:256|224:144,1,400,0|4,0:0|0:0,0:0:0:0:
243,172,8824,1,0,0:0:0:0:
307,172,9006,6,4,L|431:171,1,80
416,48,9551,1,0,0:0:0:0:
370,93,9733,1,0,0:0:0:0:
324,47,9915,1,0,0:0:0:0:
278,92,10097,1,0,0:0:0:0:
232,46,10278,1,0,0:0:0:0:
186,91,10460,2,4,L|128:176,1,80
144,288,11006,5,0,0:0:0:0:
186,240,11188,1,0,0:0:0:0:
232,286,11369,1,0,0:0:0:0:
278,241,11551,1,0,0:0:0:0:
324,287,11733,1,0,0:0:0:0:
370,242,11915,2,4,L|428:157,1,80
288,160,12460,5,0,0:0:0:0:
223,160,12642,1,0,0:0:0:0:
166,129,12824,1,0,0:0:0:0:
160,192,13006,1,0,0:0:0:0:
212,228,13188,1,0,0:0:0:0:
272,224,13369,6,0,L|320:160,1,80
384,160,13733,1,0,0:0:0:0:
448,160,13915,1,0,0:0:0:0:
448,96,14097,2,0,L|384:32,1,80
327,39,14460,1,0,0:0:0:0:
262,39,14642,1,0,0:0:0:0:
192,32,14824,6,2,B|64:48|64:144|208:144,1,240
256,160,15551,1,0,0:0:0:0:
320,160,15733,1,0,0:0:0:0:
320,160,15915,1,0,0:0:0:0:
195,143,16278,6,2,B|67:159|67:255|211:255,1,240,6|2,0:0|0:0,0:0:0:0:
262,254,17006,1,0,0:0:0:0:
256,320,17188,1,0,0:0:0:0:
308,283,17369,1,0,0:0:0:0:
369,300,17551,1,0,0:0:0:0:
432,288,17733,2,2,L|432:208,1,80
432,79,18278,5,0,0:0:0:0:
371,44,18460,1,0,0:0:0:0:
371,108,18642,1,0,0:0:0:0:
306,108,18824,1,0,0:0:0:0:
245,73,19006,1,0,0:0:0:0:
245,137,19188,5,2,0:0:0:0:
181,137,19369,1,2,0:0:0:0:
126,103,19551,1,2,0:0:0:0:
120,166,19733,1,2,0:0:0:0:
120,230,19915,1,2,0:0:0:0:
86,284,20097,2,2,L|31:284,2,40,0|0|0,0:0|0:0|0:0,0:0:0:0:
150,284,20460,1,2,0:0:0:0:
208,288,20642,2,0,B|314:356|410:340|410:308,1,160,4|0,0:0|0:0,0:0:0:0:
416,224,21369,5,0,0:0:0:0:
428,161,21551,1,0,0:0:0:0:
414,98,21733,1,0,0:0:0:0:
288,64,22097,2,0,L|112:64,1,160
72,179,22824,1,0,0:0:0:0:
120,211,23006,1,0,0:0:0:0:
72,243,23188,1,0,0:0:0:0:
160,336,23551,2,0,B|256:288|224:208|240:96,1,240
352,144,24642,5,0,0:0:0:0:
352,208,24824,1,0,0:0:0:0:
397,253,25006,2,0,B|480:208|480:80|448:16|448:16,2,240,0|0|0,0:0|0:0|0:0,0:0:0:0:
272,256,26460,5,6,0:0:0:0:
181,165,26824,5,0,0:0:0:0:
135,119,27006,1,0,0:0:0:0:
89,73,27188,2,0,B|41:121|41:121|41:169|137:217,1,160
176,288,27915,5,0,0:0:0:0:
240,288,28097,1,0,0:0:0:0:
304,288,28278,2,0,L|256:224,2,80,0|0|0,0:0|0:0|0:0,0:0:0:0:
255,169,29006,2,0,P|330:132|394:196,1,160
386,43,29733,1,2,0:0:0:0:
322,43,29915,1,2,0:0:0:0:
258,43,30097,1,2,0:0:0:0:
160,128,30460,6,0,P|112:224|160:256,1,160
199,247,31006,1,0,0:0:0:0:
326,247,31369,1,0,0:0:0:0:
416,156,31733,2,0,P|448:220|352:364,1,240
321,240,32642,6,0,B|256:176|256:176|176:176,1,160
125,195,33188,1,0,0:0:0:0:
63,180,33369,1,0,0:0:0:0:
63,308,33733,1,0,0:0:0:0:
128,320,33915,1,0,0:0:0:0:
192,320,34097,1,0,0:0:0:0:
320,320,34460,1,0,0:0:0:0:
346,194,34824,2,0,B|346:98|346:98|298:66|250:66|202:98,1,240
225,155,35551,5,0,0:0:0:0:
100,185,35915,1,0,0:0:0:0:
190,275,36278,1,0,0:0:0:0:
318,275,36642,2,0,P|416:176|272:64,2,320,0|0|0,0:0|0:0|0:0,0:0:0:0:
256,192,45369,12,4,46460,0:0:0:0:
64,192,46824,6,0,L|336:192,1,240
432,240,47733,1,0,0:0:0:0:
432,176,47915,1,0,0:0:0:0:
432,112,48097,2,0,P|384:48|384:160,1,240
343,150,48824,1,0,0:0:0:0:
304,272,49188,5,0,0:0:0:0:
248,303,49369,1,0,0:0:0:0:
192,272,49551,2,0,B|145:336|145:336|64:288|96:176,1,240
45,151,50278,1,2,0:0:0:0:
109,151,50460,1,2,0:0:0:0:
173,151,50642,1,2,0:0:0:0:
237,151,50824,1,2,0:0:0:0:
304,48,51188,6,0,P|384:80|384:144,1,160
354,200,51733,2,0,L|400:266,1,80
336,272,52097,1,0,0:0:0:0:
272,272,52278,1,0,0:0:0:0:
150,230,52642,6,0,B|86:150|86:150|134:86|166:54|294:54|358:54|438:86,1,480
432,144,53915,2,2,L|432:227,1,80
432,224,54460,2,2,L|432:320,1,80
239,304,55188,1,0,0:0:0:0:
219,243,55369,1,0,0:0:0:0:
241,183,55551,1,2,0:0:0:0:
352,245,55915,2,0,L|236:244,4,80,0|0|0|0|0,0:0|0:0|0:0|0:0|0:0,0:0:0:0:
160,64,57006,5,0,0:0:0:0:
351,64,57369,1,0,0:0:0:0:
256,224,57733,1,0,0:0:0:0:
254,37,58097,1,0,0:0:0:0:
118,172,58460,5,2,0:0:0:0:
208,128,58642,1,2,0:0:0:0:
304,128,58824,1,2,0:0:0:0:
388,173,59006,2,0,P|448:224|448:272,1,120.000004577637
412,349,59369,1,2,0:0:0:0:
315,349,59551,1,2,0:0:0:0:
315,252,59733,2,0,L|400:160,2,120.000004577637,0|0|0,0:0|0:0|0:0,0:0:0:0:
218,252,60278,2,0,L|128:144,2,120.000004577637,0|0|0,0:0|0:0|0:0,0:0:0:0:
260,165,60824,1,2,0:0:0:0:
260,165,61006,1,2,0:0:0:0:
64,128,61369,6,2,P|256:16|464:144,1,480.000018310548
256,192,62460,12,0,63915,0:0:0:0:
256,64,64278,6,0,P|96:176|304:128,1,480.000018310548
325,144,65188,1,0,0:0:0:0:
416,144,65369,1,0,0:0:0:0:
464,224,65551,2,0,B|368:304|368:304|256:304|224:240|224:144,1,360.000013732911
224,157,66278,2,0,L|80:157,2,120.000004577637,0|0|0,0:0|0:0|0:0,0:0:0:0:
259,247,66824,5,0,0:0:0:0:
352,272,67006,1,0,0:0:0:0:
352,272,67188,2,0,L|352:144,1,120.000004577637
352,152,67551,2,0,P|432:128|464:96,6,120.000004577637,0|0|0|0|0|0|0,0:0|0:0|0:0|0:0|0:0|0:0|0:0,0:0:0:0:
162,186,69006,5,0,0:0:0:0:
297,321,69369,1,0,0:0:0:0:
432,185,69733,1,0,0:0:0:0:
296,49,70097,1,4,0:0:0:0:
412,70,81733,6,2,P|448:192|412:326,1,240
304,288,82642,1,0,0:0:0:0:
240,288,82824,2,0,L|160:288,1,80
160,224,83188,2,2,L|320:224,1,160,0|0,0:0|0:0,0:0:0:0:
373,258,83733,1,0,0:0:0:0:
373,129,84097,5,0,0:0:0:0:
304,128,84278,2,0,L|112:128,1,160
144,256,85006,1,0,0:0:0:0:
144,192,85188,2,2,B|256:193|256:193|304:224|384:305,2,240,0|0|0,0:0|0:0|0:0,0:0:0:0:
172,66,86642,5,0,0:0:0:0:
44,66,87006,1,2,0:0:0:0:
44,98,87097,1,2,0:0:0:0:
44,130,87188,1,2,0:0:0:0:
79,183,87369,1,0,0:0:0:0:
137,208,87551,2,2,L|400:208,2,240,2|2|2,0:0|0:0|0:0,0:0:0:0:
192,96,89006,5,0,0:0:0:0:
256,96,89188,1,0,0:0:0:0:
368,32,89551,1,0,0:0:0:0:
368,96,89733,2,4,L|368:160,1,40
160,224,90460,5,0,0:0:0:0:
125,277,90642,1,0,0:0:0:0:
189,277,90824,2,0,L|285:277,1,80
331,262,91188,1,0,0:0:0:0:
384,221,91369,1,0,0:0:0:0:
419,168,91551,1,0,0:0:0:0:
355,168,91733,2,0,L|109:167,1,240
64,48,92642,6,4,L|96:96,1,40,0|4,0:0|0:0,0:0:0:0:
180,67,93006,2,4,L|186:159,1,80,4|4,0:0|0:0,0:0:0:0:
240,112,93369,6,0,B|304:112|304:112|331:203|368:192|448:32,2,240,0|0|0,0:0|0:0|0:0,0:0:0:0:
128,176,94824,6,0,P|160:272|240:304,1,160
252,254,95369,2,0,L|195:190,1,80
256,80,95915,2,0,L|416:80,1,160
447,135,96460,1,0,0:0:0:0:
465,196,96642,2,0,L|81:196,1,320
108,143,97551,1,0,0:0:0:0:
62,188,97733,1,0,0:0:0:0:
152,278,98097,5,0,0:0:0:0:
206,311,98278,1,0,0:0:0:0:
334,311,98642,1,0,0:0:0:0:
370,188,99006,2,2,P|414:157|430:125,2,80,0|0|0,0:0|0:0|0:0,0:0:0:0:
242,195,99733,1,4,0:0:0:0:
112,144,105006,6,0,P|256:64|409:165,1,360.000013732911
356,241,105733,1,0,0:0:0:0:
163,241,106097,1,0,0:0:0:0:
337,305,106460,2,0,L|97:305,1,240.000009155274
96,208,107006,1,0,0:0:0:0:
96,208,107188,1,0,0:0:0:0:
96,208,107551,1,0,0:0:0:0:
288,208,107915,6,0,P|341:167|211:174,1,360.000013732911
205,160,108642,1,0,0:0:0:0:
205,160,109006,1,0,0:0:0:0:
42,59,109369,6,0,L|270:59,1,120.000004577637
258,59,109733,1,0,0:0:0:0:
354,59,109915,1,0,0:0:0:0:
421,126,110097,2,2,B|304:176|304:176|176:176|128:144|128:64,2,360.000013732911,2|2|2,0:0|0:0|0:0,0:0:0:0:
421,222,111369,1,0,0:0:0:0:
143,301,111915,1,0,0:0:0:0:
144,208,112097,1,0,0:0:0:0:
144,112,112278,1,0,0:0:0:0:
144,208,112460,1,0,0:0:0:0:
336,208,112824,5,0,0:0:0:0:
336,208,113006,1,0,0:0:0:0:
48,208,113551,1,0,0:0:0:0:
48,208,113733,2,0,L|288:208,1,240.000009155274
384,208,114278,1,0,0:0:0:0:
256,192,114824,12,4,115915,0:0:0:0:
389,46,116642,5,0,0:0:0:0:
456,113,116824,1,0,0:0:0:0:
388,180,117006,1,0,0:0:0:0:
320,112,117188,2,0,L|256:112,2,60.0000022888184,0|0|0,0:0|0:0|0:0,0:0:0:0:
252,179,117551,1,0,0:0:0:0:
319,246,117733,1,0,0:0:0:0:
251,313,117915,1,0,0:0:0:0:
183,245,118097,2,0,L|119:245,2,60.0000022888184,0|0|0,0:0|0:0|0:0,0:0:0:0:
128,176,118460,2,0,L|64:176,2,60.0000022888184,0|0|0,0:0|0:0|0:0,0:0:0:0:
59,107,118824,1,4,0:0:0:0:
155,107,119006,1,4,0:0:0:0:
251,107,119188,1,4,0:0:0:0:
336,48,119369,6,0,L|400:48,4,60.0000022888184,0|0|0|0|0,0:0|0:0|0:0|0:0|0:0,0:0:0:0:
336,144,119915,1,0,0:0:0:0:
336,240,120097,1,0,0:0:0:0:
256,288,120278,2,0,L|320:320,4,60.0000022888184,0|0|0|0|0,0:0|0:0|0:0|0:0|0:0,0:0:0:0:
173,238,120824,1,0,0:0:0:0:
124,154,121006,1,0,0:0:0:0:
213,188,121188,1,0,0:0:0:0:
144,256,121369,2,2,B|64:304|64:304|-16:96|-16:96|75:34|176:80,1,480.000018310548
332,67,122460,1,6,0:0:0:0:
332,115,122551,5,0,0:0:0:0:
332,163,122642,1,0,0:0:0:0:
332,259,122824,1,0,0:0:0:0:
235,259,123006,1,0,0:0:0:0:
138,259,123188,1,0,0:0:0:0:
96,172,123369,1,0,0:0:0:0:
59,84,123551,1,0,0:0:0:0:
144,48,123733,2,0,L|64:32,4,60.0000022888184,0|0|0|0|0,0:0|0:0|0:0|0:0|0:0,0:0:0:0:
211,115,124278,1,0,0:0:0:0:
303,142,124460,1,0,0:0:0:0:
368,80,124642,2,2,P|416:208|352:304,1,240.000009155274
177,290,125369,6,0,L|123:330,4,60.0000022888184,0|0|0|0|0,0:0|0:0|0:0|0:0|0:0,0:0:0:0:
177,193,125915,1,0,0:0:0:0:
177,96,126097,1,0,0:0:0:0:
368,96,126460,2,0,B|448:192|448:192|448:304|272:304,1,360.000013732911
160,304,127188,5,6,0:0:0:0:
256,80,127552,1,6,0:0:0:0:
339,304,127915,1,6,0:0:0:0:
256,131,128278,6,0,L|256:208,3,60.0000022888184,0|0|0|0,0:0|0:0|0:0|0:0,0:0:0:0:
153,88,128824,5,0,0:0:0:0:
233,34,129006,2,0,L|297:34,1,60.0000022888184
426,87,129369,1,0,0:0:0:0:
426,279,129733,6,0,L|480:336,4,60.0000022888184,0|0|0|0|0,0:0|0:0|0:0|0:0|0:0,0:0:0:0:
358,211,130278,1,0,0:0:0:0:
275,162,130460,1,0,0:0:0:0:
178,162,130642,1,0,0:0:0:0:
110,229,130824,1,0,0:0:0:0:
177,296,131006,1,0,0:0:0:0:
270,319,131188,6,0,L|352:320,4,60.0000022888184,0|0|0|0|0,0:0|0:0|0:0|0:0|0:0,0:0:0:0:
295,230,131733,6,0,L|377:231,8,60.0000022888184,0|0|0|0|0|0|0|0|0,0:0|0:0|0:0|0:0|0:0|0:0|0:0|0:0|0:0,0:0:0:0:
328,140,132642,6,0,L|410:141,16,60.0000022888184,0|0|0|0|0|0|0|0|0|0|0|0|0|0|0|0|4,0:0|0:0|0:0|0:0|0:0|0:0|0:0|0:0|0:0|0:0|0:0|0:0|0:0|0:0|0:0|0:0|0:0,0:0:0:0:
