osu file format v14

[General]
AudioFilename: Jamie Christopherson - A Stranger I Remain (Maniac Agenda Mix) [Metal Gear Rising- Revengeance Vocal Tracks].mp3
AudioLeadIn: 0
PreviewTime: 45392
Countdown: 1
SampleSet: Normal
StackLeniency: 0.7
Mode: 0
LetterboxInBreaks: 1
WidescreenStoryboard: 1

[Editor]
Bookmarks: 3211,9029,21211,45392,46847,57029,70120,81756,93392,105029,116665
DistanceSpacing: 0.8
BeatDivisor: 2
GridSize: 16
TimelineZoom: 1

[Metadata]
Title:A Stranger I Remain (Maniac Agenda Mix)
TitleUnicode:A Stranger I Remain (Maniac Agenda Mix)
Artist:Jamie Christopherson
ArtistUnicode:Jamie Christopherson
Creator:Remco32
Version:Easy
Source:Metal Gear Rising: Revengeance
Tags:
BeatmapID:490990
BeatmapSetID:208522

[Difficulty]
HPDrainRate:3
CircleSize:2
OverallDifficulty:3
ApproachRate:3
SliderMultiplier:1.2
SliderTickRate:2

[Events]
//Background and Video events
0,0,"MGR.jpg",0,0
//Break Periods
2,35751,43929
2,70297,80293
2,105206,115202
//Storyboard Layer 0 (Background)
//Storyboard Layer 1 (Fail)
//Storyboard Layer 2 (Pass)
//Storyboard Layer 3 (Foreground)
//Storyboard Sound Samples

[TimingPoints]
3188,363.636363636364,4,1,0,80,1,0
46824,-100,4,1,0,80,0,1
58483,-100,4,1,0,80,0,0
116642,-100,4,1,0,80,0,1
134097,-100,4,1,0,80,0,0

[Colours]
Combo1 : 2,28,253
Combo2 : 3,199,106
Combo3 : 18,124,255
Combo4 : 236,0,6

[HitObjects]
384,80,21369,5,0,0:0:0:0:
384,176,21733,2,0,B|320:288|320:288|160:288,1,240
112,288,22824,1,0,0:0:0:0:
76,198,23188,2,0,B|268:198|268:198|300:150,1,240
256,64,25006,5,0,0:0:0:0:
154,165,25551,1,2,0:0:0:0:
252,165,25915,1,2,0:0:0:0:
348,165,26278,1,2,0:0:0:0:
128,272,27188,6,0,B|80:160|80:160|112:96|208:128,1,240
272,128,28278,1,0,0:0:0:0:
368,128,28642,2,0,B|416:240|416:240|384:304|288:272,2,240,0|0|0,0:0|0:0|0:0,0:0:0:0:
176,112,30824,5,0,0:0:0:0:
176,160,31006,1,0,0:0:0:0:
176,256,31369,1,0,0:0:0:0:
272,256,31733,1,0,0:0:0:0:
368,256,32097,2,0,B|384:160|384:160|368:64,1,180
210,185,33369,5,0,0:0:0:0:
74,49,34097,1,0,0:0:0:0:
74,240,34824,2,0,B|160:320|160:320|224:352|304:272|304:272,1,240
256,192,45369,12,4,46460,0:0:0:0:
112,192,46824,5,2,0:0:0:0:
400,192,47915,1,2,0:0:0:0:
400,192,48097,1,2,0:0:0:0:
75,104,49369,2,0,P|187:72|312:114,2,240
131,182,51188,6,0,L|283:183,1,120
290,270,51915,2,0,L|138:269,1,120
73,269,52642,5,2,0:0:0:0:
361,269,53733,1,2,0:0:0:0:
361,269,53915,1,2,0:0:0:0:
37,178,55188,2,0,P|149:146|274:188,2,240
92,259,57006,5,0,0:0:0:0:
188,259,57369,1,0,0:0:0:0:
284,259,57733,1,0,0:0:0:0:
380,259,58097,1,0,0:0:0:0:
432,176,58460,6,0,P|416:96|352:64,1,120
288,80,59188,1,0,0:0:0:0:
192,80,59551,1,0,0:0:0:0:
96,80,59915,2,0,B|64:128|64:128|64:192|112:192,1,120
180,184,60642,1,0,0:0:0:0:
276,184,61006,1,0,0:0:0:0:
371,184,61369,2,0,B|416:256|416:256|384:336,1,120
306,288,62097,2,0,L|128:288,1,120
256,192,62824,12,2,64278,0:0:0:0:
256,240,65369,5,2,0:0:0:0:
256,240,65551,1,2,0:0:0:0:
256,128,66824,2,0,L|256:64,2,60,0|0|0,0:0|0:0|0:0,0:0:0:0:
256,192,67551,12,4,70097,0:0:0:0:
256,192,81733,5,2,0:0:0:0:
320,64,82278,2,0,P|395:182|320:336,2,300,0|0|0,0:0|0:0|0:0,0:0:0:0:
177,75,84642,2,2,P|160:192|178:317,2,240,0|0|0,0:0|0:0|0:0,0:0:0:0:
320,93,86642,6,0,B|432:205|432:205|307:306|307:306,1,300,0|4,0:0|0:0,0:0:0:0:
224,192,88097,6,0,L|48:192,1,120
204,72,89006,2,0,L|412:72,2,180,0|0|0,0:0|0:0|0:0,0:0:0:0:
128,144,90460,6,0,P|96:224|96:272,1,120
190,256,91188,2,0,P|222:176|222:128,1,120
291,75,91915,2,0,P|211:43|163:43,2,120
80,208,93369,6,0,P|256:336|448:192,1,480
256,160,95551,1,0,0:0:0:0:
256,64,95915,2,0,L|256:320,2,240,0|0|0,0:0|0:0|0:0,0:0:0:0:
352,96,97733,5,0,0:0:0:0:
352,192,98097,2,0,P|384:256|464:288,2,120,0|0|0,0:0|0:0|0:0,0:0:0:0:
405,112,99188,2,0,P|341:48|229:32,2,180,0|0|0,0:0|0:0|0:0,0:0:0:0:
400,208,100642,6,0,B|400:320|400:320|288:368|192:352|64:224,1,480,0|2,0:0|0:0,0:0:0:0:
64,80,102642,1,2,0:0:0:0:
189,153,103188,1,2,0:0:0:0:
256,192,103551,12,0,105006,0:0:0:0:
256,64,116642,5,0,0:0:0:0:
256,160,117006,1,0,0:0:0:0:
256,255,117369,1,0,0:0:0:0:
80,160,118097,5,0,0:0:0:0:
176,160,118460,1,0,0:0:0:0:
272,160,118824,1,0,0:0:0:0:
448,80,119551,6,0,B|368:176|368:176|368:304|256:304,1,240
245,109,121006,2,0,B|165:205|165:205|165:333|53:333,1,240
263,174,122460,5,0,0:0:0:0:
70,174,123188,1,0,0:0:0:0:
236,78,123915,1,0,0:0:0:0:
236,268,124642,1,0,0:0:0:0:
256,192,125369,12,4,128278,0:0:0:0:
128,80,128642,6,0,P|192:112|272:64,2,120,0|0|0,0:0|0:0|0:0,0:0:0:0:
176,160,129733,6,0,P|240:192|320:144,3,120,0|0|0|0,0:0|0:0|0:0|0:0,0:0:0:0:
216,249,131188,6,0,L|280:281|280:281,8,60,0|0|0|0|0|0|0|0|0,0:0|0:0|0:0|0:0|0:0|0:0|0:0|0:0|0:0,0:0:0:0:
256,192,133006,12,6,134097,0:0:0:0:
