osu file format v14

[General]
AudioFilename: audio.mp3
AudioLeadIn: 0
PreviewTime: -1
Countdown: 0
SampleSet: Soft
StackLeniency: 0.7
Mode: 0
LetterboxInBreaks: 0
WidescreenStoryboard: 0

[Editor]
DistanceSpacing: 1.1
BeatDivisor: 4
GridSize: 4
TimelineZoom: 2

[Metadata]
Title:A Stranger I Remain (Maniac Agenda Mix)
TitleUnicode:A Stranger I Remain (Maniac Agenda Mix)
Artist:Jamie Christopherson
ArtistUnicode:Jamie Christopherson
Creator:Essi
Version:977-AZQEE
Source:Metal Gear Rising: Revengeance
Tags:metal gear rising revengeance mistal theme ost
BeatmapID:1847694
BeatmapSetID:883910

[Difficulty]
HPDrainRate:6
CircleSize:3.7
OverallDifficulty:8.6
ApproachRate:9.3
SliderMultiplier:1.9
SliderTickRate:1

[Events]
//Background and Video events
0,0,"Konachan.com - 196592 sample.jpg",0,0
//Break Periods
//Storyboard Layer 0 (Background)
//Storyboard Layer 1 (Fail)
//Storyboard Layer 2 (Pass)
//Storyboard Layer 3 (Foreground)
//Storyboard Sound Samples

[TimingPoints]
3242,363.636363636364,4,2,1,41,1,0
3787,-111.111111111111,4,2,1,41,0,0
21060,-120.481927710843,4,2,1,41,0,0
46878,-100,4,2,1,63,0,1
70151,-111.111111111111,4,2,1,63,0,0
93423,-100,4,2,1,70,0,1
110151,-100,4,2,1,70,0,0
110878,-100,4,2,1,70,0,1
115242,-100,4,2,1,70,0,0
116696,-100,4,2,1,70,0,1
128332,-100,4,2,1,70,0,0
128878,-111.111111111111,4,2,1,63,0,0

[HitObjects]
94,57,3242,6,0,B|143:38|180:81|180:81|228:125|282:108,1,190,4|0,0:0|0:0,0:0:0:0:
373,143,3787,2,0,P|354:96|347:53,1,85.4999973907472,8|0,0:0|0:0,0:0:0:0:
382,228,4151,1,0,3:0:0:0:
282,191,4332,2,0,P|263:238|258:309,1,85.4999973907472,8|0,0:0|0:0,0:0:0:0:
175,161,4696,5,0,3:0:0:0:
84,76,4878,2,0,P|65:120|56:177,1,85.4999973907472,2|0,0:0|0:0,0:0:0:0:
66,246,5242,1,8,0:0:0:0:
175,161,5423,1,2,0:0:0:0:
215,88,5605,1,0,3:0:0:0:
275,191,5787,1,8,0:0:0:0:
251,20,5969,1,8,0:0:0:0:
359,106,6151,5,0,3:0:0:0:
169,179,6332,2,0,P|149:232|148:275,1,85.4999973907472,0|0,3:0|0:0,0:0:0:0:
249,338,6696,2,0,L|344:332,1,85.4999973907472,8|0,0:0|0:0,0:0:0:0:
441,323,7060,1,0,3:0:0:0:
345,165,7242,2,0,P|312:203|300:241,1,85.4999973907472,8|0,0:0|0:0,0:0:0:0:
245,334,7605,5,6,0:0:0:0:
173,207,7787,2,0,P|150:159|149:119,1,85.4999973907472,2|0,0:0|0:0,0:0:0:0:
172,39,8151,1,8,0:0:0:0:
329,169,8332,1,8,3:2:0:0:
308,141,8423,1,8,3:2:0:0:
304,106,8514,1,8,3:2:0:0:
313,73,8605,1,8,3:2:0:0:
341,53,8696,1,8,3:2:0:0:
388,51,8787,1,8,3:2:0:0:
427,78,8878,1,8,3:2:0:0:
439,127,8969,1,8,3:2:0:0:
429,173,9060,6,0,P|390:188|308:100,1,170.999994781494,12|0,3:2|0:0,0:0:0:0:
229,270,9605,1,8,0:0:0:0:
344,229,9787,1,2,0:0:0:0:
196,180,9969,1,0,3:0:0:0:
279,96,10151,1,8,0:0:0:0:
354,258,10332,1,2,0:0:0:0:
195,201,10514,6,0,B|163:252|187:320|187:320|206:292|253:272,1,170.999994781494,4|0,0:0|0:0,0:0:0:0:
77,214,11060,1,8,0:0:0:0:
35,80,11242,1,2,0:0:0:0:
192,197,11423,1,0,3:0:0:0:
189,45,11605,1,8,0:0:0:0:
313,167,11787,1,0,3:0:0:0:
448,46,11969,6,4,B|480:97|456:165|456:165|437:137|390:117,1,170.999994781494,4|0,0:0|0:0,0:0:0:0:
244,41,12514,1,8,0:0:0:0:
382,110,12696,1,2,0:0:0:0:
229,155,12878,1,0,3:0:0:0:
332,35,13060,1,8,0:0:0:0:
365,205,13242,1,2,0:0:0:0:
216,34,13423,5,8,0:0:0:0:
159,297,13605,1,8,0:0:0:0:
83,104,13787,1,8,0:0:0:0:
242,186,13969,1,8,0:0:0:0:
73,229,14151,1,8,0:0:0:0:
73,229,14242,1,0,3:0:0:0:
73,229,14332,1,0,3:0:0:0:
180,87,14514,1,8,0:0:0:0:
222,262,14696,1,8,0:0:0:0:
336,113,14878,6,0,L|345:226,1,85.4999973907472,4|0,0:0|0:0,0:0:0:0:
340,198,15423,1,8,0:0:0:0:
275,53,15605,1,2,0:0:0:0:
90,258,15787,1,0,3:0:0:0:
162,95,15969,1,8,0:0:0:0:
162,342,16151,1,0,3:0:0:0:
89,167,16332,6,0,B|135:151|135:151|196:165|196:165|259:143,1,170.999994781494,4|0,0:0|0:0,0:0:0:0:
390,165,16878,1,8,0:0:0:0:
207,43,17060,1,2,0:0:0:0:
426,46,17242,1,0,3:0:0:0:
218,199,17423,1,8,0:0:0:0:
431,290,17605,1,0,3:0:0:0:
307,127,17787,6,0,B|283:106|226:102|206:156|224:246,1,170.999994781494,4|0,0:0|0:0,0:0:0:0:
242,325,18332,1,8,0:0:0:0:
123,140,18514,1,2,0:0:0:0:
331,202,18696,1,0,3:0:0:0:
217,34,18878,1,8,0:0:0:0:
112,234,19060,1,2,0:0:0:0:
297,78,19242,5,8,0:0:0:0:
336,285,19423,1,8,0:0:0:0:
154,167,19605,1,8,0:0:0:0:
394,143,19787,1,0,3:0:0:0:
223,340,19969,1,8,0:0:0:0:
286,60,20151,1,8,0:0:0:0:
286,60,20242,1,8,0:0:0:0:
286,60,20332,2,0,P|268:113|265:124,1,42.7499986953736,10|8,0:0|0:0,0:0:0:0:
179,203,20514,2,8,P|172:182|164:162,1,42.7499986953736
63,48,20696,6,0,B|42:85|42:85|43:221,1,170.999994781494,4|8,0:0|0:0,0:0:0:0:
75,301,21242,1,2,0:0:0:0:
144,178,21423,2,2,L|152:231,1,39.4250005714989
233,290,21605,2,2,L|240:241,1,39.4250005714989
258,140,21787,2,0,P|200:132|170:153,1,78.8500011429978,8|0,0:0|0:0,0:0:0:0:
339,219,22151,6,0,P|359:174|359:140,1,78.8500011429978,0|0,3:0|0:0,0:0:0:0:
334,56,22514,1,8,0:0:0:0:
257,139,22696,1,2,0:0:0:0:
162,93,22878,2,2,L|154:43,1,39.4250005714989
55,154,23060,2,2,L|61:115,1,39.4250005714989
154,211,23242,1,8,0:0:0:0:
159,233,23332,1,2,0:0:0:0:
165,255,23423,1,2,0:0:0:0:
171,277,23514,1,2,0:0:0:0:
178,299,23605,6,0,L|148:331,1,39.4250005714989,2|2,3:2|0:0,0:0:0:0:
257,225,23787,2,2,L|227:193,1,39.4250005714989
365,148,23969,2,0,L|374:245,1,78.8500011429978,8|0,0:0|0:0,0:0:0:0:
249,188,24332,2,2,L|212:175,1,39.4250005714989
361,125,24514,2,2,L|398:112,1,39.4250005714989
245,33,24696,2,0,P|206:52|184:90,1,78.8500011429978,8|0,0:0|0:0,0:0:0:0:
165,193,25060,5,0,3:0:0:0:
103,64,25242,1,0,3:0:0:0:
21,171,25423,2,0,L|30:264,1,78.8500011429978,8|0,0:0|0:0,0:0:0:0:
159,238,25787,2,0,L|173:289,1,39.4250005714989,2|2,3:2|0:0,0:0:0:0:
268,315,25969,2,2,L|254:366,1,39.4250005714989
246,214,26151,1,8,0:0:0:0:
355,319,26332,1,2,0:0:0:0:
216,184,26514,5,4,0:0:0:0:
313,56,26696,1,0,3:0:0:0:
377,213,26878,2,0,P|370:251|356:288,1,78.8500011429978,8|0,0:0|0:0,0:0:0:0:
217,283,27242,2,2,P|200:242|199:229,1,39.4250005714989
97,168,27423,2,2,P|90:186|80:203,1,39.4250005714989
225,148,27605,2,0,P|213:106|208:65,1,78.8500011429978,8|0,0:0|0:0,0:0:0:0:
259,237,27969,5,0,3:0:0:0:
370,136,28151,1,0,3:0:0:0:
422,251,28332,2,0,P|445:302|447:341,1,78.8500011429978,8|0,0:0|0:0,0:0:0:0:
269,270,28696,2,0,L|258:316,1,39.4250005714989,2|2,3:2|0:0,0:0:0:0:
355,191,28878,2,0,L|319:222,1,39.4250005714989,2|2,0:0|0:0,0:0:0:0:
297,106,29060,1,10,0:0:0:0:
317,94,29151,1,2,0:0:0:0:
339,87,29242,1,2,0:0:0:0:
362,86,29332,1,2,0:0:0:0:
385,90,29423,6,0,L|439:94,1,39.4250005714989,2|2,3:2|0:0,0:0:0:0:
479,169,29605,2,0,L|439:166,1,39.4250005714989,2|2,0:0|0:0,0:0:0:0:
349,256,29787,2,0,P|377:294|389:335,1,78.8500011429978,8|0,0:0|0:0,0:0:0:0:
243,322,30151,2,0,L|212:285,1,39.4250005714989,2|2,0:0|0:0,0:0:0:0:
149,243,30332,2,2,L|102:230,1,39.4250005714989
26,197,30514,2,0,P|58:160|90:135,1,78.8500011429978,8|0,0:0|0:0,0:0:0:0:
183,157,30878,5,0,3:0:0:0:
88,29,31060,1,0,3:0:0:0:
276,37,31242,1,8,0:0:0:0:
140,167,31423,1,2,0:0:0:0:
363,138,31605,1,0,3:0:0:0:
363,138,31696,1,0,3:0:0:0:
363,138,31787,1,8,0:0:0:0:
332,319,31969,1,8,0:0:0:0:
153,191,32151,1,8,0:0:0:0:
153,191,32242,1,8,0:0:0:0:
153,191,32332,5,12,0:0:0:0:
259,28,32514,1,0,3:0:0:0:
387,230,32696,2,0,P|379:191|363:155,1,78.8500011429978,8|0,0:0|0:0,0:0:0:0:
151,233,33060,1,0,3:0:0:0:
259,108,33242,1,0,3:0:0:0:
392,242,33423,2,0,P|406:288|414:334,1,78.8500011429978,8|0,0:0|0:0,0:0:0:0:
249,189,33787,6,0,P|191:168|147:167,1,78.8500011429978,0|0,3:0|3:0,0:0:0:0:
287,77,34151,2,0,P|345:56|389:55,1,78.8500011429978,0|0,3:0|0:0,0:0:0:0:
396,171,34514,1,0,3:0:0:0:
396,171,34605,1,8,0:0:0:0:
396,171,34696,1,8,0:0:0:0:
326,294,34878,2,0,P|301:255|297:212,1,78.8500011429978,8|0,0:0|0:0,0:0:0:0:
297,101,35242,5,0,3:0:0:0:
195,273,35423,1,0,3:0:0:0:
96,124,35605,2,0,P|70:180|72:220,1,78.8500011429978,8|0,0:0|0:0,0:0:0:0:
185,34,35969,1,2,0:0:0:0:
283,185,36151,1,0,3:0:0:0:
69,226,36332,2,0,P|107:210|158:208,1,78.8500011429978,8|0,0:0|0:0,0:0:0:0:
247,218,36696,5,0,3:0:0:0:
130,325,36878,1,0,3:0:0:0:
298,327,37060,2,0,P|314:286|318:245,1,78.8500011429978,8|0,0:0|0:0,0:0:0:0:
224,134,37423,2,0,L|245:183,1,39.4250005714989,0|0,3:0|3:0,0:0:0:0:
117,84,37605,2,0,L|138:35,1,39.4250005714989,0|0,3:0|3:0,3:0:0:0:
29,167,37787,2,0,P|16:210|15:261,1,78.8500011429978,8|0,0:0|0:0,0:0:0:0:
34,336,38151,5,0,3:0:0:0:
140,192,38332,1,0,3:0:0:0:
229,329,38514,2,0,L|244:233,1,78.8500011429978,8|0,0:0|0:0,0:0:0:0:
264,133,38878,1,0,3:0:0:0:
363,280,39059,1,0,3:0:0:0:
452,143,39241,2,0,L|465:221,1,78.8500011429978,8|0,0:0|0:0,0:0:0:0:
338,304,39605,6,0,L|294:314,1,39.4250005714989,0|2,3:0|0:0,0:0:0:0:
207,272,39787,2,0,L|168:263,1,39.4250005714989,0|2,3:0|0:0,0:0:0:0:
67,321,39969,2,0,P|58:281|54:223,1,78.8500011429978,0|0,3:0|0:0,0:0:0:0:
80,75,40332,1,0,3:0:0:0:
80,75,40423,1,8,0:0:0:0:
80,75,40514,2,0,L|70:128,1,39.4250005714989,0|0,3:0|0:0,0:0:0:0:
54,222,40696,1,8,0:0:0:0:
182,107,40878,1,2,0:0:0:0:
190,258,41060,5,0,3:0:0:0:
76,145,41242,1,0,3:0:0:0:
279,54,41423,2,0,L|289:148,1,78.8500011429978,8|0,0:0|0:0,0:0:0:0:
271,231,41787,1,2,0:0:0:0:
390,105,41969,1,0,3:0:0:0:
439,266,42151,2,0,P|462:233|471:188,1,78.8500011429978,8|0,0:0|0:0,0:0:0:0:
435,67,42514,5,0,3:0:0:0:
379,192,42696,1,0,3:0:0:0:
302,72,42878,1,8,0:0:0:0:
232,205,43060,1,2,0:0:0:0:
416,181,43242,1,0,3:0:0:0:
334,349,43423,1,0,3:0:0:0:
228,132,43605,2,0,L|220:178,1,39.4250005714989,8|0,0:0|0:0,0:0:0:0:
123,230,43787,2,0,L|129:191,1,39.4250005714989,2|0,0:0|0:0,0:0:0:0:
148,90,43969,5,0,3:0:0:0:
52,184,44151,1,0,3:0:0:0:
208,216,44332,1,8,0:0:0:0:
208,216,44878,5,0,3:0:0:0:
251,38,45060,1,8,0:0:0:0:
251,38,45242,1,0,3:0:0:0:
329,211,45423,6,0,P|315:264|311:311,1,78.8500011429978,0|0,3:0|0:0,0:0:0:0:
119,123,45787,2,0,P|113:84|102:46,1,78.8500011429978,0|0,3:0|0:0,0:0:0:0:
118,222,46151,1,0,3:0:0:0:
237,266,46332,1,0,3:0:0:0:
317,167,46514,1,8,0:0:0:0:
233,54,46696,1,0,3:0:0:0:
108,177,46878,6,0,L|317:169,1,190,4|8,3:2|0:0,0:0:0:0:
397,165,47423,1,0,3:0:0:0:
283,253,47605,1,2,3:2:0:0:
436,280,47787,1,2,3:2:0:0:
294,158,47969,1,8,0:0:0:0:
487,200,48151,1,2,3:2:0:0:
343,328,48332,6,0,L|236:312,1,95,0|0,3:0|3:0,0:0:0:0:
132,290,48696,1,8,0:0:0:0:
265,238,48878,1,0,3:0:0:0:
97,172,49060,1,2,3:2:0:0:
261,142,49242,1,0,3:0:0:0:
165,331,49423,1,8,0:0:0:0:
203,51,49605,1,8,3:2:0:0:
400,224,49787,5,0,3:0:0:0:
327,318,49969,1,2,3:2:0:0:
264,205,50151,2,0,L|259:108,1,95,8|0,0:0|3:0,0:0:0:0:
188,272,50514,1,0,3:2:0:0:
92,143,50696,1,0,3:0:0:0:
31,262,50878,2,0,L|26:356,1,95,8|0,0:0|3:0,0:0:0:0:
208,188,51242,6,0,L|228:284,1,95,0|0,3:0|3:0,0:0:0:0:
357,95,51605,2,0,L|337:191,1,95,0|0,3:0|0:0,0:0:0:0:
149,249,51969,2,0,P|130:199|131:151,1,95,0|0,3:0|3:0,3:0:0:0:
314,342,52332,2,0,P|333:292|332:244,1,95,0|0,3:0|0:0,0:0:0:0:
195,117,52696,5,0,3:0:0:0:
287,239,52878,1,0,3:0:0:0:
370,101,53060,1,8,0:0:0:0:
185,66,53242,1,0,3:0:0:0:
299,278,53423,1,0,3:0:0:0:
383,68,53605,1,0,3:0:0:0:
464,280,53787,1,8,0:0:0:0:
246,167,53969,1,0,3:0:0:0:
372,259,54151,5,0,3:0:0:0:
444,136,54332,1,0,3:0:0:0:
312,81,54514,2,0,P|263:66|202:58,1,95,8|0,0:0|3:0,0:0:0:0:
98,92,54878,1,2,3:2:0:0:
223,33,55060,1,0,3:0:0:0:
201,258,55242,1,8,3:2:0:0:
408,118,55423,1,8,3:2:0:0:
373,320,55605,5,0,3:0:0:0:
464,233,55787,1,0,3:0:0:0:
321,152,55969,2,0,P|286:209|280:253,1,95,8|0,0:0|0:0,0:0:0:0:
240,314,56332,1,2,3:2:0:0:
117,195,56514,1,0,3:0:0:0:
201,113,56696,2,0,P|143:92|92:84,1,95,8|0,0:0|3:0,0:0:0:0:
276,219,57060,5,0,3:0:0:0:
368,336,57242,1,0,3:0:0:0:
460,154,57423,1,8,0:0:0:0:
447,336,57605,1,2,3:2:0:0:
355,112,57787,1,0,3:0:0:0:
295,294,57969,1,8,0:0:0:0:
190,68,58151,1,8,3:2:0:0:
70,329,58332,1,0,3:0:0:0:
221,192,58514,5,4,3:2:0:0:
197,340,58696,1,0,3:0:0:0:
75,212,58878,2,0,L|64:112,1,95,8|0,0:0|3:0,0:0:0:0:
95,293,59242,1,0,3:0:0:0:
182,147,59423,1,2,3:2:0:0:
287,245,59605,2,0,L|297:339,1,95,8|0,0:0|3:0,0:0:0:0:
283,161,59969,5,0,3:0:0:0:
401,75,60151,1,0,3:0:0:0:
216,51,60332,2,0,P|163:46|115:60,1,95,8|2,0:0|3:2,0:0:0:0:
154,197,60696,1,0,3:0:0:0:
256,76,60878,1,0,3:0:0:0:
343,230,61060,2,0,P|352:280|359:336,1,95,8|0,0:0|3:0,0:0:0:0:
335,140,61423,5,2,3:2:0:0:
121,183,61605,1,2,3:2:0:0:
268,314,61787,2,0,P|328:293|360:286,1,95,8|0,0:0|3:0,0:0:0:0:
177,171,62151,2,0,P|117:150|85:143,1,95,0|0,3:0|3:0,0:0:0:0:
261,91,62514,1,8,0:0:0:0:
355,152,62696,1,0,3:0:0:0:
405,50,62878,5,0,3:0:0:0:
464,221,63060,1,0,3:0:0:0:
289,153,63242,1,8,0:0:0:0:
377,316,63423,1,2,3:2:0:0:
176,304,63605,5,8,3:2:0:0:
439,158,63787,1,0,3:0:0:0:
121,84,63969,5,8,3:2:0:0:
356,237,64151,2,0,L|418:228,1,47.5,0|0,3:0|3:0,3:0:0:0:
245,44,64332,5,0,3:0:0:0:
245,44,64423,1,0,3:0:0:0:
245,44,64514,2,0,L|249:111,1,47.5,0|0,3:0|3:0,3:0:0:0:
92,205,64696,2,0,P|142:193|186:197,1,95,8|0,0:0|3:0,0:0:0:0:
277,348,65060,1,2,3:2:0:0:
343,178,65242,1,0,3:0:0:0:
409,339,65423,1,8,0:0:0:0:
323,93,65605,1,0,3:0:0:0:
222,249,65787,5,0,3:0:0:0:
201,211,65878,1,0,3:0:0:0:
199,168,65969,1,0,3:0:0:0:
212,127,66060,1,0,3:0:0:0:
238,93,66151,1,8,0:0:0:0:
327,182,66332,2,0,P|378:175|427:175,1,95,0|0,3:0|0:0,0:0:0:0:
380,288,66696,1,0,3:0:0:0:
348,121,66878,1,8,3:2:0:0:
231,300,67060,1,0,3:0:0:0:
128,46,67242,5,0,3:0:0:0:
100,78,67332,1,0,3:0:0:0:
87,118,67423,1,0,3:0:0:0:
71,158,67514,1,0,3:0:0:0:
66,200,67605,1,8,0:0:0:0:
231,300,67787,2,2,P|225:250|204:204,1,95,2|0,0:0|0:0,0:0:0:0:
157,100,68151,1,0,3:0:0:0:
320,199,68332,2,0,P|326:149|347:103,1,95,8|0,0:0|3:0,0:0:0:0:
439,286,68696,5,0,3:0:0:0:
416,322,68787,1,0,3:0:0:0:
373,328,68878,1,0,3:0:0:0:
334,309,68969,1,0,3:0:0:0:
312,272,69060,5,8,0:0:0:0:
129,205,69242,1,0,3:0:0:0:
374,145,69423,1,0,3:0:0:0:
118,48,69605,1,8,3:2:0:0:
193,292,69787,1,8,3:2:0:0:
279,158,69969,1,8,3:2:0:0:
324,291,70151,6,0,B|373:283|373:283|398:168,1,128.249996086121,12|0,3:2|0:0,0:0:0:0:
397,152,70514,1,8,0:0:0:0:
288,192,70696,1,8,0:0:0:0:
241,46,70878,2,0,P|194:57|144:94,1,85.4999973907472,0|0,3:0|3:0,0:0:0:0:
318,270,71242,2,0,P|307:223|269:173,1,85.4999973907472,8|0,0:0|3:0,0:0:0:0:
171,268,71605,6,0,P|142:306|132:357,1,85.4999973907472,4|0,3:2|3:0,0:0:0:0:
142,168,71969,1,8,0:0:0:0:
211,342,72151,1,8,0:0:0:0:
280,213,72332,2,0,P|320:174|355:160,1,85.4999973907472,8|0,3:2|3:0,0:0:0:0:
210,95,72696,2,0,P|157:76|117:80,1,85.4999973907472,8|0,0:0|3:0,0:0:0:0:
38,179,73060,5,8,0:0:0:0:
232,90,73242,1,8,0:0:0:0:
177,277,73514,1,8,0:0:0:0:
177,277,73605,1,8,0:0:0:0:
327,160,73787,1,8,0:0:0:0:
126,115,73969,1,0,3:0:0:0:
309,32,74151,1,8,0:0:0:0:
270,241,74332,1,0,3:0:0:0:
432,68,74514,5,8,0:0:0:0:
477,322,74696,1,8,0:0:0:0:
319,151,74969,1,8,0:0:0:0:
319,151,75060,1,8,0:0:0:0:
263,319,75242,1,8,0:0:0:0:
155,140,75423,1,0,3:0:0:0:
412,188,75605,1,8,0:0:0:0:
248,43,75787,1,0,3:0:0:0:
169,268,75969,6,0,L|149:93,1,170.999994781494,4|0,3:2|0:0,0:0:0:0:
145,60,76514,1,8,0:0:0:0:
268,154,76696,1,0,3:0:0:0:
82,176,76878,1,0,3:0:0:0:
252,262,77060,1,8,0:0:0:0:
228,37,77242,1,0,0:0:0:0:
389,130,77423,5,4,0:0:0:0:
264,195,77605,2,0,P|253:253|250:296,1,85.4999973907472,2|0,0:0|0:0,0:0:0:0:
168,88,77969,1,8,0:0:0:0:
258,234,78151,1,2,0:0:0:0:
59,194,78332,1,0,3:0:0:0:
251,331,78514,1,8,0:0:0:0:
182,128,78696,1,0,3:0:0:0:
346,260,78878,5,4,0:0:0:0:
291,68,79060,1,8,0:0:0:0:
248,306,79332,5,0,3:0:0:0:
248,306,79423,1,8,0:0:0:0:
371,120,79605,1,0,3:0:0:0:
371,120,79696,1,8,0:0:0:0:
371,120,79787,1,0,3:0:0:0:
382,340,79969,1,8,0:0:0:0:
246,83,80151,1,0,3:0:0:0:
123,262,80332,5,4,0:0:0:0:
334,191,80514,1,8,0:0:0:0:
180,129,80696,1,2,0:0:0:0:
180,129,80787,1,0,3:0:0:0:
180,129,80878,1,8,0:0:0:0:
282,338,81060,1,8,0:0:0:0:
352,157,81242,2,0,L|365:111,1,42.7499986953736,0|0,3:0|3:0,3:0:0:0:
249,44,81423,2,0,L|298:36,2,42.7499986953736,0|0|0,3:0|3:0|3:0,3:0:0:0:
288,240,81787,6,0,B|243:231|243:231|216:271|142:254|171:181,1,170.999994781494,4|0,0:0|0:0,0:0:0:0:
207,29,82332,2,0,L|186:119,1,85.4999973907472,8|0,0:0|3:0,0:0:0:0:
304,91,82696,1,0,3:0:0:0:
455,60,82878,1,8,0:0:0:0:
392,195,83060,1,2,0:0:0:0:
304,43,83242,6,0,L|210:28,1,85.4999973907472,4|0,0:0|0:0,0:0:0:0:
188,37,83787,2,0,P|167:84|155:134,1,85.4999973907472,8|0,0:0|0:0,0:0:0:0:
133,216,84151,1,0,3:0:0:0:
82,49,84332,1,8,0:0:0:0:
261,217,84514,1,0,3:0:0:0:
362,33,84696,5,4,0:0:0:0:
448,132,84878,2,0,P|392:132|318:179,1,128.249996086121
223,195,85242,2,0,P|269:187|326:184,1,85.4999973907472,8|0,0:0|0:0,0:0:0:0:
110,215,85605,1,0,3:0:0:0:
166,35,85787,2,0,P|196:81|208:124,1,85.4999973907472,8|0,0:0|0:0,0:0:0:0:
240,199,86151,5,0,3:0:0:0:
318,145,86332,1,0,3:0:0:0:
342,244,86514,1,0,3:0:0:0:
439,204,86696,1,8,0:0:0:0:
322,111,86878,1,0,3:0:0:0:
322,111,86969,1,8,3:2:0:0:
322,111,87060,2,0,L|325:166,1,42.7499986953736,0|0,3:0|3:0,3:0:0:0:
211,214,87242,1,8,3:2:0:0:
194,194,87332,1,0,3:0:0:0:
186,169,87423,1,0,3:0:0:0:
185,143,87514,1,0,3:0:0:0:
188,117,87605,6,0,B|120:142|120:142|93:245,1,170.999994781494,4|0,0:0|0:0,0:0:0:0:
292,261,88151,2,0,P|236:235|202:225,1,85.4999973907472,8|0,0:0|0:0,0:0:0:0:
277,157,88514,1,0,3:0:0:0:
377,64,88696,2,0,L|389:168,1,85.4999973907472,8|0,0:0|0:0,0:0:0:0:
386,289,89060,6,0,B|341:276|341:276|289:297|289:297|216:275,1,170.999994781494,4|0,0:0|0:0,0:0:0:0:
87,226,89605,1,8,0:0:0:0:
87,226,89969,1,0,3:0:0:0:
33,121,90151,1,8,0:0:0:0:
222,171,90332,1,0,3:0:0:0:
75,320,90514,5,4,0:0:0:0:
121,161,90696,1,0,3:0:0:0:
252,309,90878,2,0,P|295:291|348:291,1,85.4999973907472,8|0,0:0|0:0,0:0:0:0:
345,136,91242,1,2,0:0:0:0:
316,142,91332,1,2,0:0:0:0:
293,161,91423,1,0,3:0:0:0:
275,185,91514,1,2,0:0:0:0:
264,213,91605,2,0,P|219:199|176:170,1,85.4999973907472,8|0,0:0|0:0,0:0:0:0:
156,62,91969,5,0,3:0:0:0:
64,183,92151,1,0,3:0:0:0:
282,123,92332,1,8,0:0:0:0:
282,123,92423,1,0,3:0:0:0:
282,123,92514,2,0,L|274:179,1,42.7499986953736,0|0,3:0|3:0,3:0:0:0:
253,319,92696,1,8,0:0:0:0:
463,48,92969,1,8,0:0:0:0:
468,288,93242,1,8,0:0:0:0:
314,81,93423,5,4,0:0:0:0:
238,278,93605,1,0,3:0:0:0:
119,73,93787,1,0,3:0:0:0:
315,204,93969,1,8,0:0:0:0:
127,332,94151,1,0,3:0:0:0:
359,352,94332,1,0,3:0:0:0:
186,184,94514,1,0,3:0:0:0:
396,246,94696,1,0,3:0:0:0:
308,39,94878,5,8,0:0:0:0:
246,299,95060,2,0,L|232:201,1,95,8|0,0:0|3:0,0:0:0:0:
191,49,95423,1,8,0:0:0:0:
85,273,95605,1,8,0:0:0:0:
280,109,95787,1,0,3:0:0:0:
272,348,95969,1,8,0:0:0:0:
100,120,96151,1,0,3:0:0:0:
376,176,96332,5,8,0:0:0:0:
141,262,96514,1,0,3:0:0:0:
394,265,96696,1,0,3:0:0:0:
158,94,96878,1,8,0:0:0:0:
431,192,97060,1,0,3:0:0:0:
136,304,97242,1,0,3:0:0:0:
346,116,97423,1,0,3:0:0:0:
346,116,97514,1,0,3:0:0:0:
346,116,97605,1,0,3:0:0:0:
267,338,97787,5,8,0:0:0:0:
230,52,97969,2,0,L|206:162,1,95,8|0,0:0|3:0,0:0:0:0:
177,292,98332,1,8,0:0:0:0:
137,78,98514,1,8,0:0:0:0:
47,214,98696,1,0,3:0:0:0:
323,152,98878,1,8,0:0:0:0:
247,55,99060,1,0,3:0:0:0:
172,277,99242,5,8,0:0:0:0:
354,83,99423,1,0,3:0:0:0:
398,288,99605,1,0,3:0:0:0:
193,123,99787,1,8,0:0:0:0:
471,199,99969,1,0,3:0:0:0:
220,240,100151,1,0,3:0:0:0:
380,41,100332,1,0,3:0:0:0:
413,305,100514,1,0,3:0:0:0:
174,115,100696,5,8,0:0:0:0:
473,222,100878,1,8,0:0:0:0:
298,211,101060,1,0,3:0:0:0:
428,79,101242,1,8,0:0:0:0:
264,352,101423,1,8,0:0:0:0:
224,111,101605,1,0,3:0:0:0:
98,311,101787,1,8,0:0:0:0:
56,60,101969,1,0,3:0:0:0:
332,159,102151,5,8,0:0:0:0:
97,203,102332,1,0,3:0:0:0:
340,237,102514,1,0,3:0:0:0:
167,45,102696,1,8,0:0:0:0:
201,295,102878,1,0,3:0:0:0:
245,55,103060,1,0,3:0:0:0:
406,257,103242,1,8,0:0:0:0:
132,145,103423,1,0,3:0:0:0:
402,166,103605,5,8,0:0:0:0:
162,346,103787,2,0,L|180:240,1,95,8|0,0:0|3:0,0:0:0:0:
179,56,104151,1,8,0:0:0:0:
312,259,104332,1,8,0:0:0:0:
344,37,104514,1,0,3:0:0:0:
177,252,104696,1,8,0:0:0:0:
177,252,104787,1,0,3:0:0:0:
177,252,104878,1,0,3:0:0:0:
177,252,104969,1,0,3:0:0:0:
177,252,105060,5,12,0:0:0:0:
256,39,105242,1,0,3:0:0:0:
296,263,105423,1,0,3:0:0:0:
147,44,105605,1,8,0:0:0:0:
102,269,105787,1,0,3:0:0:0:
230,132,105969,1,0,3:0:0:0:
255,358,106151,1,8,0:0:0:0:
222,58,106332,1,0,3:0:0:0:
51,175,106514,5,0,3:0:0:0:
330,244,106696,1,8,0:0:0:0:
91,52,106878,1,0,3:0:0:0:
399,55,107060,1,0,3:0:0:0:
399,55,107151,1,0,3:0:0:0:
399,55,107242,1,8,0:0:0:0:
234,332,107423,1,0,3:0:0:0:
234,332,107514,1,0,3:0:0:0:
234,332,107605,1,8,0:0:0:0:
137,55,107787,1,0,3:0:0:0:
137,55,107878,1,0,3:0:0:0:
137,55,107969,5,8,0:0:0:0:
173,268,108151,1,0,3:0:0:0:
319,51,108332,1,0,3:0:0:0:
245,324,108514,1,8,0:0:0:0:
453,112,108696,1,0,3:0:0:0:
339,343,108878,1,0,3:0:0:0:
300,53,109060,1,8,0:0:0:0:
249,351,109242,1,0,3:0:0:0:
106,83,109423,5,0,3:0:0:0:
358,224,109605,1,8,0:0:0:0:
171,209,109787,1,0,3:0:0:0:
390,30,109969,2,0,L|377:121,1,47.5,0|0,3:0|3:0,3:0:0:0:
358,224,110151,1,8,0:0:0:0:
152,44,110514,1,8,0:0:0:0:
37,271,110878,5,12,0:0:0:0:
152,44,111060,1,0,3:0:0:0:
173,233,111242,1,0,3:0:0:0:
309,86,111423,1,8,0:0:0:0:
91,142,111605,1,0,3:0:0:0:
305,281,111787,1,0,3:0:0:0:
191,66,111969,1,8,0:0:0:0:
166,329,112151,1,0,3:0:0:0:
380,119,112332,5,0,3:0:0:0:
162,224,112514,2,0,L|182:123,1,95,8|0,0:0|3:0,0:0:0:0:
38,313,112878,1,0,3:0:0:0:
38,313,112969,1,0,3:0:0:0:
38,313,113060,1,8,0:0:0:0:
197,229,113242,1,0,3:0:0:0:
197,229,113333,1,0,3:0:0:0:
197,229,113424,1,8,0:0:0:0:
319,337,113605,1,0,3:0:0:0:
319,337,113696,1,0,3:0:0:0:
319,337,113787,5,8,0:0:0:0:
98,237,113969,1,0,3:0:0:0:
348,220,114151,1,0,3:0:0:0:
63,98,114332,1,8,0:0:0:0:
377,137,114514,1,0,3:0:0:0:
99,268,114696,1,0,3:0:0:0:
308,227,114878,1,8,0:0:0:0:
203,360,115060,1,0,3:0:0:0:
136,148,115242,6,0,L|124:72,2,63.3333333333333,8|0|0,0:0|3:0|3:0,0:0:0:0:
279,188,115605,2,0,L|269:250,2,63.3333333333333,8|0|0,0:0|3:0|3:0,0:0:0:0:
413,142,115969,2,0,L|403:79,2,63.3333333333333,8|0|0,0:0|3:0|3:0,0:0:0:0:
261,65,116332,2,8,L|270:134,1,47.5
125,267,116514,2,8,L|131:219,1,47.5
76,32,116696,6,0,P|58:88|48:136,1,95,4|0,0:0|3:0,0:0:0:0:
35,237,117060,5,8,3:2:0:0:
159,106,117242,1,0,3:2:0:0:
231,323,117423,5,8,3:2:0:0:
92,179,117605,1,0,3:2:0:0:
346,137,117787,5,8,3:2:0:0:
143,271,117969,1,0,3:2:0:0:
415,323,118151,5,8,3:2:0:0:
338,89,118332,1,0,3:2:0:0:
179,343,118514,5,8,3:2:0:0:
353,193,118696,1,0,3:2:0:0:
48,148,118878,5,8,3:2:0:0:
250,254,119060,1,0,3:2:0:0:
190,43,119242,5,8,3:2:0:0:
65,342,119423,1,0,3:2:0:0:
327,177,119605,5,8,3:2:0:0:
116,216,119787,1,0,3:0:0:0:
287,358,119969,5,8,3:2:0:0:
222,188,120151,1,0,3:0:0:0:
469,238,120332,5,8,3:2:0:0:
280,281,120514,1,0,3:0:0:0:
437,55,120696,5,8,3:2:0:0:
359,341,120878,1,0,3:0:0:0:
152,176,121060,5,8,3:2:0:0:
363,118,121242,1,0,3:0:0:0:
142,340,121423,5,8,3:2:0:0:
302,229,121605,1,0,3:0:0:0:
29,149,121787,5,8,3:2:0:0:
225,264,121969,1,8,3:2:0:0:
149,45,122151,1,8,3:2:0:0:
69,343,122332,1,8,3:2:0:0:
274,57,122514,5,12,3:2:0:0:
337,247,122696,1,0,3:0:0:0:
117,206,122878,5,8,3:2:0:0:
312,155,123060,1,0,3:0:0:0:
150,351,123242,5,8,3:2:0:0:
233,138,123423,1,0,3:0:0:0:
421,342,123605,5,8,3:2:0:0:
112,249,123787,1,0,3:0:0:0:
402,193,123969,5,8,3:2:0:0:
223,346,124151,1,0,3:0:0:0:
253,69,124332,5,8,3:2:0:0:
146,295,124514,1,0,3:0:0:0:
449,171,124696,5,8,3:2:0:0:
243,326,124878,1,0,3:0:0:0:
229,43,125060,5,8,3:2:0:0:
331,328,125242,1,0,3:0:0:0:
429,71,125423,5,8,3:2:0:0:
260,151,125605,1,0,3:0:0:0:
469,334,125787,5,8,3:2:0:0:
265,252,125969,1,0,3:0:0:0:
428,106,126151,5,8,3:2:0:0:
317,317,126332,1,0,3:0:0:0:
164,113,126514,5,8,3:2:0:0:
224,330,126696,1,0,3:0:0:0:
291,63,126878,5,8,3:2:0:0:
113,136,127060,1,0,3:0:0:0:
414,165,127242,5,8,3:2:0:0:
213,125,127423,1,0,3:0:0:0:
428,361,127605,5,8,3:2:0:0:
305,167,127787,1,8,3:2:0:0:
249,360,127969,2,0,P|239:306|219:244,1,95,8|0,3:2|0:0,0:0:0:0:
31,111,128332,6,0,B|76:92|122:141|122:141|162:176|221:161,1,190,4|0,0:0|0:0,0:0:0:0:
382,130,128878,1,8,0:0:0:0:
237,163,129060,1,0,3:0:0:0:
388,211,129242,1,0,3:0:0:0:
236,270,129423,1,8,0:0:0:0:
307,108,129605,1,0,3:0:0:0:
314,299,129787,6,0,P|245:270|212:272,1,85.4999973907472,4|0,0:0|0:0,0:0:0:0:
77,266,130332,1,8,0:0:0:0:
209,268,130514,1,0,3:0:0:0:
66,140,130696,1,0,3:0:0:0:
263,201,130878,1,8,0:0:0:0:
201,28,131060,1,0,3:0:0:0:
332,166,131242,6,0,P|388:149|420:146,1,85.4999973907472,4|0,0:0|0:0,0:0:0:0:
241,233,131787,1,8,0:0:0:0:
320,79,131969,1,0,3:0:0:0:
320,79,132060,1,0,3:0:0:0:
320,79,132151,1,0,3:0:0:0:
384,261,132332,1,8,0:0:0:0:
384,261,132423,1,0,3:0:0:0:
384,261,132514,1,0,3:0:0:0:
237,144,132696,5,0,3:0:0:0:
443,205,132878,2,0,P|462:256|466:292,1,85.4999973907472,8|0,0:0|0:0,0:0:0:0:
468,307,133151,1,0,3:0:0:0:
468,307,133242,1,8,0:0:0:0:
415,131,133423,1,8,0:0:0:0:
317,241,133605,1,0,3:0:0:0:
317,241,133696,1,8,0:0:0:0:
268,44,133969,1,8,0:0:0:0:
136,220,134151,5,2,0:0:0:0:
