osu file format v14

[General]
AudioFilename: audio.mp3
AudioLeadIn: 0
PreviewTime: 21370
Countdown: 0
SampleSet: Soft
StackLeniency: 0.7
Mode: 0
LetterboxInBreaks: 0
WidescreenStoryboard: 0

[Editor]
Bookmarks: 22772
DistanceSpacing: 1
BeatDivisor: 4
GridSize: 8
TimelineZoom: 1.6

[Metadata]
Title:Good Morning
TitleUnicode:Good Morning
Artist:Jami Lynne
ArtistUnicode:Jami Lynne
Creator:Ilay
Version:One more day...
Source:OMORI
Tags:Aubrey Sunny Hero Mari Kel Basil electronic chiptune video game vgm music final good ending song instrumental videogame ost orignal soundtrack sound track omocat
BeatmapID:3455822
BeatmapSetID:1691148

[Difficulty]
HPDrainRate:5
CircleSize:4
OverallDifficulty:6.5
ApproachRate:7
SliderMultiplier:2.2
SliderTickRate:1

[Events]
//Background and Video events
0,0,"BG.jpg",0,0
//Break Periods
//Storyboard Layer 0 (Background)
//Storyboard Layer 1 (Fail)
//Storyboard Layer 2 (Pass)
//Storyboard Layer 3 (Foreground)
//Storyboard Layer 4 (Overlay)
//Storyboard Sound Samples

[TimingPoints]
37,666.666666666667,4,2,1,25,1,0
1370,666.666666666667,4,2,1,25,1,0
1370,-100,4,2,1,40,0,0
2203,-100,4,2,1,5,0,0
2370,-100,4,2,1,40,0,0
2536,-100,4,2,1,5,0,0
2703,-100,4,2,1,40,0,0
4537,-100,4,2,1,5,0,0
4703,-100,4,2,1,40,0,0
5203,-100,4,2,1,5,0,0
5370,-100,4,2,1,40,0,0
7536,-100,4,2,1,5,0,0
7703,-100,4,2,1,40,0,0
7870,-100,4,2,1,5,0,0
8036,-100,4,2,1,40,0,0
8537,-100,4,2,1,5,0,0
8703,-166.666666666667,4,2,1,40,0,0
9203,-166.666666666667,4,2,1,5,0,0
9370,-500,4,2,1,40,0,0
10370,-500,4,2,1,5,0,0
10703,-100,4,2,1,40,0,0
12870,-100,4,2,1,5,0,0
13037,-100,4,2,1,40,0,0
13203,-100,4,2,1,5,0,0
13370,-100,4,2,1,40,0,0
15536,-100,4,2,1,5,0,0
15703,-100,4,2,1,40,0,0
15870,-100,4,2,1,5,0,0
16036,-100,4,2,1,40,0,0
16537,-100,4,2,1,5,0,0
16703,-100,4,2,1,40,0,0
17203,-100,4,2,1,5,0,0
17370,-200,4,2,1,40,0,0
21370,-166.666666666667,4,2,1,40,0,0
21870,-166.666666666667,4,2,1,5,0,0
22037,-100,4,2,1,40,0,0
22537,-100,4,2,1,5,0,0
22703,-83.3333333333333,4,2,1,50,0,1
37870,-83.3333333333333,4,2,1,5,0,1
38037,-83.3333333333333,4,2,1,50,0,1
38537,-83.3333333333333,4,2,1,5,0,1
38703,-125,4,2,1,50,0,1
40037,-100,4,2,1,50,0,1
41370,-83.3333333333333,4,2,1,50,0,1
42703,-166.666666666667,4,2,1,50,0,1
43203,-166.666666666667,4,2,1,5,0,1
43370,-100,4,2,1,50,0,1
43870,-100,4,2,1,5,0,1
44037,-83.3333333333333,4,2,1,50,0,1
59203,-83.3333333333333,4,2,1,5,0,1
59370,-83.3333333333333,4,2,1,50,0,1
59870,-83.3333333333333,4,2,1,5,0,1
60037,-125,4,2,1,50,0,1
61370,-100,4,2,1,50,0,1
62703,-83.3333333333333,4,2,1,50,0,1
65370,-125,4,2,1,40,0,0
83870,-125,4,2,1,5,0,0
84036,-125,4,2,1,40,0,0
86703,-83.3333333333333,4,2,1,50,0,1
100037,-83.3333333333333,4,2,1,35,0,1
101870,-83.3333333333333,4,2,1,5,0,1
102037,-83.3333333333333,4,2,1,35,0,1
102537,-83.3333333333333,4,2,1,5,0,1
102703,-166.666666666667,4,2,1,35,0,0
103370,-166.666666666667,4,2,1,30,0,0
104037,-166.666666666667,4,2,1,25,0,0
104703,-166.666666666667,4,2,1,20,0,0
105370,-166.666666666667,4,2,1,15,0,0
106037,-166.666666666667,4,2,1,10,0,0
106703,-166.666666666667,4,2,1,5,0,0

[Colours]
Combo1 : 167,83,242
Combo2 : 219,219,219
Combo3 : 85,223,140
Combo4 : 248,165,39
Combo5 : 61,164,248
Combo6 : 235,139,237

[HitObjects]
27,350,37,5,2,0:2:0:0:
347,205,703,1,2,0:2:0:0:
0,20,1370,6,0,B|53:-23|129:-8|151:74|138:87|125:99|133:141|173:156,1,275,6|0,0:2|0:2,0:2:0:0:
169,235,2370,2,0,P|196:235|219:221,1,55,2|0,0:2|0:2,0:2:0:0:
254,155,2703,5,2,0:2:0:0:
427,114,3037,1,2,0:2:0:0:
388,278,3370,5,2,0:2:0:0:
297,255,3703,1,2,0:2:0:0:
448,383,4036,6,0,P|469:303|504:228,1,165,2|0,0:2|0:2,0:2:0:0:
474,145,4703,2,0,P|395:142|357:211,1,165,0|0,0:2|0:2,0:2:0:0:
388,278,5370,5,2,0:2:0:0:
238,182,5703,1,2,0:2:0:0:
291,336,6037,2,0,P|237:342|183:355,1,110,2|2,0:2|0:2,0:2:0:0:
52,280,6703,6,0,B|32:187|121:155|103:186|192:154|172:61,1,275,2|0,0:2|0:2,0:2:0:0:
81,38,7703,2,0,P|82:65|97:88,1,55,2|0,0:2|0:2,0:2:0:0:
136,247,8037,6,0,P|214:240|270:296,1,165,2|0,0:2|0:2,0:2:0:0:
344,271,8703,2,0,P|354:318|324:356,1,98.9999969787599,2|0,0:2|0:2,0:2:0:0:
197,378,9370,6,0,P|195:345|186:313,1,66,2|0,0:2|0:2,0:2:0:0:
131,46,10703,6,0,P|75:30|24:19,1,110,2|2,0:2|0:2,0:2:0:0:
216,171,11370,2,0,P|272:155|322:144,1,110,2|2,0:2|0:2,0:2:0:0:
31,112,12037,6,0,P|-5:238|92:325,1,275,2|0,0:2|0:2,0:2:0:0:
142,384,13037,2,0,P|169:379|187:359,1,55,2|0,0:2|0:2,0:2:0:0:
226,294,13370,5,2,0:2:0:0:
177,161,13703,1,2,0:2:0:0:
320,268,14037,5,2,0:2:0:0:
343,194,14370,1,2,0:2:0:0:
512,239,14703,6,0,B|419:214|382:302|415:285|380:373|287:350,1,275,2|0,0:2|0:2,0:2:0:0:
221,384,15703,2,0,P|199:365|192:339,1,55,2|0,0:2|0:2,0:2:0:0:
193,97,16037,6,0,P|266:128|260:202,1,165,2|0,0:2|0:2,0:2:0:0:
19,159,16703,2,0,P|40:84|118:82,1,165,2|0,0:2|0:2,0:2:0:0:
196,253,17370,6,0,B|139:266|114:320|114:320|109:260|60:229,2,220,6|2|2,0:2|0:2|0:2,0:2:0:0:
441,152,21370,6,0,P|477:120|476:73,1,98.9999999999998,2|0,3:2|2:2,2:2:0:0:
424,14,22037,2,0,P|362:63|363:143,1,165,2|0,3:2|2:2,2:2:0:0:
386,286,22703,6,0,B|427:291|450:257|434:264|458:229|499:235,2,132,6|0|0,3:2|2:2|3:2,2:2:0:0:
292,188,23703,1,2,2:2:0:0:
169,303,24037,5,2,3:2:0:0:
92,238,24370,1,2,2:2:0:0:
78,372,24703,5,2,3:2:0:0:
182,168,25037,1,2,2:2:0:0:
2,128,25370,6,0,P|-17:187|11:246,1,132,2|0,3:2|2:2,2:2:0:0:
182,168,26037,2,0,P|171:102|159:37,1,131.99999597168,0|0,3:2|2:2,2:2:0:0:
316,220,26703,5,2,3:2:0:0:
359,61,27037,1,2,2:2:0:0:
339,326,27370,5,2,3:2:0:0:
309,215,27703,1,2,2:2:0:0:
474,384,28037,6,0,P|488:319|507:256,2,131.99999597168,2|0|0,3:2|2:2|3:2,2:2:0:0:
421,269,29037,2,0,P|432:236|437:205,1,65.9999979858399,2|0,2:2|2:2,2:2:0:0:
405,114,29370,6,0,P|342:97|288:132,1,132,2|0,3:2|2:2,2:2:0:0:
168,278,30037,2,0,P|114:312|52:296,1,132,2|0,3:2|2:2,2:2:0:0:
166,0,30703,2,0,P|221:172|272:382,1,396,2|0,3:2|0:2,2:2:0:0:
271,381,32037,5,2,3:2:0:0:
144,335,32370,1,2,2:2:0:0:
313,320,32703,5,2,3:2:0:0:
240,212,33037,1,2,2:2:0:0:
419,217,33370,6,0,P|427:151|441:87,2,132,2|0|0,3:2|2:2|3:2,2:2:0:0:
352,102,34370,2,0,P|348:134|341:166,1,66,2|0,2:2|2:2,2:2:0:0:
319,243,34703,5,2,3:2:0:0:
446,300,35037,1,2,2:2:0:0:
297,342,35370,5,2,3:2:0:0:
385,381,35704,1,2,2:2:0:0:
201,199,36037,6,0,B|157:200|140:237|154:228|135:266|94:267,2,132,2|0|0,3:2|0:2|3:2,0:2:0:0:
171,320,37037,2,0,P|179:352|184:384,1,66,2|0,2:2|2:2,2:2:0:0:
241,264,37370,6,0,P|147:233|52:205,1,198,2|0,3:2|2:2,2:2:0:0:
0,149,38037,2,0,P|24:59|120:54,1,198,2|0,3:2|2:2,2:2:0:0:
188,79,38703,6,0,P|165:115|124:129,1,88,2|0,3:2|2:2,2:2:0:0:
270,211,39370,2,0,P|293:175|334:161,1,88,0|0,3:2|2:2,2:2:0:0:
112,110,40037,6,0,P|100:58|133:16,1,110,0|0,3:2|2:2,2:2:0:0:
344,178,40703,2,0,P|355:229|322:271,1,110,0|0,3:2|2:2,2:2:0:0:
265,0,41370,6,0,P|216:167|159:382,1,396,2|0,3:2|0:2,2:2:0:0:
159,381,42703,6,0,L|133:262,1,98.9999999999998,2|0,3:2|2:2,2:2:0:0:
257,384,43370,2,0,L|219:213,1,165,2|0,3:2|2:2,2:2:0:0:
404,355,44037,6,0,P|464:344|498:283,2,132,6|0|0,3:2|2:2|3:2,2:2:0:0:
323,248,45037,1,2,2:2:0:0:
478,125,45370,5,2,3:2:0:0:
425,280,45703,1,2,2:2:0:0:
287,166,46037,5,2,3:2:0:0:
323,248,46370,1,2,2:2:0:0:
303,64,46703,6,0,P|239:65|195:111,1,132,2|0,3:2|2:2,2:2:0:0:
75,95,47370,2,0,P|54:155|85:212,1,132,0|0,3:2|2:2,2:2:0:0:
233,278,48037,5,2,3:2:0:0:
296,127,48370,1,2,2:2:0:0:
271,378,48703,5,2,3:2:0:0:
226,272,49037,1,2,2:2:0:0:
0,311,49370,6,0,B|42:312|60:350|46:341|62:378|104:380,2,132,2|0|0,3:2|2:2|3:2,2:2:0:0:
181,383,50370,2,0,P|178:351|158:326,1,66,2|0,2:2|2:2,2:2:0:0:
216,266,50703,6,0,P|217:202|265:160,1,132,2|0,3:2|2:2,2:2:0:0:
385,338,51370,2,0,P|430:292|427:229,1,132,2|0,3:2|2:2,2:2:0:0:
428,0,52037,2,0,P|356:158|272:363,1,395.999987915039,2|0,3:2|0:2,2:2:0:0:
272,363,53370,5,2,3:2:0:0:
172,384,53703,1,2,2:2:0:0:
232,257,54037,5,2,3:2:0:0:
87,208,54370,1,2,2:2:0:0:
277,61,54703,6,0,P|331:81|352:151,2,131.99999597168,2|0|0,3:2|2:2|3:2,2:2:0:0:
175,146,55703,2,0,P|144:134|111:129,1,66,2|0,2:2|2:2,2:2:0:0:
82,34,56036,5,2,3:2:0:0:
3,149,56370,1,2,2:2:0:0:
91,22,56703,5,2,3:2:0:0:
155,230,57037,1,2,2:2:0:0:
264,49,57370,6,0,B|305:41|330:75|314:69|337:102|379:96,2,132,2|0|0,3:2|2:2|3:2,2:2:0:0:
431,41,58370,2,0,P|450:66|454:99,1,66,2|0,2:2|2:2,2:2:0:0:
407,170,58703,6,0,P|380:261|355:361,1,198,2|0,3:2|2:2,2:2:0:0:
270,384,59370,2,0,P|197:326|225:237,1,198,2|0,3:2|2:2,2:2:0:0:
318,198,60037,6,0,P|305:240|294:282,1,88,2|0,3:2|2:2,2:2:0:0:
127,241,60703,2,0,P|139:198|150:156,1,88,0|0,3:2|2:2,2:2:0:0:
306,305,61370,6,0,P|344:347|394:352,1,110,0|0,3:2|2:2,2:2:0:0:
142,136,62036,2,0,P|103:93|53:88,1,110,0|0,3:2|2:2,2:2:0:0:
414,156,62703,6,0,L|36:276,1,396,2|0,3:2|0:2,2:2:0:0:
36,276,64037,5,0,3:2:0:0:
55,350,64370,1,0,2:2:0:0:
182,310,64703,5,0,3:2:0:0:
163,384,65037,1,0,2:2:0:0:
391,306,65370,6,0,B|435:277|480:311|498:371|474:427|328:478|216:380|295:247|310:256|317:260|388:246|393:179|362:130|303:128,1,528,6|0,3:2|3:2,2:2:0:0:
286,140,67703,1,0,0:0:0:0:
128,106,68036,6,0,B|114:72|90:73|73:80|66:70|64:59|70:49|105:-7|199:-31|287:38|287:38|179:88|184:209,1,528,2|0,3:2|3:2,2:2:0:0:
204,231,70370,1,0,0:0:0:0:
0,276,70703,6,0,B|-19:299|-19:299|120:262,1,176,2|0,3:2|3:2,2:2:0:0:
129,258,71703,1,0,2:2:0:0:
213,366,72037,6,0,B|225:370|235:382|235:382|284:378|320:319|281:269,1,176,2|0,3:2|3:2,2:2:0:0:
275,263,73037,1,0,2:2:0:0:
405,326,73370,6,0,P|423:239|458:158,1,176,2|0,3:2|3:2,2:2:0:0:
461,153,74370,1,0,2:2:0:0:
324,40,74703,6,0,B|281:43|262:81|279:124|308:132|312:128|317:124|346:131|349:164,1,176,2|0,3:2|3:2,2:2:0:0:
347,172,75703,1,0,2:2:0:0:
222,361,76037,6,0,B|155:355|97:310|81:202|157:126|267:132|309:198|299:242|264:272|223:269,1,440,6|0,3:2|2:2,2:2:0:0:
217,265,78037,1,0,3:2:0:0:
74,163,78370,1,0,2:2:0:0:
258,43,78703,6,0,B|293:6|363:31|358:107|291:145|277:101|247:120|237:150|237:150|238:118|216:84|192:131|141:77|151:3|217:1|237:21,1,440,2|0,3:2|2:2,2:2:0:0:
244,12,80703,1,0,3:2:0:0:
336,136,81036,1,0,0:0:0:0:
500,184,81370,6,0,B|357:216|219:269|219:269|226:301|207:326,1,352,2|0,3:2|3:2,2:2:0:0:
200,333,83036,1,0,2:2:0:0:
119,220,83370,6,0,P|79:270|90:334,1,132,2|0,3:2|2:2,2:2:0:0:
95,343,84037,2,0,P|47:351|10:367,1,88,2|0,3:2|2:2,2:2:0:0:
194,187,84703,2,0,P|241:178|278:162,1,88,2|0,3:2|2:2,2:2:0:0:
64,8,85370,5,0,3:2:0:0:
2,97,85703,1,0,2:2:0:0:
143,37,86036,5,0,3:2:0:0:
122,143,86370,1,0,2:2:0:0:
283,74,86703,6,0,P|298:138|314:202,2,132,6|0|0,3:2|2:2|3:2,2:2:0:0:
426,118,87703,1,2,2:2:0:0:
336,289,88037,5,2,3:2:0:0:
314,202,88369,1,2,2:2:0:0:
398,384,88703,5,2,3:2:0:0:
433,242,89036,1,2,2:2:0:0:
243,335,89370,6,0,P|227:270|211:206,1,132,2|0,3:2|2:2,2:2:0:0:
105,375,90037,2,0,P|89:310|73:246,1,132,0|0,3:2|2:2,2:2:0:0:
186,95,90703,5,2,3:2:0:0:
27,52,91037,1,2,2:2:0:0:
292,72,91370,5,2,3:2:0:0:
181,102,91703,1,2,2:2:0:0:
347,241,92037,6,0,P|379:184|367:120,2,132,2|0|0,3:2|2:2|3:2,2:2:0:0:
234,190,93037,2,0,P|259:170|292:167,1,66,2|0,2:2|2:2,2:2:0:0:
235,302,93370,6,0,P|188:259|124:264,1,132,2|0,3:2|2:2,2:2:0:0:
361,92,94037,2,0,P|407:135|471:130,1,132,2|0,3:2|2:2,2:2:0:0:
264,20,94703,2,0,B|190:136|295:224|286:173|392:260|318:377,1,396,2|0,3:2|0:2,2:2:0:0:
319,376,96037,5,2,3:2:0:0:
433,334,96369,1,2,2:2:0:0:
236,298,96703,5,2,3:2:0:0:
346,134,97036,1,2,2:2:0:0:
148,223,97370,6,0,P|134:157|114:95,2,132,2|0|0,3:2|2:2|3:2,2:2:0:0:
48,150,98370,2,0,P|57:181|64:213,1,66,2|0,2:2|2:2,2:2:0:0:
125,299,98703,5,2,3:2:0:0:
25,330,99037,1,2,2:2:0:0:
181,384,99370,5,2,3:2:0:0:
14,330,99703,1,2,2:2:0:0:
225,268,100037,6,0,B|223:225|259:205|251:220|288:198|286:157,2,132,2|0|0,3:2|2:2|3:2,2:2:0:0:
361,158,101037,2,0,P|356:125|335:101,1,66,2|0,2:2|2:2,2:2:0:0:
231,108,101370,6,0,P|254:204|274:301,1,198,2|0,3:2|2:2,2:2:0:0:
225,365,102037,2,0,P|133:357|109:267,1,198,2|0,3:2|2:2,2:2:0:0:
231,108,102703,6,0,B|225:92|230:76|230:76|242:85|256:87|251:78|278:79|291:100|291:100|282:62|323:43|323:43|321:58|327:71|331:62|344:86|332:108|332:108|362:81|398:108|398:108|385:113|376:124|386:123|372:147|347:147|347:147|384:161|381:205|381:205|368:196|354:193|360:201|332:201|320:179|320:179|328:219|287:237|287:237|289:222|283:209|279:218|266:194|278:173|278:173|246:199|212:173|212:173|225:167|235:156|225:157|239:133|264:133,1,791.999975830079,2|0,3:2|2:2,2:2:0:0:
