osu file format v14

[General]
AudioFilename: audio.mp3
AudioLeadIn: 0
PreviewTime: 21370
Countdown: 0
SampleSet: Soft
StackLeniency: 0.7
Mode: 0
LetterboxInBreaks: 0
WidescreenStoryboard: 1

[Editor]
Bookmarks: 22772,107355
DistanceSpacing: 1.3
BeatDivisor: 4
GridSize: 32
TimelineZoom: 1.6

[Metadata]
Title:Good Morning
TitleUnicode:Good Morning
Artist:Jami Lynne
ArtistUnicode:Jami Lynne
Creator:Ilay
Version:Normal
Source:OMORI
Tags:Aubrey Sunny Hero Mari Kel Basil electronic chiptune video game vgm music final good ending song instrumental videogame ost orignal soundtrack sound track omocat
BeatmapID:3456966
BeatmapSetID:1691148

[Difficulty]
HPDrainRate:3
CircleSize:3
OverallDifficulty:4
ApproachRate:4
SliderMultiplier:1.4
SliderTickRate:1

[Events]
//Background and Video events
0,0,"BG.jpg",0,0
//Break Periods
2,17570,20050
//Storyboard Layer 0 (Background)
//Storyboard Layer 1 (Fail)
//Storyboard Layer 2 (Pass)
//Storyboard Layer 3 (Foreground)
//Storyboard Layer 4 (Overlay)
//Storyboard Sound Samples

[TimingPoints]
37,666.666666666667,4,2,1,25,1,0
1370,666.666666666667,4,2,1,40,1,0
1370,-111.111111111111,4,2,1,40,0,0
22703,-100,4,2,1,50,0,1
65370,-100,4,2,1,40,0,0
86703,-100,4,2,1,50,0,1
100036,-100,4,2,1,35,0,1
102703,-100,4,2,1,35,0,0
103370,-100,4,2,1,30,0,0
104037,-100,4,2,1,25,0,0
104703,-100,4,2,1,20,0,0
105370,-100,4,2,1,15,0,0
106037,-100,4,2,1,10,0,0
106703,-100,4,2,1,5,0,0

[Colours]
Combo1 : 167,83,242
Combo2 : 219,219,219
Combo3 : 85,223,140
Combo4 : 248,165,39
Combo5 : 61,164,248
Combo6 : 235,139,237

[HitObjects]
338,138,37,5,2,0:2:0:0:
202,46,703,1,2,0:2:0:0:
74,149,1370,6,0,P|51:246|114:305,1,188.999994232178,6|2,0:2|0:2,0:2:0:0:
189,311,2703,2,0,P|221:300|249:294,1,62.9999980773926,2|2,0:2|0:2,0:0:0:0:
313,345,3370,2,0,P|343:350|373:361,1,62.9999980773926,2|2,0:2|0:2,0:0:0:0:
435,307,4037,2,0,P|462:251|453:190,1,125.999996154785,2|0,0:2|0:2,0:2:0:0:
345,65,5370,1,2,0:0:0:0:
263,71,5703,1,2,0:0:0:0:
224,143,6036,2,0,P|223:175|239:200,1,62.9999980773926,2|2,0:2|0:2,0:2:0:0:
273,274,6703,6,0,P|252:341|145:356,1,188.999994232178,2|2,0:2|0:2,0:2:0:0:
78,308,8037,2,0,P|68:236|51:176,1,125.999996154785,2|2,0:2|0:2,0:2:0:0:
158,58,9370,2,0,B|232:76|186:104|261:123,1,125.999996154785,2|0,0:2|0:0,0:2:0:0:
419,82,10703,1,2,0:0:0:0:
488,124,11036,1,2,0:0:0:0:
490,206,11370,2,0,P|479:235|456:256,1,62.9999980773926,2|2,0:2|0:2,0:2:0:0:
414,327,12037,6,0,P|315:324|279:234,1,188.999994232178,2|2,0:2|0:2,0:2:0:0:
271,170,13370,2,0,P|233:163|210:153,1,62.9999980773926,2|2,0:2|0:2,0:0:0:0:
185,75,14036,2,0,P|147:81|124:91,1,62.9999980773926,2|2,0:2|0:2,0:0:0:0:
51,53,14703,2,0,P|32:143|19:239,1,188.999994232178,2|2,0:2|0:2,0:2:0:0:
61,309,16036,5,2,0:0:0:0:
211,374,16703,1,2,0:0:0:0:
300,236,17370,1,6,0:0:0:0:
18,92,21370,5,2,3:2:0:0:
104,236,22037,1,2,3:2:0:0:
258,169,22703,6,0,P|344:166|408:264,1,210,6|2,3:2|2:2,2:2:0:0:
360,330,24037,2,0,P|325:321|291:313,1,70,2|2,3:2|2:2,0:0:0:0:
216,349,24703,1,2,3:2:0:0:
154,291,25037,1,2,2:2:0:0:
78,326,25370,2,0,P|27:293|26:218,1,140,2|0,3:2|3:2,2:2:0:0:
156,114,26703,1,2,3:2:0:0:
219,169,27037,1,2,2:2:0:0:
285,118,27370,2,0,P|321:111|353:102,1,70,2|2,3:2|2:2,0:0:0:0:
433,78,28037,6,0,P|507:151|485:253,1,210,2|2,3:2|2:2,2:2:0:0:
405,244,29370,1,2,3:2:0:0:
304,378,30036,1,2,3:2:0:0:
182,261,30703,2,0,P|200:176|221:105,1,140,2|0,3:2|3:0,2:2:0:0:
99,2,32037,1,2,3:2:0:0:
27,45,32370,1,2,2:2:0:0:
52,125,32703,2,0,P|43:167|33:211,1,70,2|2,3:2|2:2,0:0:0:0:
20,276,33370,6,0,P|57:348|184:346,1,210,2|2,3:2|2:2,2:2:0:0:
230,290,34703,2,0,P|269:272|309:279,1,70,2|2,3:2|2:2,0:0:0:0:
353,334,35370,2,0,P|383:350|418:350,1,70,2|2,3:2|2:2,0:0:0:0:
479,292,36037,2,0,B|450:230|489:179|487:205|526:150|499:91,1,210,2|2,3:2|2:2,0:2:0:0:
428,47,37370,1,2,3:2:0:0:
302,158,38037,1,2,3:2:0:0:
213,15,38703,6,0,P|113:28|86:126,1,210,2|0,3:2|2:2,2:2:0:0:
130,192,40037,1,0,3:2:0:0:
10,309,40703,1,0,3:2:0:0:
165,372,41370,2,0,P|261:333|373:308,1,210,2|0,3:2|0:2,2:2:0:0:
446,291,42703,1,2,3:2:0:0:
495,130,43370,1,2,3:2:0:0:
352,41,44037,6,0,P|280:38|237:161,1,210,6|2,3:2|2:2,2:2:0:0:
286,214,45370,2,0,P|276:248|269:283,1,70,2|2,3:2|2:2,0:0:0:0:
250,363,46037,1,2,3:2:0:0:
168,383,46370,1,2,2:2:0:0:
99,334,46703,2,0,P|65:271|49:200,1,140,2|0,3:2|3:2,2:2:0:0:
131,58,48037,1,2,3:2:0:0:
210,29,48370,1,2,2:2:0:0:
261,94,48703,2,0,P|294:116|329:110,1,70,2|2,3:2|2:2,0:0:0:0:
380,52,49370,6,0,P|477:61|484:172,1,210,2|2,3:2|2:2,2:2:0:0:
415,189,50703,1,2,3:2:0:0:
510,327,51370,1,2,3:2:0:0:
345,360,52037,2,0,P|269:338|189:321,1,140,2|0,3:2|3:0,2:2:0:0:
49,375,53370,1,2,3:2:0:0:
9,301,53703,1,2,2:2:0:0:
78,253,54037,2,0,P|87:211|97:167,1,70,2|2,3:2|2:2,0:0:0:0:
66,104,54703,6,0,P|110:35|236:48,1,210,2|2,3:2|2:2,2:2:0:0:
273,110,56037,2,0,P|255:149|262:189,1,70,2|2,3:2|2:2,0:0:0:0:
195,232,56703,2,0,P|211:262|211:297,1,70,2|2,3:2|2:2,0:0:0:0:
279,346,57370,2,0,P|392:333|461:247,1,210,2|2,3:2|2:2,2:2:0:0:
474,184,58703,1,2,3:2:0:0:
416,26,59370,1,2,3:2:0:0:
302,150,60037,6,0,B|235:165|193:116|218:124|172:74|109:88,1,210,2|0,3:2|2:2,2:2:0:0:
44,139,61370,1,0,3:2:0:0:
6,302,62037,1,0,3:2:0:0:
155,379,62703,2,0,P|270:356|441:324,1,280,2|0,3:2|3:2,2:2:0:0:
509,177,64703,1,0,3:2:0:0:
400,48,65370,6,0,P|374:151|351:263,1,210,6|0,3:2|0:0,2:2:0:0:
338,335,66703,1,0,3:0:0:0:
176,380,67370,1,0,3:2:0:0:
30,296,68037,2,0,P|30:223|138:150,1,210,2|0,3:2|0:0,2:2:0:0:
208,187,69370,1,0,3:0:0:0:
309,53,70036,1,0,3:2:0:0:
391,34,70370,1,0,2:2:0:0:
472,20,70703,6,0,P|511:77|504:145,1,140,2|0,3:2|3:2,2:2:0:0:
390,269,72037,2,0,B|343:270|321:232|338:240|313:201|268:202,1,140,2|0,3:2|3:2,2:2:0:0:
194,231,73036,1,0,2:2:0:0:
118,268,73370,2,0,P|67:263|25:188,1,140,2|0,3:2|3:2,2:2:0:0:
87,35,74703,2,0,P|131:9|209:47,1,140,2|0,3:2|3:2,2:2:0:0:
348,135,76037,6,0,B|334:178|291:186|304:174|260:185|247:226,1,140,6|0,3:2|3:0,2:2:0:0:
229,306,77036,1,0,0:0:0:0:
274,377,77370,1,0,3:0:0:0:
439,349,78037,1,0,3:2:0:0:
504,194,78703,2,0,P|488:120|369:74,1,210,2|0,3:2|0:0,2:2:0:0:
307,127,80037,1,0,3:0:0:0:
169,31,80703,1,0,3:2:0:0:
19,106,81370,6,0,P|37:175|50:247,1,140,2|0,3:2|3:0,2:2:0:0:
66,325,82370,1,0,0:0:0:0:
144,354,82703,1,0,3:2:0:0:
273,246,83370,2,0,P|307:251|342:257,1,70,2|0,3:2|0:0,2:2:0:0:
425,268,84037,2,0,P|499:201|478:103,1,210,2|0,3:2|2:2,2:2:0:0:
409,52,85370,1,0,3:2:0:0:
287,167,86036,1,0,3:2:0:0:
170,46,86703,6,0,P|77:84|65:183,1,210,6|2,3:2|2:2,2:2:0:0:
122,245,88037,2,0,P|113:280|105:314,1,70,2|2,3:2|2:2,0:0:0:0:
160,376,88703,1,2,3:2:0:0:
225,323,89037,1,2,2:2:0:0:
304,351,89370,2,0,P|368:325|440:311,1,140,2|0,3:2|3:2,2:2:0:0:
508,159,90703,1,2,3:2:0:0:
437,112,91037,1,2,2:2:0:0:
372,166,91370,2,0,P|336:173|304:182,1,70,2|2,3:2|2:2,0:0:0:0:
247,244,92037,6,0,B|180:238|155:179|177:194|148:133|84:127,1,210,2|2,3:2|2:2,2:2:0:0:
16,177,93370,1,2,3:2:0:0:
56,339,94036,1,2,3:2:0:0:
219,376,94703,2,0,P|287:360|357:358,1,140,2|0,3:2|3:0,2:2:0:0:
367,191,96037,1,2,3:2:0:0:
316,124,96370,1,2,2:2:0:0:
352,48,96703,2,0,P|382:26|418:25,1,70,2|2,3:2|2:2,0:0:0:0:
490,61,97370,6,0,P|460:158|439:272,1,210,2|2,3:2|2:2,2:2:0:0:
423,346,98703,2,0,P|388:346|357:329,1,70,2|2,3:2|2:2,0:0:0:0:
327,251,99370,2,0,P|297:235|262:235,1,70,2|2,3:2|2:2,0:0:0:0:
190,280,100037,2,0,P|104:271|78:161,1,210,2|2,3:2|2:2,2:2:0:0:
138,104,101370,1,2,3:2:0:0:
301,143,102037,1,2,3:2:0:0:
412,17,102703,5,2,3:2:0:0:
256,192,102870,12,0,106703,2:2:0:0:
