osu file format v14

[General]
AudioFilename: audio.mp3
AudioLeadIn: 0
PreviewTime: -1
Countdown: 0
SampleSet: Normal
StackLeniency: 0.7
Mode: 0
LetterboxInBreaks: 0
WidescreenStoryboard: 0

[Editor]
DistanceSpacing: 0.8
BeatDivisor: 2
GridSize: 32
TimelineZoom: 2.7

[Metadata]
Title:Final Spice
TitleUnicode:Final Spice
Artist:James Roach & Toby Fox
ArtistUnicode:James Roach & Toby Fox
Creator:Darklink2nd
Version:Insane
Source:Hiveswap
Tags:Toby Fox, Hiveswap, Final Spice
BeatmapID:1439273
BeatmapSetID:680722

[Difficulty]
HPDrainRate:5
CircleSize:4
OverallDifficulty:5
ApproachRate:7.7
SliderMultiplier:1.1
SliderTickRate:1

[Events]
//Background and Video events
0,0,"HiveSwapGraphic.png",0,0
//Break Periods
//Storyboard Layer 0 (Background)
//Storyboard Layer 1 (Fail)
//Storyboard Layer 2 (Pass)
//Storyboard Layer 3 (Foreground)
//Storyboard Sound Samples

[TimingPoints]
402.733990686627,206.576002754347,4,1,0,100,1,0
39977,-100,4,1,0,100,0,1

[Colours]
Combo1 : 171,150,209
Combo2 : 240,120,120
Combo3 : 120,240,120

[HitObjects]
64,64,10318,5,0,0:0:0:0:
160,64,10524,1,0,0:0:0:0:
64,128,10731,1,0,0:0:0:0:
160,128,10938,1,0,0:0:0:0:
64,192,11144,1,0,0:0:0:0:
160,192,11351,2,0,L|64:288,1,110
32,32,11764,2,0,L|416:320,1,440
512,256,12770,5,0,0:0:0:0:
416,320,13003,1,0,0:0:0:0:
446,199,13210,1,0,0:0:0:0:
339,276,13417,1,0,0:0:0:0:
378,166,13590,1,0,0:0:0:0:
416,64,13830,2,0,P|320:32|288:64,1,110
416,64,14243,2,0,L|0:320,1,440
95,24,15276,5,0,0:0:0:0:
144,59,15482,1,0,0:0:0:0:
112,107,15689,1,0,0:0:0:0:
67,144,15895,1,0,0:0:0:0:
113,181,16102,1,0,0:0:0:0:
416,224,16309,2,0,L|288:160,1,110
288,224,16722,2,0,L|416:320,1,110
352,352,17135,2,0,L|256:288,1,110
260,290,17548,1,0,0:0:0:0:
260,290,17755,1,0,0:0:0:0:
37,40,18168,5,0,0:0:0:0:
73,65,18374,1,0,0:0:0:0:
111,90,18581,1,0,0:0:0:0:
189,41,18787,2,0,P|445:233|256:288,1,660
152,29,20234,5,0,0:0:0:0:
315,28,20440,1,0,0:0:0:0:
150,127,20647,1,0,0:0:0:0:
320,119,20853,1,0,0:0:0:0:
150,221,21060,1,0,0:0:0:0:
314,237,21266,2,0,L|467:293,1,110
442,310,21576,1,0,0:0:0:0:
429,351,21680,2,0,P|284:298|284:298,4,110
33,39,22712,5,0,0:0:0:0:
106,90,22919,1,0,0:0:0:0:
173,132,23126,1,0,0:0:0:0:
239,173,23332,1,0,0:0:0:0:
306,210,23539,1,0,0:0:0:0:
288,288,23745,2,0,L|416:288,1,110
458,292,24040,1,0,0:0:0:0:
468,247,24158,2,0,L|468:99,4,110
468,32,25191,5,0,0:0:0:0:
468,84,25398,1,0,0:0:0:0:
467,134,25605,1,0,0:0:0:0:
464,188,25811,1,0,0:0:0:0:
465,239,26018,1,0,0:0:0:0:
220,268,26224,1,0,0:0:0:0:
76,116,26637,1,0,0:0:0:0:
369,38,27051,1,0,0:0:0:0:
234,139,27464,1,0,0:0:0:0:
312,217,27877,5,0,0:0:0:0:
32,160,28083,1,0,0:0:0:0:
32,160,28290,1,0,0:0:0:0:
32,160,28497,1,0,0:0:0:0:
32,160,28703,2,4,L|288:224,1,220
32,32,29426,5,0,0:0:0:0:
32,64,29529,5,0,0:0:0:0:
32,128,29736,1,0,0:0:0:0:
32,224,29943,1,0,0:0:0:0:
32,320,30149,1,0,0:0:0:0:
128,320,30562,5,0,0:0:0:0:
128,224,30769,1,0,0:0:0:0:
128,128,30975,1,0,0:0:0:0:
128,32,31182,1,0,0:0:0:0:
224,32,31389,1,0,0:0:0:0:
224,128,31802,5,0,0:0:0:0:
224,224,32008,1,0,0:0:0:0:
224,320,32215,1,0,0:0:0:0:
320,320,32422,1,0,0:0:0:0:
320,224,32628,1,0,0:0:0:0:
320,128,33041,5,0,0:0:0:0:
320,32,33248,1,0,0:0:0:0:
416,32,33454,1,0,0:0:0:0:
416,128,33661,2,8,L|416:288,5,110
160,160,34900,6,8,L|288:160,1,110
320,192,35210,1,0,0:0:0:0:
320,256,35314,2,8,P|224:352|201:359,1,110
142,360,35727,1,0,0:0:0:0:
32,368,35933,1,0,0:0:0:0:
33,283,36140,6,8,P|32:192|32:160,1,110
33,127,36450,1,0,0:0:0:0:
62,107,36553,2,8,L|190:203,1,110
215,225,36966,1,0,0:0:0:0:
284,281,37173,1,0,0:0:0:0:
369,324,37379,6,8,L|500:275,1,110
484,233,37689,1,0,0:0:0:0:
475,188,37792,2,8,L|330:241,1,110
310,250,38206,1,0,0:0:0:0:
241,273,38412,1,0,0:0:0:0:
483,25,38619,5,4,0:0:0:0:
280,80,38825,1,4,0:0:0:0:
34,148,39032,1,4,0:0:0:0:
37,296,39239,5,4,0:0:0:0:
279,221,39445,1,4,0:0:0:0:
478,162,39652,1,4,0:0:0:0:
255,35,39858,5,12,0:0:0:0:
32,35,40271,5,0,0:0:0:0:
33,349,40478,1,0,0:0:0:0:
477,33,40685,1,0,0:0:0:0:
475,348,40891,1,0,0:0:0:0:
256,283,41098,2,8,L|255:346,2,55
256,195,41408,1,0,0:0:0:0:
475,348,41511,5,0,0:0:0:0:
477,33,41717,1,0,0:0:0:0:
33,349,41924,1,0,0:0:0:0:
37,35,42131,1,0,0:0:0:0:
257,107,42337,2,8,L|257:18,2,55
256,187,42647,1,0,0:0:0:0:
316,70,42750,5,0,0:0:0:0:
374,128,42957,1,0,0:0:0:0:
437,186,43163,1,0,0:0:0:0:
372,241,43370,1,0,0:0:0:0:
314,299,43577,2,0,P|88:297|39:119,1,440
66,35,44609,1,0,0:0:0:0:
185,271,44816,2,8,L|186:127,1,140
188,64,45229,5,0,0:0:0:0:
233,44,45436,1,0,0:0:0:0:
279,45,45642,1,0,0:0:0:0:
324,66,45849,1,0,0:0:0:0:
327,132,46056,2,8,L|326:284,1,140
290,307,46469,5,0,0:0:0:0:
236,306,46675,1,0,0:0:0:0:
198,270,46882,1,0,0:0:0:0:
158,240,47088,1,0,0:0:0:0:
160,192,47295,2,8,L|321:191,1,140
349,251,47708,5,0,0:0:0:0:
416,310,47915,1,0,0:0:0:0:
482,353,48121,1,0,0:0:0:0:
342,82,48328,1,0,0:0:0:0:
342,82,48534,2,12,L|231:182,1,140
342,82,48948,2,12,L|341:232,1,140
342,82,49361,2,12,L|479:223,1,140
437,188,49774,2,12,L|363:312,1,140
199,332,50187,5,0,0:0:0:0:
199,332,50394,1,0,0:0:0:0:
199,332,50600,1,0,0:0:0:0:
199,332,50807,1,0,0:0:0:0:
199,332,51013,2,8,L|168:178,1,140
211,51,51427,5,0,0:0:0:0:
224,64,51633,1,0,0:0:0:0:
224,64,51840,1,0,0:0:0:0:
224,64,52046,1,0,0:0:0:0:
212,131,52253,2,12,L|57:99,1,110
92,149,52563,1,8,0:0:0:0:
81,186,52666,2,12,L|230:215,1,110
198,247,52976,1,8,0:0:0:0:
181,285,53079,2,12,L|27:252,1,110
256,192,53492,12,0,54319,0:0:0:0:
