osu file format v14

[General]
AudioFilename: audio.mp3
AudioLeadIn: 0
PreviewTime: 160078
Countdown: 0
SampleSet: Soft
StackLeniency: 0.4
Mode: 0
LetterboxInBreaks: 0
WidescreenStoryboard: 1

[Editor]
Bookmarks: 42828,74828,106911,128161,170828,192161,213495,224161,234828,256161,277495
DistanceSpacing: 1
BeatDivisor: 4
GridSize: 8
TimelineZoom: 1.9

[Metadata]
Title:vs. SAYU
TitleUnicode:vs. SAYU
Artist:James Landino feat. Nikki Simmons
ArtistUnicode:James Landino feat. Nikki Simmons
Creator:Battle
Version:Zerottle's Insane
Source:No Straight Roads
Tags:english version boss battle records vs NSR edm bunk bed junction mayday zuke Akusuka Zer0- zero- electronic Funk Fiction Falk Au Yeong Andy Tunstall Digital Mini​-​Soundtrack video game
BeatmapID:2742946
BeatmapSetID:1292074

[Difficulty]
HPDrainRate:5
CircleSize:4
OverallDifficulty:8
ApproachRate:9
SliderMultiplier:1.6
SliderTickRate:1

[Events]
//Background and Video events
0,0,"sayu.png",0,0
//Break Periods
//Storyboard Layer 0 (Background)
//Storyboard Layer 1 (Fail)
//Storyboard Layer 2 (Pass)
//Storyboard Layer 3 (Foreground)
//Storyboard Layer 4 (Overlay)
//Storyboard Sound Samples

[TimingPoints]
162,333.333333333333,4,2,1,70,1,0
4995,-76.9230769230769,4,2,1,80,0,0
5828,-90.9090909090909,4,2,1,70,0,0
9495,-66.6666666666667,4,2,1,80,0,0
10828,-83.3333333333333,4,2,1,80,0,0
11161,-83.3333333333333,4,2,1,70,0,0
15661,-76.9230769230769,4,2,1,80,0,0
16161,-83.3333333333333,4,2,1,70,0,0
20161,-83.3333333333333,4,2,1,80,0,0
21828,-83.3333333333333,4,2,1,70,0,0
26328,-76.9230769230769,4,2,1,80,0,0
26828,-83.3333333333333,4,2,1,80,0,0
27161,-83.3333333333333,4,2,1,70,0,0
30828,-66.6666666666667,4,2,1,80,0,0
32161,-83.3333333333333,4,2,1,80,0,0
32328,-83.3333333333333,4,2,1,70,0,0
36995,-83.3333333333333,4,2,1,80,0,0
37495,-71.4285714285714,4,2,1,80,0,0
37828,-83.3333333333333,4,2,1,70,0,0
39162,-66.6666666666667,4,2,1,70,0,0
40828,-76.9230769230769,4,2,1,70,0,0
41495,-76.9230769230769,4,2,1,80,0,0
42828,-100,4,2,1,75,0,0
64662,-111.111111111111,4,2,1,70,0,0
74828,-83.3333333333333,4,2,1,75,0,0
85495,-90.9090909090909,4,2,1,70,0,0
85912,-90.9090909090909,4,2,1,5,0,0
85995,-90.9090909090909,4,2,1,70,0,0
104495,-76.9230769230769,4,2,1,75,0,0
106828,-58.8235294117647,4,2,1,80,0,0
107662,-71.4285714285714,4,2,1,80,0,0
149495,-100,4,2,1,75,0,0
156995,-83.3333333333333,4,2,1,75,0,0
160162,-181.818181818181,4,2,1,70,0,0
169495,-285.714285714284,4,2,1,70,0,0
170828,-100,4,2,1,85,0,1
171162,-76.9230769230769,4,2,1,85,0,1
171495,-66.6666666666667,4,2,1,85,0,1
171828,-58.8235294117647,4,2,1,85,0,1
173162,-45.4545454545455,4,2,1,85,0,1
173495,-100,4,2,1,85,0,1
173828,-76.9230769230769,4,2,1,85,0,1
174162,-66.6666666666667,4,2,1,85,0,1
174495,-58.8235294117647,4,2,1,85,0,1
176162,-100,4,2,1,85,0,1
176495,-76.9230769230769,4,2,1,85,0,1
176828,-66.6666666666667,4,2,1,85,0,1
177162,-58.8235294117647,4,2,1,85,0,1
177828,-52.6315789473684,4,2,1,85,0,1
178162,-47.6190476190476,4,2,1,85,0,1
178828,-66.6666666666667,4,2,1,80,0,0
179328,-62.5,4,2,1,80,0,0
180662,-58.8235294117647,4,2,1,80,0,0
181495,-100,4,2,1,85,0,1
181828,-76.9230769230769,4,2,1,85,0,1
182162,-66.6666666666667,4,2,1,85,0,1
182495,-58.8235294117647,4,2,1,85,0,1
184162,-100,4,2,1,85,0,1
184495,-76.9230769230769,4,2,1,85,0,1
184829,-66.6666666666667,4,2,1,85,0,1
185162,-58.8235294117647,4,2,1,85,0,1
186828,-100,4,2,1,85,0,1
187162,-76.9230769230769,4,2,1,85,0,1
187495,-66.6666666666667,4,2,1,85,0,1
188495,-52.6315789473684,4,2,1,85,0,1
188829,-47.6190476190476,4,2,1,85,0,1
189328,-47.6190476190476,4,2,1,80,0,0
189495,-66.6666666666667,4,2,1,80,0,0
189995,-62.5,4,2,1,80,0,0
192161,-62.5,4,2,1,85,0,1
192495,-55.5555555555556,4,2,1,85,0,1
192828,-50,4,2,1,85,0,1
193162,-55.5555555555556,4,2,1,85,0,1
193495,-66.6666666666667,4,2,1,85,0,1
193828,-58.8235294117647,4,2,1,85,0,1
194162,-52.6315789473684,4,2,1,85,0,1
194828,-133.333333333333,4,2,1,85,0,1
194995,-105.263157894737,4,2,1,85,0,1
195162,-86.9565217391303,4,2,1,85,0,1
195328,-74.0740740740741,4,2,1,85,0,1
195495,-64.5161290322581,4,2,1,85,0,1
195662,-57.1428571428571,4,2,1,85,0,1
195828,-45.4545454545455,4,2,1,85,0,1
197495,-58.8235294117647,4,2,1,85,0,1
199162,-52.6315789473684,4,2,1,85,0,1
199995,-62.5,4,2,1,80,0,0
202828,-55.5555555555556,4,2,1,85,0,1
204162,-66.6666666666667,4,2,1,85,0,1
204495,-58.8235294117647,4,2,1,85,0,1
204828,-52.6315789473684,4,2,1,85,0,1
205162,-50,4,2,1,85,0,1
205495,-62.5,4,2,1,85,0,1
206162,-58.8235294117647,4,2,1,85,0,1
206328,-50,4,2,1,85,0,1
206828,-62.5,4,2,1,85,0,1
207162,-55.5555555555556,4,2,1,85,0,1
207495,-50,4,2,1,85,0,1
208162,-55.5555555555556,4,2,1,85,0,1
209495,-62.5,4,2,1,85,0,1
209828,-55.5555555555556,4,2,1,85,0,1
210162,-50,4,2,1,85,0,1
210828,-55.5555555555556,4,2,1,80,0,0
213495,-90.9090909090909,4,2,1,80,0,1
213578,-90.9090909090909,4,2,1,70,0,0
215828,-133.333333333333,4,2,1,75,0,0
216162,-90.9090909090909,4,2,1,70,0,0
218495,-133.333333333333,4,2,1,75,0,0
218828,-90.9090909090909,4,2,1,70,0,0
221328,-90.9090909090909,4,2,1,75,0,0
222162,-76.9230769230769,4,2,1,75,0,0
222828,-66.6666666666667,4,2,1,75,0,0
223495,-58.8235294117647,4,2,1,75,0,0
224162,-58.8235294117647,4,2,1,70,0,0
229495,-76.9230769230769,4,2,1,70,0,0
233495,-100,4,2,1,72,0,0
233828,-66.6666666666667,4,2,1,74,0,0
234162,-50,4,2,1,76,0,0
234495,-50,4,2,1,78,0,0
234828,-76.9230769230769,4,2,1,80,0,0
256162,-76.9230769230769,4,2,1,75,0,0
277495,-133.333333333333,4,2,1,75,0,0
288245,-133.333333333333,4,2,1,30,0,0
289495,-133.333333333333,4,2,1,25,0,0
292162,-133.333333333333,4,2,1,20,0,0
294828,-133.333333333333,4,2,1,15,0,0
295495,-133.333333333333,4,2,1,10,0,0
296162,-133.333333333333,4,2,1,5,0,0

[Colours]
Combo1 : 160,97,199
Combo2 : 23,240,235
Combo3 : 227,68,140
Combo4 : 40,230,135

[HitObjects]
83,68,162,5,4,0:0:0:0:
83,68,328,1,0,0:0:0:0:
173,100,495,2,0,B|193:63|193:63|162:19,1,80,10|0,0:0|0:0,0:0:0:0:
33,210,745,1,0,0:0:0:0:
33,210,828,2,0,P|86:180|122:195,1,80,2|0,0:0|3:0,0:0:0:0:
169,251,1161,1,10,0:0:0:0:
154,356,1328,1,0,0:0:0:0:
88,288,1495,5,0,3:0:0:0:
242,326,1661,1,0,0:0:0:0:
215,170,1828,2,0,B|256:191|256:191|319:179,1,80,8|0,0:0|0:0,0:0:0:0:
398,106,2078,1,0,0:0:0:0:
398,106,2161,2,0,L|324:95,1,40,0|0,3:0|0:0,0:0:0:0:
283,32,2328,1,0,3:0:0:0:
397,213,2495,2,0,P|367:263|387:307,1,80,8|0,0:0|0:0,0:0:0:0:
499,352,2745,1,0,0:0:0:0:
499,352,2828,6,0,P|497:312|471:283,1,80,0|0,3:0|0:0,0:0:0:0:
366,379,3161,2,0,L|303:388,2,40,10|0|0,0:0|0:0|0:0,0:0:0:0:
292,264,3495,2,0,L|408:290,1,80,2|0,0:0|3:0,0:0:0:0:
511,122,3828,1,10,0:0:0:0:
426,199,3995,5,0,0:0:0:0:
426,199,4078,1,0,0:0:0:0:
426,199,4161,1,0,3:0:0:0:
373,96,4328,1,0,3:0:0:0:
216,212,4495,2,0,P|259:184|312:187,1,80,8|0,0:0|0:0,0:0:0:0:
381,103,4745,1,0,3:0:0:0:
381,103,4828,2,0,L|312:94,1,40,0|0,3:0|0:0,0:0:0:0:
198,0,4995,6,0,P|237:57|212:166,1,155.999992858887,4|0,0:0|0:0,0:0:0:0:
229,140,5328,1,0,3:0:0:0:
58,108,5495,6,0,P|107:73|147:117,1,103.999995239258,4|0,0:0|0:0,0:0:0:0:
117,241,5828,2,0,P|111:208|103:180,2,44.0000013427735,10|0|0,0:0|0:0|0:0,0:0:0:0:
219,287,6161,2,0,P|196:352|197:386,1,88.000002685547,2|0,0:0|3:0,0:0:0:0:
25,347,6495,2,0,P|87:326|116:327,1,88.000002685547,10|0,0:0|0:0,0:0:0:0:
200,195,6745,1,0,0:0:0:0:
200,195,6828,5,0,3:0:0:0:
303,242,6995,1,0,3:0:0:0:
106,154,7161,2,0,P|137:111|195:103,1,88.000002685547,8|0,0:0|0:0,0:0:0:0:
270,129,7411,1,0,3:0:0:0:
270,129,7495,2,0,L|256:60,1,44.0000013427735
359,0,7661,2,0,L|350:43,1,44.0000013427735,0|0,3:0|0:0,0:0:0:0:
283,222,7828,1,8,0:0:0:0:
380,145,7995,1,0,0:0:0:0:
186,179,8161,6,0,B|171:222|171:222|189:264,1,88.000002685547,0|0,3:0|0:0,0:0:0:0:
268,365,8495,2,0,L|280:315,2,44.0000013427735,10|0|0,0:0|0:0|0:0,0:0:0:0:
101,301,8828,1,2,3:2:0:0:
171,352,8995,1,0,3:0:0:0:
352,267,9161,2,0,P|307:234|250:240,1,88.000002685547,10|0,0:0|0:0,0:0:0:0:
132,180,9411,1,0,0:0:0:0:
132,180,9495,6,0,P|218:146|235:90,1,120.000004577637,4|0,0:0|0:0,0:0:0:0:
150,84,9828,1,0,3:0:0:0:
255,343,9995,2,0,P|255:265|278:229,1,120.000004577637,4|0,0:0|3:0,0:0:0:0:
350,296,10245,1,0,0:0:0:0:
350,296,10328,2,0,P|422:279|444:284,1,60.0000022888184,0|0,3:0|0:0,0:0:0:0:
499,208,10495,1,8,0:0:0:0:
385,136,10661,1,2,0:0:0:0:
445,6,10828,6,0,P|507:61|491:98,1,95.9999970703126,4|0,0:0|0:0,0:0:0:0:
368,180,11161,2,0,L|389:124,2,47.9999985351563,10|0|0,0:0|0:0|0:0,0:0:0:0:
212,8,11495,2,0,P|268:46|275:89,1,95.9999970703126,2|0,0:0|3:0,0:0:0:0:
123,242,11828,2,0,P|134:170|177:150,1,95.9999970703126,10|0,0:0|0:0,0:0:0:0:
259,194,12078,1,0,0:0:0:0:
259,194,12161,5,0,3:0:0:0:
119,64,12328,1,0,0:0:0:0:
123,242,12495,1,8,0:0:0:0:
274,96,12661,1,0,0:0:0:0:
274,96,12745,1,0,0:0:0:0:
274,96,12828,2,0,L|193:89,1,47.9999985351563,0|0,3:0|0:0,0:0:0:0:
59,151,12995,1,0,3:0:0:0:
267,273,13161,2,0,P|209:237|162:256,1,95.9999970703126,8|0,0:0|0:0,0:0:0:0:
87,303,13411,1,0,0:0:0:0:
87,303,13495,5,0,3:0:0:0:
158,383,13661,1,0,0:0:0:0:
165,152,13828,2,0,P|122:172|114:187,2,47.9999985351563,10|0|0,0:0|0:0|0:0,0:0:0:0:
271,366,14161,2,0,P|257:298|286:245,1,95.9999970703126,2|0,0:0|3:0,0:0:0:0:
376,180,14495,2,0,P|391:225|382:271,1,95.9999970703126,10|0,0:0|0:0,0:0:0:0:
171,229,14828,6,0,P|210:174|249:182,1,95.9999970703126,0|0,3:0|3:0,0:0:0:0:
344,94,15161,1,8,0:0:0:0:
251,39,15328,1,0,0:0:0:0:
251,39,15411,1,0,3:0:0:0:
251,39,15495,1,0,3:0:0:0:
328,204,15661,6,0,B|292:302|355:255|321:367,1,155.999992858887,4|0,0:0|0:0,0:0:0:0:
324,355,15995,1,0,3:0:0:0:
153,340,16161,6,0,P|198:288|247:298,1,95.9999970703126,4|0,0:0|0:0,0:0:0:0:
333,166,16495,2,0,L|268:178,2,47.9999985351563,10|0|0,0:0|0:0|0:0,0:0:0:0:
188,106,16828,1,2,0:0:0:0:
300,16,16995,1,0,0:0:0:0:
98,139,17161,2,0,P|87:75|111:42,1,95.9999970703126,10|0,0:0|0:0,0:0:0:0:
184,16,17411,1,0,0:0:0:0:
184,16,17495,5,0,3:0:0:0:
249,87,17661,1,0,3:0:0:0:
187,184,17828,1,8,0:0:0:0:
255,285,17995,1,0,0:0:0:0:
255,285,18078,1,0,0:0:0:0:
255,285,18161,1,0,0:0:0:0:
293,183,18328,1,0,3:0:0:0:
158,281,18495,2,0,P|128:331|139:375,1,95.9999970703126,8|0,0:0|0:0,0:0:0:0:
244,384,18745,1,0,0:0:0:0:
244,384,18828,6,0,P|318:358|358:372,1,95.9999970703126,0|0,3:0|0:0,0:0:0:0:
471,276,19161,2,0,L|407:265,2,47.9999985351563,10|0|0,0:0|0:0|0:0,0:0:0:0:
302,160,19495,2,0,P|357:132|411:145,1,95.9999970703126,2|0,3:2|3:0,0:0:0:0:
140,238,19828,2,0,P|195:266|249:253,1,95.9999970703126,10|0,0:0|0:0,0:0:0:0:
324,256,20078,1,0,0:0:0:0:
324,256,20161,5,4,0:0:0:0:
197,134,20328,1,0,0:0:0:0:
164,340,20495,1,0,3:0:0:0:
302,151,20661,5,4,0:0:0:0:
104,245,20828,1,0,3:0:0:0:
104,245,20911,1,0,0:0:0:0:
104,245,20995,2,0,L|166:230,1,47.9999985351563,0|0,3:0|0:0,0:0:0:0:
266,69,21161,2,0,P|197:38|160:60,1,95.9999970703126,8|2,0:0|0:0,0:0:0:0:
56,12,21411,1,0,0:0:0:0:
56,12,21495,6,0,P|92:76|106:148,1,143.999995605469,4|0,0:0|0:0,0:0:0:0:
34,293,21828,2,0,P|45:244|61:232,2,47.9999985351563,10|0|0,0:0|0:0|0:0,0:0:0:0:
203,137,22161,2,0,P|206:200|169:239,1,95.9999970703126,2|0,0:0|3:0,0:0:0:0:
104,384,22495,2,0,P|139:326|184:324,1,95.9999970703126,10|0,0:0|0:0,0:0:0:0:
278,383,22828,5,0,3:0:0:0:
326,248,22995,1,0,3:0:0:0:
435,332,23161,2,0,L|382:340,2,47.9999985351563,10|0|0,0:0|0:0|0:0,0:0:0:0:
189,203,23495,2,0,L|242:211,2,47.9999985351563,2|0|0,0:2|0:0|3:0,0:0:0:0:
477,231,23828,2,0,L|424:239,2,47.9999985351563,10|0|0,0:0|0:0|0:0,0:0:0:0:
263,67,24161,6,0,P|330:116|328:165,1,95.9999970703126,0|0,3:0|0:0,0:0:0:0:
250,255,24495,2,0,L|225:176,2,47.9999985351563,10|0|0,0:0|0:0|0:0,0:0:0:0:
429,97,24828,2,0,P|437:161|408:184,1,95.9999970703126,2|0,0:0|0:0,0:0:0:0:
314,379,25161,2,0,P|340:322|386:318,1,95.9999970703126,10|0,0:0|0:0,0:0:0:0:
467,297,25495,5,0,3:0:0:0:
333,207,25661,1,0,3:0:0:0:
367,314,25828,1,8,0:0:0:0:
451,152,25995,1,0,0:0:0:0:
451,152,26078,1,0,3:0:0:0:
451,152,26161,2,0,L|439:214,1,47.9999985351563,0|0,3:0|0:0,0:0:0:0:
198,198,26328,6,0,P|237:114|311:111,1,155.999992858887,4|0,0:0|0:0,0:0:0:0:
333,207,26661,2,0,P|292:195|271:173,1,51.999997619629,0|0,3:0|0:0,0:0:0:0:
209,66,26828,6,0,P|291:103|305:147,1,95.9999970703126,4|0,0:0|0:0,0:0:0:0:
101,107,27161,2,0,L|91:41,2,47.9999985351563,10|0|0,0:0|0:0|0:0,0:0:0:0:
198,198,27495,1,2,0:0:0:0:
39,301,27661,1,0,3:0:0:0:
39,301,27745,1,0,0:0:0:0:
39,301,27828,1,10,0:0:0:0:
95,211,27995,1,0,0:0:0:0:
133,380,28161,6,0,P|168:346|228:353,1,95.9999970703126,0|0,3:0|3:0,0:0:0:0:
318,253,28495,2,0,L|328:312,2,47.9999985351563,10|0|0,0:0|0:0|0:0,0:0:0:0:
198,148,28828,2,0,L|188:207,2,47.9999985351563,2|0|0,0:2|0:0|3:0,0:0:0:0:
288,22,29161,2,0,L|298:81,2,47.9999985351563,10|0|0,0:0|0:0|0:0,0:0:0:0:
120,246,29495,6,0,P|146:205|208:200,1,95.9999970703126,0|0,3:0|0:0,0:0:0:0:
380,160,29828,2,0,L|291:137,2,47.9999985351563,10|0|0,0:0|0:0|0:0,0:0:0:0:
296,254,30078,1,0,0:0:0:0:
296,254,30161,1,2,0:0:0:0:
238,110,30328,1,0,0:0:0:0:
423,279,30495,2,0,P|394:328|395:373,1,95.9999970703126,10|0,0:0|0:0,0:0:0:0:
197,291,30745,1,0,0:0:0:0:
197,291,30828,6,0,P|267:289|299:240,1,120.000004577637,4|0,0:0|0:0,0:0:0:0:
223,186,31161,1,8,0:0:0:0:
485,197,31328,1,4,3:2:0:0:
485,197,31411,1,0,3:0:0:0:
485,197,31495,2,0,L|409:182,1,60.0000022888184,2|0,0:3|0:0,0:0:0:0:
306,85,31661,2,0,L|382:70,1,60.0000022888184,2|0,0:0|0:0,0:0:0:0:
467,57,31828,1,8,0:0:0:0:
348,240,31995,1,2,0:0:0:0:
251,17,32161,6,0,P|301:54|301:104,1,95.9999970703126,4|0,0:0|0:0,0:0:0:0:
212,190,32495,2,0,L|157:179,2,47.9999985351563,10|0|0,0:0|0:0|0:0,0:0:0:0:
61,105,32828,2,0,P|115:89|157:67,1,95.9999970703126,2|0,0:0|3:0,0:0:0:0:
309,261,33161,2,0,P|255:277|213:299,1,95.9999970703126,10|0,0:0|0:0,0:0:0:0:
115,377,33411,1,0,0:0:0:0:
115,377,33495,5,0,3:0:0:0:
30,289,33661,1,0,3:0:0:0:
130,189,33828,6,0,L|114:251,1,47.9999985351563,10|0,0:0|0:0,0:0:0:0:
30,289,33995,1,0,0:0:0:0:
30,89,34161,6,0,L|46:151,1,47.9999985351563,2|0,0:2|0:0,0:0:0:0:
130,189,34328,1,0,3:0:0:0:
114,14,34495,6,0,P|183:31|196:62,1,95.9999970703126,10|0,0:0|0:0,0:0:0:0:
236,144,34745,1,0,0:0:0:0:
236,144,34828,5,0,3:0:0:0:
130,189,34995,1,0,0:0:0:0:
236,297,35161,2,0,L|203:219,2,47.9999985351563,10|0|0,0:0|0:0|0:0,0:0:0:0:
290,56,35495,2,0,P|341:106|333:153,1,95.9999970703126,2|0,0:0|3:0,0:0:0:0:
334,269,35745,1,0,0:0:0:0:
334,269,35828,2,0,P|358:228|403:215,1,95.9999970703126,10|0,0:0|0:0,0:0:0:0:
462,135,36161,5,0,3:0:0:0:
420,306,36328,1,0,3:0:0:0:
251,319,36495,2,0,P|234:252|259:215,1,95.9999970703126,8|0,0:0|0:0,0:0:0:0:
294,145,36745,1,0,3:0:0:0:
294,145,36828,2,0,L|215:123,1,47.9999985351563,0|0,3:0|0:0,0:0:0:0:
167,52,36995,2,0,L|246:30,1,47.9999985351563,4|0,0:0|0:0,0:0:0:0:
349,242,37161,1,0,0:0:0:0:
398,133,37328,5,0,3:0:0:0:
398,133,37412,1,0,0:0:0:0:
398,133,37495,2,0,P|395:34|453:5,1,167.999994873047,4|0,0:0|0:0,0:0:0:0:
512,78,37828,2,0,P|491:88|440:72,2,47.9999985351563,10|0|0,0:0|0:0|0:0,0:0:0:0:
313,173,38162,2,0,P|287:105|303:69,1,95.9999970703126,2|0,0:0|3:0,0:0:0:0:
428,214,38495,2,0,P|388:268|393:325,1,95.9999970703126,10|0,0:0|0:0,0:0:0:0:
317,377,38745,1,0,0:0:0:0:
317,377,38828,5,0,3:0:0:0:
273,270,38995,1,0,3:0:0:0:
445,294,39162,6,0,L|385:294,1,60.0000022888184,10|0,0:2|0:0,0:0:0:0:
273,270,39328,1,0,0:0:0:0:
334,153,39495,6,0,P|345:218|332:235,1,60.0000022888184,2|0,0:0|0:0,0:0:0:0:
273,270,39662,1,0,0:2:0:0:
159,196,39828,6,0,L|254:186,1,60.0000022888184,10|0,0:0|0:0,0:0:0:0:
307,77,39995,2,0,L|212:67,1,60.0000022888184
190,6,40162,6,0,P|160:77|181:125,1,120.000004577637,0|0,3:0|0:0,0:0:0:0:
215,246,40495,2,0,P|214:183|193:166,2,60.0000022888184,10|0|0,0:0|0:0|0:0,0:0:0:0:
33,182,40828,2,0,B|81:201|81:201|140:184,1,103.999995239258,2|0,0:0|3:0,0:0:0:0:
250,302,41162,2,0,B|202:283|202:283|143:300,1,103.999995239258,10|0,0:0|3:0,0:0:0:0:
61,357,41412,1,0,0:0:0:0:
61,357,41495,5,4,0:0:0:0:
131,186,41662,1,0,3:0:0:0:
151,297,41828,1,8,0:0:0:0:
28,175,41995,5,4,0:0:0:0:
28,175,42078,1,0,0:0:0:0:
28,175,42162,2,0,L|7:106,1,51.999997619629,0|0,3:0|0:0,0:0:0:0:
123,21,42328,2,0,L|107:70,1,51.999997619629,0|0,3:0|0:0,0:0:0:0:
42,277,42495,1,8,0:0:0:0:
131,186,42662,1,0,3:0:0:0:
222,84,42828,6,0,B|245:145|304:137|304:137|274:124|266:97,1,160,2|8,3:2|0:0,0:0:0:0:
445,150,43328,2,0,B|372:140|375:229|308:215,1,160,2|0,0:0|3:0,0:0:0:0:
193,233,43828,2,0,P|228:249|247:283,1,80,10|0,0:0|0:0,0:0:0:0:
161,321,44162,1,0,3:0:0:0:
161,321,44328,2,0,L|78:307,2,80,2|8|0,0:0|0:0|0:0,0:0:0:0:
232,372,44828,1,0,0:0:0:0:
331,300,44995,1,0,3:0:0:0:
331,300,45161,2,0,P|340:262|342:222,1,80,10|0,0:0|0:0,0:0:0:0:
316,120,45495,6,0,P|256:143|261:53,1,160,2|8,3:2|0:0,0:0:0:0:
112,26,45995,2,0,P|132:78|122:184,1,160,2|0,0:0|3:0,0:0:0:0:
29,228,46495,2,0,P|103:217|193:260,1,160,10|0,0:0|3:0,0:0:0:0:
291,275,46995,2,0,B|213:206|122:312|164:366|236:366|241:319,1,240,2|2,0:0|0:0,0:0:0:0:
377,285,47662,1,0,3:2:0:0:
377,285,47828,2,0,B|416:279|416:279|450:300,1,80,10|0,0:0|3:0,0:0:0:0:
481,206,48162,6,0,L|499:43,1,160,2|8,3:2|0:0,0:0:0:0:
365,102,48662,2,0,L|355:22,2,80,2|0|0,0:0|0:0|3:0,0:0:0:0:
299,203,49162,2,0,B|257:178|257:178|155:223,1,160,10|0,0:2|3:0,0:0:0:0:
85,270,49662,1,2,0:0:0:0:
85,270,49828,2,0,P|69:233|74:194,1,80,8|0,0:0|0:0,0:0:0:0:
129,113,50162,1,0,3:0:0:0:
129,113,50328,1,0,3:0:0:0:
14,2,50495,2,0,P|66:29|125:23,1,120,8|0,0:0|0:0,0:0:0:0:
139,16,50828,6,0,B|171:45|171:45|186:171,1,160,2|8,3:2|0:0,0:0:0:0:
323,263,51328,2,0,B|288:243|280:195|280:195|263:240|232:253,1,160,2|0,0:0|3:0,0:0:0:0:
153,373,51828,1,10,0:0:0:0:
117,294,51995,1,0,0:0:0:0:
117,294,52162,2,0,B|166:280|166:280|291:339,1,160,0|8,3:0|0:0,0:0:0:0:
371,332,52662,2,0,P|320:280|264:326,1,160,2|0,0:0|3:0,0:0:0:0:
417,244,53162,2,0,P|433:207|457:176,1,80,10|0,0:0|0:0,0:0:0:0:
512,77,53495,6,0,P|448:85|356:28,1,160,2|8,3:2|0:0,0:0:0:0:
250,11,53995,2,0,P|266:47|271:87,1,80,2|0,0:0|0:0,0:0:0:0:
277,214,54328,1,0,3:0:0:0:
277,214,54495,2,0,P|298:177|337:172,1,80,10|0,0:0|0:0,0:0:0:0:
267,319,54828,2,0,B|194:326|189:243|114:264,1,160,2|8,3:2|0:0,0:0:0:0:
47,339,55328,2,0,P|92:277|63:206,1,160,2|0,0:0|3:0,0:0:0:0:
0,98,55828,2,0,P|36:114|75:118,1,80,10|0,0:0|0:0,0:0:0:0:
165,177,56162,6,0,P|237:143|316:135,1,160,2|8,3:2|0:0,0:0:0:0:
419,119,56662,2,0,P|421:158|403:194,2,80,2|0|0,0:0|0:0|3:0,0:0:0:0:
509,42,57162,2,0,P|429:34|357:0,1,160,10|0,0:0|3:0,0:0:0:0:
242,14,57662,1,2,0:0:0:0:
242,14,57828,2,0,P|221:46|225:85,1,80
112,160,58162,2,0,P|151:157|183:180,1,80,2|0,0:0|3:0,0:0:0:0:
286,241,58495,2,0,P|227:244|190:289,1,120,10|0,0:0|0:0,0:0:0:0:
177,310,58828,6,0,B|209:337|209:337|326:352,1,160,2|8,3:2|0:0,0:0:0:0:
417,321,59328,2,0,L|435:220,1,80,2|0,0:0|0:0,0:0:0:0:
512,164,59662,1,0,3:0:0:0:
512,164,59828,2,0,P|472:163|435:148,1,80,10|0,0:0|0:0,0:0:0:0:
358,89,60162,1,0,3:0:0:0:
358,89,60328,2,0,B|369:50|369:50|351:14,2,80,2|0|0,0:0|0:0|0:0,0:0:0:0:
257,92,60828,2,0,B|240:57|240:57|251:18,1,80,2|0,0:0|3:0,0:0:0:0:
145,22,61162,2,0,L|66:36,1,80,10|0,0:0|3:0,0:0:0:0:
13,134,61495,6,0,P|82:153|167:207,1,160,2|8,3:2|0:0,0:0:0:0:
183,352,61995,2,0,P|162:319|163:280,1,80,2|0,0:0|0:0,0:0:0:0:
239,202,62328,1,0,3:0:0:0:
239,202,62495,2,0,L|253:84,1,80,10|0,0:0|0:0,0:0:0:0:
350,62,62828,1,0,3:0:0:0:
350,61,63162,2,0,P|388:70|416:98,1,80,8|2,0:0|0:3,0:0:0:0:
288,187,63495,2,0,P|275:149|286:111,1,80,2|0,0:3|3:0,0:0:0:0:
428,178,63828,2,0,P|401:207|363:217,1,80,8|0,0:0|3:0,0:0:0:0:
243,276,64162,6,0,B|200:254|186:207|186:207|158:193|133:198|133:198|98:166|89:98,1,240,2|2,0:0|0:0,0:0:0:0:
243,276,65162,2,0,B|290:242|344:250|344:250|383:302|433:306,2,215.999993408203,10|2|2,0:0|0:0|0:3,0:0:0:0:
243,276,66495,2,0,P|227:308|224:344,1,71.9999978027344,10|2,0:0|0:3,0:0:0:0:
109,148,66828,6,0,P|139:212|145:284,1,143.999995605469,2|8,3:2|0:0,0:0:0:0:
295,74,67328,2,0,P|248:128|224:195,1,143.999995605469,2|2,0:0|0:3,0:0:0:0:
147,76,67828,2,0,B|121:52|74:70|74:70|127:19|201:66,2,215.999993408203,10|2|2,0:0|0:0|0:0,0:0:0:0:
295,74,68995,1,2,0:0:0:0:
295,73,69162,2,0,P|330:69|365:59,1,71.9999978027344,10|2,0:0|0:3,0:0:0:0:
475,142,69495,6,0,B|445:132|415:135|415:135|399:178|422:218,1,143.999995605469,2|8,0:0|0:0,0:0:0:0:
455,296,69995,2,0,B|485:306|515:303|515:303|531:260|508:220,1,143.999995605469,2|0,0:0|0:0,0:0:0:0:
420,215,70495,2,0,B|328:223|328:223|295:248|295:248|213:256,2,215.999993408203,10|2|2,0:0|0:3|0:3,0:0:0:0:
347,323,71662,1,2,0:3:0:0:
347,323,71828,2,0,B|330:335|330:335|279:340,1,71.9999978027344,8|2,0:0|0:3,0:0:0:0:
93,289,72162,6,0,B|37:255|60:184|126:189|127:230,1,143.999995605469,2|8,0:0|0:0,0:0:0:0:
170,313,72662,2,0,B|222:342|272:286|234:232|213:248,1,143.999995605469,2|0,0:0|0:0,0:0:0:0:
56,122,73162,2,0,B|134:93|194:159|194:159|282:150|312:92|312:92|286:152|343:237,1,431.999986816407,10|2,0:0|0:3,0:0:0:0:
334,223,74495,2,0,P|362:202|398:200,1,71.9999978027344,10|0,0:0|0:0,0:0:0:0:
512,44,74828,6,0,P|450:83|341:6,1,191.999994140625,2|8,3:2|0:0,0:0:0:0:
204,93,75328,2,0,P|221:41|282:34,2,95.9999970703126,2|0|0,0:0|0:0|3:0,0:0:0:0:
295,245,75828,2,0,P|302:187|317:145,1,95.9999970703126,10|0,0:0|0:0,0:0:0:0:
135,14,76162,2,0,P|176:128|177:199,1,191.999994140625,2|8,3:2|0:0,0:0:0:0:
19,259,76662,2,0,P|28:161|88:214,1,191.999994140625,2|0,0:0|3:0,0:0:0:0:
144,342,77162,2,0,B|99:341|99:341|48:382,1,95.9999970703126,10|0,0:0|0:0,0:0:0:0:
188,241,77495,6,0,B|277:243|231:300|355:296,1,143.999995605469,2|0,3:2|0:0,0:0:0:0:
364,294,77828,1,8,0:0:0:0:
405,150,77995,2,0,P|350:111|330:202,1,191.999994140625,2|0,0:0|3:0,0:0:0:0:
451,340,78495,2,0,P|452:276|425:247,1,95.9999970703126,10|0,0:0|0:0,0:0:0:0:
492,105,78828,1,0,3:0:0:0:
457,1,78995,2,0,P|385:64|407:152,1,191.999994140625,2|0,0:0|0:0,0:0:0:0:
397,292,79495,2,0,P|360:252|327:281,1,95.9999970703126,2|2,0:0|3:2,0:0:0:0:
199,159,79828,2,0,P|273:149|314:144,1,95.9999970703126,10|0,0:0|3:0,0:0:0:0:
302,380,80162,6,0,P|310:295|226:288,1,143.999995605469,2|0,3:2|0:0,0:0:0:0:
213,282,80495,1,8,0:0:0:0:
7,155,80662,2,0,P|53:221|162:176,1,191.999994140625,2|0,0:0|3:0,0:0:0:0:
116,23,81162,2,0,B|90:70|90:70|102:119,1,95.9999970703126,10|0,0:0|0:0,0:0:0:0:
258,197,81495,1,0,3:0:0:0:
200,89,81662,1,2,0:0:0:0:
200,89,81828,2,0,B|315:56|279:151|402:106,1,191.999994140625,8|0,0:0|3:0,0:0:0:0:
508,77,82328,1,0,3:0:0:0:
457,1,82495,2,0,P|391:-2|393:49,1,95.9999970703126,8|0,0:0|0:0,0:0:0:0:
468,163,82828,6,0,B|447:222|447:222|463:272|463:272|441:352,1,191.999994140625,2|8,3:2|0:0,0:0:0:0:
303,363,83328,2,0,P|288:277|362:305,1,191.999994140625,2|0,0:0|3:0,0:0:0:0:
468,163,83828,2,0,P|407:175|375:149,1,95.9999970703126,10|0,0:0|0:0,0:0:0:0:
277,175,84162,2,0,P|257:99|268:70,2,95.9999970703126,0|0|8,3:0|0:0|0:0,0:0:0:0:
349,94,84662,1,0,0:0:0:0:
162,100,84828,2,0,P|175:38|217:13,2,95.9999970703126,2|2|8,0:3|3:0|0:0,0:0:0:0:
260,84,85328,1,0,3:0:0:0:
186,214,85495,5,2,3:2:0:0:
186,214,85662,2,0,P|131:189|77:210,1,88.000002685547,2|0,0:0|0:0,0:0:0:0:
36,273,85995,1,2,0:0:0:0:
36,273,86328,1,0,3:0:0:0:
105,192,86495,1,8,0:0:0:0:
22,122,86662,1,0,0:0:0:0:
106,51,86828,5,2,3:2:0:0:
106,51,86995,2,0,P|163:78|208:57,1,88.000002685547,2|8,0:0|0:0,0:0:0:0:
270,17,87328,1,2,0:0:0:0:
270,17,87662,1,0,3:0:0:0:
352,85,87828,1,8,0:0:0:0:
306,173,87995,1,0,0:0:0:0:
194,167,88162,5,2,3:2:0:0:
194,167,88328,2,0,P|169:225|191:267,1,88.000002685547,2|8,0:0|0:0,0:0:0:0:
279,370,88662,2,0,P|286:316|247:276,1,88.000002685547,2|0,0:0|0:0,0:0:0:0:
92,248,88995,2,0,P|112:310|142:325,1,88.000002685547,2|8,3:2|0:0,0:0:0:0:
259,217,89328,6,0,B|306:244|306:244|457:221,1,176.000005371094,2|0,0:2|0:0,0:0:0:0:
188,159,89995,1,2,0:0:0:0:
188,159,90078,1,2,0:0:0:0:
188,159,90162,1,0,0:0:0:0:
296,100,90328,1,0,3:0:0:0:
222,0,90495,2,0,P|198:36|217:80,1,88.000002685547,10|0,0:0|0:0,0:0:0:0:
277,194,90828,5,2,3:2:0:0:
277,194,90995,2,0,P|362:183|395:190,1,88.000002685547,2|8,0:0|0:0,0:0:0:0:
478,123,91328,1,2,0:0:0:0:
478,123,91662,1,0,3:0:0:0:
431,27,91829,1,8,0:0:0:0:
358,91,91995,1,0,0:0:0:0:
454,213,92162,5,2,3:2:0:0:
454,213,92328,2,0,P|429:277|435:312,1,88.000002685547,2|8,0:0|0:0,0:0:0:0:
350,361,92662,1,2,0:0:0:0:
350,361,92995,1,0,3:0:0:0:
273,303,93162,1,10,0:0:0:0:
197,367,93328,1,0,0:0:0:0:
353,261,93495,5,2,3:2:0:0:
353,261,93662,2,0,P|311:216|268:220,1,88.000002685547,2|8,0:0|0:0,0:0:0:0:
112,288,93995,2,0,P|173:279|192:240,1,88.000002685547,2|0,0:0|0:0,0:0:0:0:
288,126,94328,2,0,P|222:145|209:170,1,88.000002685547,2|8,3:2|0:0,0:0:0:0:
255,371,94662,6,0,P|293:288|391:297,1,176.000005371094,2|2,0:0|0:0,0:0:0:0:
500,179,95162,2,0,P|448:203|399:179,1,88.000002685547,8|2,0:0|0:0,0:0:0:0:
346,138,95412,1,2,0:0:0:0:
346,138,95495,1,2,0:0:0:0:
437,68,95662,1,0,3:0:0:0:
357,16,95828,1,8,0:0:0:0:
420,196,95995,1,0,3:0:0:0:
271,79,96162,5,8,0:0:0:0:
202,145,96495,1,8,0:0:0:0:
235,238,96828,1,8,0:0:0:0:
325,246,97162,1,8,0:0:0:0:
301,156,97495,5,8,0:0:0:0:
235,238,97828,1,8,0:0:0:0:
280,323,98161,1,8,0:0:0:0:
222,148,98495,1,8,0:0:0:0:
148,316,98662,5,2,0:3:0:0:
148,316,98745,1,2,0:3:0:0:
148,316,98828,1,8,0:2:0:0:
238,242,99162,1,8,0:0:0:0:
146,219,99495,1,8,0:0:0:0:
243,343,99828,1,8,0:0:0:0:
262,228,100162,5,8,0:0:0:0:
135,328,100495,1,8,0:2:0:0:
294,343,100828,1,8,0:2:0:0:
184,238,100995,1,2,0:3:0:0:
199,384,101162,1,8,0:2:0:0:
278,252,101328,5,0,0:0:0:0:
278,252,101412,1,0,0:0:0:0:
278,252,101495,2,0,P|349:236|374:240,1,88.000002685547,8|8,0:2|0:2,0:0:0:0:
499,138,101828,2,0,P|455:138|413:123,1,88.000002685547,8|8,0:2|0:2,0:0:0:0:
291,10,102162,5,8,0:2:0:0:
239,91,102328,1,8,0:2:0:0:
320,152,102495,1,8,0:2:0:0:
278,252,102662,1,8,0:2:0:0:
147,202,102828,6,0,P|188:169|237:187,1,88.000002685547,8|8,0:2|0:2,0:0:0:0:
230,356,103162,2,0,L|200:243,1,88.000002685547,8|8,0:2|0:2,0:0:0:0:
393,267,103495,5,8,0:2:0:0:
305,300,103662,1,8,0:2:0:0:
404,161,103828,1,8,0:2:0:0:
316,194,103995,1,8,0:2:0:0:
245,139,104162,5,8,3:2:0:0:
245,139,104245,1,2,0:3:0:0:
245,139,104328,2,0,L|264:63,1,44.0000013427735,2|2,0:3|0:3,0:3:0:0:
146,15,104495,5,8,3:2:0:0:
146,15,104578,1,2,0:3:0:0:
146,15,104661,2,0,L|158:65,1,51.999997619629,2|2,0:3|0:3,0:0:0:0:
164,194,104828,5,8,3:2:0:0:
130,179,104911,1,2,0:3:0:0:
94,180,104994,1,2,0:3:0:0:
62,195,105077,1,2,0:3:0:0:
39,223,105162,2,0,L|51:292,1,51.999997619629,8|2,3:2|0:3,0:0:0:0:
138,370,105328,2,0,L|146:318,1,51.999997619629,2|2,0:3|0:3,0:0:0:0:
220,203,105495,6,0,P|249:237|250:277,3,51.999997619629,2|2|2|2,3:0|3:0|3:0|3:0,0:0:0:0:
335,273,105828,2,0,P|324:316|292:340,3,51.999997619629,2|2|2|2,3:0|3:0|3:0|3:0,0:0:0:0:
436,358,106162,1,2,3:3:0:0:
455,326,106245,1,2,3:3:0:0:
464,291,106328,1,2,3:3:0:0:
462,255,106411,1,2,3:3:0:0:
448,221,106495,2,0,L|379:213,1,51.999997619629,2|2,3:0|0:0,0:0:0:0:
300,131,106662,2,0,L|369:123,1,51.999997619629,2|0,0:0|0:0,0:0:0:0:
478,67,106828,6,0,B|431:17|431:17|296:30,1,204.000003890991,4|0,0:1|0:0,0:0:0:0:
218,7,107162,2,0,P|212:39|224:74,1,68.0000012969971,8|0,0:1|0:0,0:0:0:0:
268,248,107328,2,0,B|320:239|320:239|337:222|337:222|395:214,1,136.000002593994,2|0,0:0|0:0,0:0:0:0:
194,183,107662,1,0,1:0:0:0:
455,134,107828,2,0,P|496:203|469:280,1,167.999994873047,8|0,0:1|0:0,0:0:0:0:
452,302,108162,6,0,L|455:134,1,167.999994873047,2|0,1:2|0:0,0:0:0:0:
420,52,108495,2,0,P|445:42|473:43,1,55.9999982910157,8|0,0:1|0:0,0:0:0:0:
321,139,108662,2,0,L|209:126,1,111.999996582031,2|0,1:2|0:0,0:0:0:0:
63,135,108995,1,0,1:0:0:0:
172,21,109162,1,8,0:1:0:0:
12,2,109328,1,2,0:0:0:0:
55,157,109495,6,0,P|96:193|151:194,1,111.999996582031,2|2,1:2|0:0,0:0:0:0:
279,102,109828,1,8,0:1:0:0:
271,309,109995,2,0,P|281:255|255:207,1,111.999996582031,2|0,1:2|0:0,0:0:0:0:
126,105,110328,2,0,B|141:77|142:53|142:53|158:72|192:81,1,111.999996582031,2|8,1:2|0:1,0:0:0:0:
368,127,110662,1,2,0:0:0:0:
270,0,110828,6,0,L|287:167,1,167.999994873047,2|0,1:2|0:0,0:0:0:0:
290,201,111162,1,8,0:1:0:0:
451,96,111328,2,0,L|433:263,1,167.999994873047,2|0,1:2|0:0,0:0:0:0:
428,297,111662,1,0,1:0:0:0:
363,181,111828,1,8,0:1:0:0:
512,316,111995,1,0,0:0:0:0:
298,316,112162,6,0,B|217:303|217:370|134:354,1,167.999994873047,2|0,1:2|0:0,0:0:0:0:
62,308,112495,2,0,P|50:333|49:362,1,55.9999982910157,8|0,0:1|0:0,0:0:0:0:
148,233,112662,2,0,B|156:200|156:200|120:70,1,167.999994873047,2|0,1:2|0:0,0:0:0:0:
96,0,112995,1,0,1:0:0:0:
219,88,113162,2,0,B|283:107|291:16|375:47,1,167.999994873047,8|2,0:1|0:0,0:0:0:0:
393,35,113495,6,0,L|405:146,1,111.999996582031,2|2,1:2|0:0,0:0:0:0:
419,274,113828,1,8,0:1:0:0:
235,215,113995,2,0,P|272:255|326:266,1,111.999996582031,2|0,1:2|0:0,0:0:0:0:
505,210,114328,1,0,1:0:0:0:
324,169,114495,1,8,0:1:0:0:
463,364,114662,6,0,P|411:342|355:339,1,111.999996582031,2|0,0:0|1:0,0:0:0:0:
171,295,114995,2,0,P|226:291|278:270,1,111.999996582031,2|8,0:0|0:1,0:0:0:0:
396,130,115328,2,0,L|381:241,1,111.999996582031,2|0,1:2|0:0,0:0:0:0:
200,168,115662,2,0,L|185:56,1,111.999996582031,2|8,1:2|0:1,0:0:0:0:
396,130,115995,6,0,P|340:131|288:114,1,111.999996582031,2|2,0:0|1:2,0:0:0:0:
76,71,116328,2,0,P|129:54|185:56,1,111.999996582031,0|8,0:0|0:1,0:0:0:0:
396,130,116662,1,2,1:2:0:0:
396,130,116995,1,0,1:0:0:0:
297,201,117162,1,8,0:1:0:0:
283,79,117328,1,2,0:0:0:0:
368,258,117495,6,0,B|335:237|335:237|245:253|245:253|212:233,1,167.999994873047,4|0,1:0|0:0,0:0:0:0:
139,183,117828,2,0,P|127:208|126:236,1,55.9999982910157,8|0,0:1|0:0,0:0:0:0:
53,355,117995,2,0,L|35:244,1,111.999996582031,2|0,1:2|0:0,0:0:0:0:
7,99,118328,1,0,1:0:0:0:
230,114,118495,2,0,P|154:96|155:18,1,167.999994873047,8|0,0:1|0:0,0:0:0:0:
161,0,118828,6,0,P|213:21|354:-3,1,167.999994873047,2|0,1:2|0:0,0:0:0:0:
407,6,119162,2,0,P|407:33|394:58,1,55.9999982910157,8|0,0:1|0:0,0:0:0:0:
491,134,119328,2,0,P|435:139|387:167,1,111.999996582031,2|0,1:2|0:0,0:0:0:0:
291,252,119662,1,0,1:0:0:0:
321,108,119828,1,8,0:1:0:0:
206,203,119995,1,2,0:0:0:0:
388,188,120162,6,0,P|418:233|413:288,1,111.999996582031,0|2,1:0|0:0,0:0:0:0:
289,357,120495,1,8,0:1:0:0:
288,139,120662,2,0,P|342:135|387:167,1,111.999996582031,2|0,1:2|0:0,0:0:0:0:
255,255,120995,2,0,L|143:228,1,111.999996582031,2|8,1:2|0:1,0:0:0:0:
0,194,121328,1,2,0:0:0:0:
98,339,121495,6,0,B|126:360|126:360|145:228,1,167.999994873047,0|0,1:0|0:0,0:0:0:0:
149,211,121828,1,8,0:1:0:0:
220,36,121995,2,0,B|248:15|248:15|267:146,1,167.999994873047,2|0,1:2|0:0,0:0:0:0:
271,164,122328,1,0,1:0:0:0:
338,33,122495,1,8,0:1:0:0:
177,109,122662,1,2,1:2:0:0:
259,257,122828,6,0,P|315:253|353:210,1,111.999996582031,2|2,1:2|0:0,0:0:0:0:
167,209,123162,1,8,0:1:0:0:
381,134,123328,2,0,P|427:165|438:221,1,111.999996582031,2|0,1:2|0:0,0:0:0:0:
277,129,123662,1,2,1:2:0:0:
444,75,123828,1,8,0:1:0:0:
321,22,123995,1,2,0:0:0:0:
321,22,124162,6,0,B|243:5|240:105|168:76,1,167.999994873047,2|0,1:2|0:0,0:0:0:0:
151,73,124495,1,8,0:1:0:0:
309,130,124662,2,0,B|387:113|390:213|462:184,1,167.999994873047,2|0,1:2|0:0,0:0:0:0:
479,181,124995,1,0,1:0:0:0:
309,222,125162,1,8,0:1:0:0:
398,369,125328,6,0,P|411:316|384:268,1,111.999996582031,2|0,0:0|1:0,0:0:0:0:
456,185,125662,2,0,P|416:147|361:146,1,111.999996582031,2|8,0:0|0:1,0:0:0:0:
219,218,125995,2,0,P|165:226|118:198,1,111.999996582031,2|0,1:2|0:0,0:0:0:0:
146,66,126328,2,0,P|200:57|247:85,1,111.999996582031,2|8,1:2|0:1,0:0:0:0:
97,215,126662,6,0,L|79:104,1,111.999996582031,2|2,0:0|1:2,0:0:0:0:
239,234,126995,2,0,L|221:344,1,111.999996582031,2|8,0:0|0:1,0:0:0:0:
42,380,127328,1,2,1:2:0:0:
42,379,127662,1,0,1:0:0:0:
117,299,127828,1,8,0:1:0:0:
221,344,127995,1,2,1:2:0:0:
24,262,128162,6,0,B|-8:181|-8:181|48:105,1,167.999994873047,4|0,1:0|0:0,0:0:0:0:
161,181,128495,2,0,P|116:196|88:179,1,55.9999982910157,8|0,0:1|0:0,0:0:0:0:
21,26,128662,2,0,P|80:29|120:95,1,111.999996582031,2|0,1:2|0:0,0:0:0:0:
120,278,128995,1,0,1:0:0:0:
161,181,129162,2,0,B|212:209|212:209|329:185,1,167.999994873047,8|0,0:1|0:0,0:0:0:0:
290,33,129495,6,0,P|243:68|241:117,2,111.999996582031,2|0|8,1:2|0:0|0:1,0:0:0:0:
369,251,129995,2,0,P|371:145|404:66,1,167.999994873047,2|0,1:2|0:0,0:0:0:0:
454,158,130328,1,0,1:0:0:0:
254,227,130495,1,8,0:1:0:0:
254,227,130662,6,0,P|284:302|275:343,1,111.999996582031,2|0,0:0|1:0,0:0:0:0:
88,289,130995,2,0,P|111:232|165:208,1,111.999996582031,2|8,0:0|0:1,0:0:0:0:
314,97,131328,2,0,P|221:131|193:114,1,111.999996582031,2|0,1:2|0:0,0:0:0:0:
88,1,131662,2,0,P|108:76|107:136,1,111.999996582031,2|8,1:2|0:1,0:0:0:0:
6,272,131995,5,2,0:0:0:0:
6,272,132078,1,0,0:0:0:0:
6,272,132162,2,0,P|52:232|118:242,1,111.999996582031,2|0,1:2|0:0,0:0:0:0:
307,279,132495,1,8,0:1:0:0:
208,367,132662,2,0,B|237:268|161:301|209:175,1,167.999994873047,2|0,1:2|0:0,0:0:0:0:
276,155,132995,2,0,L|345:145,1,55.9999982910157,0|0,1:0|0:0,0:0:0:0:
167,87,133162,1,8,0:1:0:0:
281,22,133328,1,0,1:0:0:0:
86,129,133495,6,0,P|72:43|180:8,1,167.999994873047,2|0,1:2|0:0,0:0:0:0:
203,96,133828,2,0,P|178:170|180:189,1,55.9999982910157,8|0,0:1|0:0,0:0:0:0:
81,281,133995,2,0,P|147:244|198:253,1,111.999996582031,2|0,1:2|0:0,0:0:0:0:
392,142,134328,1,0,1:0:0:0:
342,44,134495,2,0,P|296:127|292:211,1,167.999994873047,8|0,0:1|0:0,0:0:0:0:
335,275,134828,5,2,1:2:0:0:
419,263,134995,1,0,0:0:0:0:
509,249,135162,1,8,0:1:0:0:
248,384,135328,2,0,P|260:302|192:261,1,167.999994873047,2|0,1:2|0:0,0:0:0:0:
96,253,135662,2,0,L|115:323,1,55.9999982910157,0|0,1:0|0:0,0:0:0:0:
201,80,135828,1,8,0:1:0:0:
278,118,135995,6,0,P|231:168|180:167,1,111.999996582031,2|0,0:0|1:0,0:0:0:0:
0,124,136328,2,0,P|63:80|116:105,1,111.999996582031,2|8,0:0|0:1,0:0:0:0:
110,307,136662,2,0,P|172:272|220:281,1,111.999996582031,2|0,1:2|0:0,0:0:0:0:
330,180,136995,1,2,1:2:0:0:
232,108,137162,1,8,0:1:0:0:
337,285,137328,6,0,B|303:330|303:330|312:392,1,111.999996582031,2|2,0:0|1:2,0:0:0:0:
410,342,137662,1,2,0:2:0:0:
260,210,137828,1,8,0:1:0:0:
503,131,137995,2,0,B|396:130|458:201|352:201,1,167.999994873047,2|0,1:2|0:0,0:0:0:0:
301,123,138328,2,0,P|311:97|339:77,1,55.9999982910157,0|0,1:0|0:0,0:0:0:0:
503,131,138495,1,8,0:1:0:0:
417,36,138662,1,2,0:0:0:0:
459,224,138828,6,0,P|408:191|339:218,1,111.999996582031,4|0,1:1|0:0,0:0:0:0:
315,380,139162,1,8,0:1:0:0:
392,312,139328,2,0,B|308:284|308:284|207:325,1,167.999994873047,2|0,1:2|0:0,0:0:0:0:
178,219,139662,2,0,L|246:202,1,55.9999982910157,0|0,1:0|0:0,0:0:0:0:
121,384,139828,2,0,P|126:320|74:292,1,111.999996582031,8|0,0:1|0:0,0:0:0:0:
73,119,140162,6,0,P|34:140|29:220,2,111.999996582031,2|0|8,1:2|0:0|0:1,0:0:0:0:
185,251,140662,2,0,P|161:154|235:85,1,167.999994873047,2|0,1:2|0:0,0:0:0:0:
255,182,140995,1,0,1:0:0:0:
123,36,141162,1,8,0:1:0:0:
289,69,141328,6,0,P|355:112|391:102,1,111.999996582031,2|0,0:0|1:2,0:0:0:0:
468,197,141662,2,0,P|516:137|506:92,1,111.999996582031,2|8,0:0|0:1,0:0:0:0:
321,179,141995,2,0,P|351:264|348:307,1,111.999996582031,2|0,1:2|0:0,0:0:0:0:
443,383,142328,2,0,P|448:327|472:277,1,111.999996582031,2|8,1:2|0:1,0:0:0:0:
474,121,142662,5,2,0:0:0:0:
474,121,142745,1,2,0:0:0:0:
474,121,142828,2,0,B|387:127|415:182|309:178,1,167.999994873047,0|0,1:2|0:0,0:0:0:0:
238,181,143162,1,8,0:1:0:0:
338,0,143328,2,0,P|370:32|278:21,1,223.999993164063,2|0,1:2|1:0,0:0:0:0:
174,268,143828,1,8,0:1:0:0:
238,181,143995,6,0,P|180:155|121:187,1,111.999996582031,2|0,0:0|1:2,0:0:0:0:
29,21,144328,2,0,P|31:73|76:42,1,111.999996582031,2|8,0:0|0:1,0:0:0:0:
173,263,144662,2,0,P|168:196|124:166,1,111.999996582031,2|0,1:2|0:0,0:0:0:0:
155,0,144995,2,0,P|88:26|75:84,1,111.999996582031,2|8,1:2|0:1,0:0:0:0:
48,259,145328,5,2,0:0:0:0:
48,259,145412,1,2,0:0:0:0:
48,259,145495,2,0,P|38:178|11:139,1,111.999996582031,2|2,1:2|0:0,0:0:0:0:
255,303,145828,1,8,0:1:0:0:
182,211,145995,2,0,P|148:317|160:384,1,167.999994873047,2|0,1:2|0:0,0:0:0:0:
255,303,146328,1,0,1:0:0:0:
107,147,146495,1,8,0:1:0:0:
272,144,146662,6,0,P|323:201|359:199,1,111.999996582031,2|0,0:2|1:0,0:0:0:0:
512,68,146995,2,0,P|448:70|421:134,1,111.999996582031,2|8,0:0|0:1,0:0:0:0:
333,297,147328,2,0,P|413:280|438:232,1,111.999996582031,2|0,1:2|0:0,0:0:0:0:
422,105,147662,1,2,1:2:0:0:
353,200,147828,1,8,0:1:0:0:
425,347,147995,6,0,P|362:298|312:300,1,111.999996582031,2|2,0:0|1:2,0:0:0:0:
139,195,148328,1,2,0:0:0:0:
217,269,148495,1,8,0:1:0:0:
293,190,148662,2,0,B|316:91|249:124|282:21,1,167.999994873047,2|0,1:2|0:0,0:0:0:0:
361,63,148995,1,0,1:0:0:0:
202,159,149162,2,0,B|188:187|188:187|213:234,1,55.9999982910157,8|0,0:1|0:0,0:0:0:0:
333,358,149328,2,0,B|344:336|344:336|330:308,1,55.9999982910157,0|0,1:0|0:0,0:0:0:0:
226,304,149495,6,0,B|134:303|174:354|55:355,1,160,4|8,0:1|0:1,0:0:0:0:
226,304,149995,2,0,B|134:305|174:254|55:253,1,160,0|0,0:0|1:0,0:0:0:0:
45,103,150495,2,0,P|16:155|24:179,1,80,8|0,0:1|0:0,0:0:0:0:
148,177,150828,2,0,P|133:131|161:111,2,80,0|0|8,1:0|0:0|0:1,0:0:0:0:
233,374,151328,2,0,P|257:279|209:223,1,160,0|0,1:0|1:0,0:0:0:0:
172,307,151828,1,8,0:1:0:0:
327,215,151995,1,0,0:0:0:0:
227,94,152162,6,0,P|278:131|303:107,1,80,0|0,1:0|0:0,0:0:0:0:
448,105,152495,1,8,0:1:0:0:
473,19,152662,2,0,P|398:19|364:103,1,160,0|0,0:0|1:0,0:0:0:0:
318,257,153162,2,0,P|342:205|391:212,1,80,8|0,0:1|0:0,0:0:0:0:
494,260,153495,2,0,P|483:317|483:353,2,80,0|0|8,1:0|0:0|0:1,0:0:0:0:
361,44,153995,2,0,P|391:126|389:219,1,160,0|0,1:0|1:0,0:0:0:0:
283,340,154495,2,0,P|322:310|372:308,1,80,8|0,0:1|0:0,0:0:0:0:
298,146,154828,6,0,P|276:207|165:240,1,160,0|8,1:0|0:1,0:0:0:0:
64,273,155328,2,0,P|127:220|204:259,1,160,0|0,0:0|1:0,0:0:0:0:
262,66,155828,2,0,P|215:127|219:157,1,80,8|0,0:1|0:0,0:0:0:0:
338,249,156162,1,0,1:0:0:0:
303,141,156328,1,0,0:0:0:0:
438,244,156495,1,8,0:1:0:0:
464,133,156662,1,0,1:0:0:0:
464,133,156995,6,0,L|463:70,1,47.9999985351563,2|0,1:2|0:0,0:0:0:0:
378,12,157162,2,0,L|379:75,1,47.9999985351563,8|0,0:1|0:0,0:0:0:0:
468,209,157328,2,0,P|419:166|353:185,1,95.9999970703126,2|0,0:0|1:0,0:0:0:0:
316,242,157662,6,0,L|235:251,1,47.9999985351563,2|0,0:0|0:0,0:0:0:0:
163,165,157828,2,0,L|244:156,1,47.9999985351563,8|0,0:1|0:0,0:0:0:0:
334,36,157995,2,0,P|264:29|236:57,1,95.9999970703126,2|0,1:2|0:1,0:0:0:0:
304,169,158328,6,0,L|295:92,1,47.9999985351563,2|0,1:2|0:0,0:0:0:0:
164,20,158495,2,0,L|173:97,1,47.9999985351563,8|0,0:1|0:0,0:0:0:0:
319,262,158662,2,0,P|265:207|170:244,1,143.999995605469,2|0,0:2|0:0,0:0:0:0:
120,276,158995,6,0,L|120:350,1,47.9999985351563,2|0,0:0|0:0,0:0:0:0:
37,200,159162,2,0,L|37:274,1,47.9999985351563,8|0,0:1|0:0,0:0:0:0:
233,122,159328,2,0,P|167:121|120:201,1,143.999995605469,2|0,1:2|0:0,0:0:0:0:
203,212,159662,1,0,1:0:0:0:
120,61,159828,1,8,0:1:0:0:
321,162,159995,1,0,1:0:0:0:
276,25,160162,6,0,L|340:21,1,44.0000013427735,2|0,0:1|0:0,0:0:0:0:
425,84,160495,2,0,L|361:88,1,44.0000013427735,2|0,0:1|0:0,0:0:0:0:
277,40,160828,6,8,L|341:36,1,44.0000013427735,2|0,0:3|0:0,0:0:0:0:
426,99,161078,2,0,L|362:103,1,44.0000013427735,2|0,0:3|0:3,0:3:0:0:
287,168,161328,1,2,0:3:0:0:
375,256,161495,6,0,P|376:216|367:199,1,44.0000013427735,2|0,0:1|0:0,0:0:0:0:
459,263,161828,2,0,P|460:223|451:206,1,44.0000013427735,2|0,0:1|0:0,0:0:0:0:
375,256,162162,6,0,P|376:216|367:199,1,44.0000013427735,2|0,0:3|0:0,0:0:0:0:
286,125,162412,2,0,P|285:165|294:182,1,44.0000013427735,2|0,0:3|0:3,0:3:0:0:
374,117,162662,1,2,0:3:0:0:
280,256,162828,6,0,L|218:258,1,44.0000013427735,2|0,0:1|0:0,0:0:0:0:
171,316,163162,2,0,L|109:318,1,44.0000013427735,2|0,0:1|0:0,0:0:0:0:
280,256,163495,6,0,L|218:258,1,44.0000013427735,2|0,0:3|0:0,0:0:0:0:
171,316,163745,2,0,L|109:318,1,44.0000013427735,2|0,0:3|0:0,0:0:0:0:
49,268,163995,1,2,0:3:0:0:
129,187,164162,6,0,B|137:207|137:207|129:237,1,44.0000013427735,2|0,0:1|0:0,0:0:0:0:
46,140,164495,2,0,B|38:120|38:120|46:90,1,44.0000013427735,2|0,0:1|0:0,0:0:0:0:
129,187,164828,6,0,B|137:207|137:207|129:237,1,44.0000013427735,2|0,0:3|0:0,0:0:0:0:
46,140,165078,2,0,B|38:120|38:120|46:90,1,44.0000013427735,2|0,0:3|0:0,0:0:0:0:
111,30,165328,1,2,0:3:0:0:
194,103,165495,6,0,L|244:102,1,44.0000013427735,2|0,0:1|0:0,0:0:0:0:
344,24,165828,2,0,L|294:25,1,44.0000013427735,2|0,0:1|0:0,0:0:0:0:
216,184,166162,6,0,L|266:183,1,44.0000013427735,2|0,0:3|0:0,0:0:0:0:
366,105,166412,2,0,L|316:106,1,44.0000013427735,2|0,0:3|0:0,0:0:0:0:
216,184,166662,1,2,0:3:0:0:
332,268,166828,6,0,P|332:226|322:211,1,44.0000013427735,2|0,0:1|0:0,0:0:0:0:
259,140,167162,2,0,P|259:182|269:197,1,44.0000013427735,2|0,0:1|0:0,0:0:0:0:
413,268,167495,6,0,P|413:227|405:212,1,44.0000013427735,2|0,0:3|0:0,0:0:0:0:
347,140,167745,2,0,P|342:118|346:97,1,44.0000013427735,2|0,0:3|0:0,0:0:0:0:
412,30,167995,1,2,0:3:0:0:
494,119,168162,6,0,L|436:120,1,44.0000013427735,2|0,0:1|0:0,0:0:0:0:
394,214,168495,2,0,L|336:215,1,44.0000013427735,2|0,0:1|0:0,0:0:0:0:
494,119,168828,6,0,L|436:120,1,44.0000013427735,2|0,0:3|0:0,0:0:0:0:
394,214,169078,2,0,L|336:215,1,44.0000013427735,2|0,0:3|0:0,0:0:0:0:
267,151,169328,1,2,0:3:0:0:
189,228,169495,6,0,B|166:272|200:300|200:300|197:302|197:302|200:300|200:300|231:336|216:377,1,167.999994873047,4|0,0:3|0:0,0:0:0:0:
122,354,170828,6,0,L|43:339,1,80,2|0,1:0|0:0,0:0:0:0:
189,228,171162,2,0,L|291:209,1,103.999995239258,10|0,0:1|0:0,0:0:0:0:
96,153,171495,1,2,0:1:0:0:
47,0,171662,2,0,P|27:22|20:51,1,60.0000022888184,0|0,1:0|0:0,0:0:0:0:
99,65,171828,2,0,B|171:71|187:143|187:143|250:150|282:120,1,204.000003890991,10|0,0:1|0:0,0:0:0:0:
278,124,172162,5,2,1:2:0:0:
394,46,172328,1,2,0:0:0:0:
366,203,172495,1,8,0:1:0:0:
293,28,172662,1,2,0:0:0:0:
444,120,172828,1,2,0:0:0:0:
281,195,172995,1,2,1:2:0:0:
406,29,173162,2,0,B|464:6|464:6|430:218,1,264.000008056641,8|0,0:1|0:0,0:0:0:0:
430,232,173495,6,0,P|396:211|357:201,1,80,2|0,1:0|0:0,0:0:0:0:
254,341,173828,2,0,P|287:320|351:308,1,103.999995239258,10|0,0:1|0:0,0:0:0:0:
484,374,174162,1,2,0:1:0:0:
351,308,174328,2,0,P|340:277|344:248,1,60.0000022888184,2|0,1:0|0:0,0:0:0:0:
266,205,174495,2,0,B|175:207|175:207|153:220|153:220|62:220,1,204.000003890991,10|0,0:1|0:0,0:0:0:0:
54,231,174828,5,2,1:2:0:0:
88,97,174995,1,2,0:0:0:0:
121,256,175162,1,8,0:1:0:0:
6,147,175328,1,2,1:2:0:0:
171,166,175495,1,2,0:0:0:0:
27,255,175662,1,2,1:2:0:0:
96,87,175828,1,8,0:1:0:0:
96,87,175995,1,0,1:0:0:0:
261,151,176162,6,0,P|299:161|336:149,1,80,2|0,1:0|0:0,0:0:0:0:
476,78,176495,2,0,P|439:114|428:164,1,103.999995239258,10|0,0:1|0:0,0:0:0:0:
451,311,176828,1,2,0:1:0:0:
324,253,176995,2,0,P|308:278|305:308,1,60.0000022888184,0|0,1:0|0:0,0:0:0:0:
234,333,177162,2,0,B|191:345|191:345|78:286|78:286|25:300,1,204.000003890991,10|0,0:1|0:0,0:0:0:0:
33,312,177495,5,2,1:2:0:0:
10,159,177662,1,2,0:0:0:0:
109,283,177828,1,8,0:1:0:0:
135,115,177995,1,2,1:2:0:0:
239,244,178162,1,2,0:0:0:0:
210,58,178329,1,2,1:2:0:0:
319,189,178495,2,0,B|344:216|385:218|385:218|426:186|479:203,1,167.999994873047,8|2,0:1|0:0,0:0:0:0:
434,103,178828,6,0,L|446:293,1,180.000006866455,2|0,1:2|0:0,0:0:0:0:
447,306,179162,1,8,0:1:0:0:
322,362,179328,6,0,B|233:370|232:277|149:291,1,192,2|0,0:0|0:0,0:0:0:0:
131,303,179662,1,0,1:0:0:0:
131,303,179828,1,8,0:1:0:0:
295,141,179995,6,0,B|312:164|312:164|316:263,2,128,2|2|0,1:2|1:2|0:0,0:0:0:0:
178,0,180495,5,8,0:1:0:0:
76,67,180662,2,0,B|135:73|135:73|148:83|148:83|211:88,1,136.000002593994,2|2,1:2|0:0,0:0:0:0:
421,110,180995,1,0,1:0:0:0:
331,17,181161,1,8,0:1:0:0:
295,141,181328,1,0,1:0:0:0:
493,9,181495,6,0,P|453:7|414:18,1,80,2|0,1:0|0:0,0:0:0:0:
294,141,181828,2,0,P|243:141|196:121,1,103.999995239258,10|0,0:1|0:0,0:0:0:0:
112,13,182162,1,2,0:1:0:0:
22,113,182328,2,0,B|20:146|20:146|31:170,1,60.0000022888184,0|0,1:0|0:0,0:0:0:0:
3,257,182495,2,0,B|47:278|99:235|99:235|149:257|156:316,1,204.000003890991,10|0,0:1|0:0,0:0:0:0:
159,333,182828,5,2,1:2:0:0:
275,255,182995,1,2,0:0:0:0:
99,235,183162,1,8,0:1:0:0:
296,260,183328,1,2,1:2:0:0:
164,163,183495,1,2,0:0:0:0:
149,355,183662,1,2,1:2:0:0:
311,252,183828,2,0,B|370:231|370:231|504:275,1,204.000003890991,8|0,0:1|0:0,0:0:0:0:
491,299,184162,6,0,L|501:219,1,80,2|0,1:0|0:0,0:0:0:0:
357,128,184495,2,0,L|370:231,1,103.999995239258,10|0,0:1|0:0,0:0:0:0:
477,377,184828,1,2,0:1:0:0:
338,307,184995,2,0,P|308:304|282:318,1,60.0000022888184,2|0,1:0|0:0,0:0:0:0:
186,361,185162,2,0,B|164:313|190:265|190:265|219:215|192:161,1,204.000003890991,10|0,0:1|0:0,0:0:0:0:
185,152,185495,5,2,1:2:0:0:
71,76,185662,1,2,0:0:0:0:
106,215,185828,1,8,0:1:0:0:
158,49,185995,1,2,1:2:0:0:
26,162,186162,1,2,0:0:0:0:
206,180,186328,1,2,1:2:0:0:
58,62,186495,1,8,0:1:0:0:
58,62,186662,1,0,1:0:0:0:
241,46,186828,6,0,P|277:62|316:66,1,80,2|0,1:0|0:0,0:0:0:0:
471,106,187162,2,0,P|419:112|376:140,1,103.999995239258,10|0,0:1|0:0,0:0:0:0:
239,194,187495,1,2,0:1:0:0:
439,214,187662,2,0,P|439:243|429:272,1,60.0000022888184,0|0,1:0|0:0,0:0:0:0:
512,319,187828,2,0,P|422:307|328:352,1,180.000006866455,10|0,0:1|0:0,0:0:0:0:
328,360,188162,5,2,1:2:0:0:
180,319,188328,1,2,0:0:0:0:
315,231,188495,1,8,0:1:0:0:
167,190,188661,1,2,1:2:0:0:
302,102,188829,1,2,0:0:0:0:
154,61,188995,1,2,1:2:0:0:
308,0,189162,2,0,B|382:-16|381:71|465:54,1,167.999994873047,8|2,0:1|0:0,0:0:0:0:
462,196,189495,6,0,P|413:127|457:54,1,180.000006866455,0|0,1:0|0:0,0:0:0:0:
472,50,189828,1,8,0:1:0:0:
341,171,189995,6,0,B|269:164|269:164|250:150|250:150|154:140,1,192,2|0,1:2|0:0,0:0:0:0:
137,143,190328,1,0,1:0:0:0:
137,143,190495,1,8,0:1:0:0:
213,245,190662,6,0,B|203:344|203:344|177:366,2,128,2|2|0,1:2|1:2|0:0,0:0:0:0:
265,64,191162,5,8,0:1:0:0:
317,1,191328,2,0,B|357:1|383:18|383:18|377:44|347:66,1,128,2|2,1:2|0:0,0:0:0:0:
47,50,191662,1,0,1:0:0:0:
137,143,191828,1,8,0:1:0:0:
173,19,191995,1,0,1:0:0:0:
17,254,192162,6,0,B|73:221|73:221|99:242|148:249,1,128,6|0,1:0|0:0,0:0:0:0:
226,173,192495,2,0,P|246:87|187:54,1,143.999995605469,10|0,0:1|0:0,0:0:0:0:
274,362,192828,1,2,0:1:0:0:
182,330,192995,2,0,P|244:277|266:282,1,80,0|0,1:0|0:0,0:0:0:0:
378,378,193162,2,0,B|357:305|357:305|385:237,1,143.999995605469,10|0,0:1|0:0,0:0:0:0:
472,197,193495,5,2,1:2:0:0:
361,135,193662,1,2,0:0:0:0:
494,100,193828,5,8,0:1:0:0:
350,238,193995,1,2,1:2:0:0:
451,280,194162,5,2,0:0:0:0:
414,63,194328,1,2,1:2:0:0:
273,176,194495,2,0,B|172:173|224:232|114:219,1,151.999995941162,8|0,0:1|0:0,0:0:0:0:
113,59,194828,6,0,B|143:127,1,60.0000022888184,2|0,1:0|0:0,0:0:0:0:
28,259,195162,2,0,B|16:214|16:214|58:154,1,92.0000017547608,10|0,0:1|0:0,0:0:0:0:
195,301,195495,1,2,0:1:0:0:
120,383,195662,2,0,L|105:303,1,70.000000667572,2|0,1:0|0:0,0:0:0:0:
265,165,195828,2,0,P|289:257|207:297,1,176.000005371094,10|0,0:1|0:0,0:0:0:0:
145,184,196162,5,2,1:2:0:0:
256,59,196328,1,2,0:0:0:0:
74,96,196495,5,8,0:1:0:0:
265,165,196661,1,2,1:2:0:0:
47,219,196828,5,0,0:0:0:0:
173,100,196995,1,2,1:2:0:0:
215,260,197162,2,0,P|196:306|220:360,1,88.000002685547,8|0,0:1|0:0,0:0:0:0:
327,384,197328,2,0,P|335:341|316:302,1,88.000002685547,0|0,1:0|0:0,0:0:0:0:
173,191,197495,6,0,P|239:233|314:187,1,136.000002593994,2|0,1:0|0:0,0:0:0:0:
360,54,197828,2,0,B|321:33|321:33|354:152,1,136.000002593994,10|0,0:1|0:0,0:0:0:0:
512,238,198162,1,2,0:1:0:0:
456,165,198328,2,0,P|420:247|425:267,1,68.0000012969971,0|0,1:0|0:0,0:0:0:0:
512,357,198495,2,0,P|403:326|300:352,1,204.000003890991,10|0,0:1|0:0,0:0:0:0:
271,352,198828,5,2,1:2:0:0:
197,252,198995,1,2,0:0:0:0:
324,241,199162,5,8,0:1:0:0:
144,350,199328,1,2,1:2:0:0:
226,149,199495,5,2,0:0:0:0:
247,338,199662,1,2,1:2:0:0:
87,241,199828,1,8,0:1:0:0:
186,93,199995,5,2,0:0:0:0:
186,93,200078,1,2,0:0:0:0:
186,93,200162,2,0,P|257:135|313:103,1,128,2|0,1:2|0:0,0:0:0:0:
505,148,200495,1,8,0:1:0:0:
439,32,200662,2,0,B|406:107|406:107|417:152|417:152|395:227,1,192,2|0,1:2|0:0,0:0:0:0:
387,236,200995,1,0,1:2:0:0:
293,201,201162,1,8,0:1:0:0:
504,346,201328,5,2,1:2:0:0:
504,346,201412,1,2,0:0:0:0:
504,346,201495,2,0,P|425:343|385:391,1,128,2|0,1:2|0:0,0:0:0:0:
188,310,201828,1,8,0:1:0:0:
286,384,201995,2,0,P|289:270|321:216,1,128,2|2,1:2|0:0,0:0:0:0:
465,99,202328,1,2,1:2:0:0:
384,203,202495,1,8,0:1:0:0:
317,91,202662,1,0,0:0:0:0:
204,170,202828,6,0,P|133:168|82:224,1,143.999995605469,2|0,1:0|0:0,0:0:0:0:
25,29,203162,2,0,P|96:27|147:83,1,143.999995605469,10|0,0:1|0:0,0:0:0:0:
174,264,203495,1,2,0:1:0:0:
62,149,203662,2,0,P|83:207|83:245,1,71.9999978027344,0|0,1:0|0:0,0:0:0:0:
24,361,203828,2,0,B|103:315|103:315|262:335,1,215.999993408203,10|0,0:1|0:0,0:0:0:0:
279,321,204162,5,2,1:2:0:0:
227,189,204328,1,2,0:2:0:0:
334,228,204495,5,8,0:1:0:0:
378,103,204662,1,2,1:2:0:0:
450,199,204828,5,2,0:0:0:0:
262,99,204995,1,2,1:2:0:0:
483,0,205162,2,0,P|437:97|376:70,1,160,8|0,0:1|0:0,0:0:0:0:
276,294,205495,6,0,P|285:210|332:183,1,128,2|0,1:0|0:0,0:0:0:0:
145,38,205828,2,0,P|154:122|201:149,1,128,10|0,0:1|0:0,0:0:0:0:
392,259,206162,1,2,0:1:0:0:
296,33,206328,2,0,B|269:67|269:67|285:119,1,80,2|0,0:1|0:0,0:0:0:0:
511,136,206495,2,0,B|417:134|465:185|326:168,1,160,10|0,0:1|0:0,0:0:0:0:
187,278,206828,5,2,1:2:0:0:
166,166,206995,1,2,0:0:0:0:
324,264,207162,5,8,0:1:0:0:
308,379,207328,1,2,1:2:0:0:
96,248,207495,5,2,0:0:0:0:
266,160,207662,1,2,1:2:0:0:
150,9,207828,2,0,B|111:73|111:73|144:161,1,160,8|0,0:1|1:0,0:0:0:0:
418,91,208162,6,0,P|357:89|312:15,1,143.999995605469,2|0,1:0|0:0,0:0:0:0:
224,283,208495,2,0,P|253:206|326:215,1,143.999995605469,10|0,0:1|0:0,0:0:0:0:
509,254,208828,1,2,0:1:0:0:
418,195,208995,2,0,L|403:102,1,71.9999978027344,0|0,1:0|0:0,0:0:0:0:
512,364,209162,2,0,P|428:319|317:385,1,215.999993408203,10|0,0:1|0:0,0:0:0:0:
272,371,209495,5,2,1:2:0:0:
306,210,209662,1,2,0:0:0:0:
174,296,209828,5,8,0:1:0:0:
405,236,209995,1,2,1:2:0:0:
186,109,210162,5,2,0:0:0:0:
267,283,210328,1,2,1:2:0:0:
381,116,210495,1,8,0:1:0:0:
264,188,210662,5,2,1:2:0:0:
264,188,210745,1,2,0:0:0:0:
264,188,210828,2,0,P|179:243|172:290,1,143.999995605469,2|0,1:2|0:0,0:0:0:0:
267,283,211162,1,8,0:1:0:0:
23,115,211328,2,0,B|120:141|120:141|169:91|247:88,1,215.999993408203,2|0,1:2|0:0,0:0:0:0:
265,88,211662,1,0,1:0:0:0:
212,204,211828,1,8,0:1:0:0:
352,284,211995,5,2,1:2:0:0:
352,284,212078,1,2,0:0:0:0:
352,284,212162,2,0,B|327:213|327:213|382:132,1,143.999995605469,2|0,1:2|0:0,0:0:0:0:
445,231,212495,1,8,0:1:0:0:
283,91,212662,2,0,P|338:44|430:84,1,143.999995605469,2|0,1:2|0:0,0:0:0:0:
360,296,212995,1,0,1:0:0:0:
365,156,213162,1,8,0:1:0:0:
474,239,213328,1,0,1:0:0:0:
283,308,213495,6,0,B|248:314|248:314|230:309|230:309|196:316,1,88.000002685547,4|0,0:1|0:0,0:0:0:0:
155,242,213828,2,0,B|120:248|120:248|102:243|102:243|68:250,1,88.000002685547,8|0,0:1|0:0,0:0:0:0:
272,215,214162,2,0,B|307:221|307:221|325:216|325:216|358:223,1,88.000002685547,2|0,0:0|1:0,0:0:0:0:
400,149,214495,2,0,B|435:155|435:155|453:150|453:150|486:157,1,88.000002685547,8|0,0:1|0:0,0:0:0:0:
302,22,214828,5,2,1:2:0:0:
279,131,214995,1,2,0:0:0:0:
85,237,215162,5,8,0:1:0:0:
191,202,215329,1,2,1:2:0:0:
380,316,215495,5,2,0:0:0:0:
297,242,215662,1,2,1:2:0:0:
198,346,215828,2,0,B|153:357|153:357|117:331,1,90.0000034332277,8|0,0:1|0:0,0:0:0:0:
93,334,216162,6,0,P|104:292|103:248,1,88.000002685547,2|0,1:2|0:0,0:0:0:0:
183,101,216495,2,0,P|171:143|172:187,1,88.000002685547,8|0,0:1|0:0,0:0:0:0:
210,352,216828,2,0,P|198:309|199:265,1,88.000002685547,2|0,0:0|1:0,0:0:0:0:
70,69,217162,2,0,P|81:111|80:155,1,88.000002685547,8|0,0:1|0:0,0:0:0:0:
0,297,217495,5,0,1:0:0:0:
105,248,217662,1,0,0:0:0:0:
277,236,217828,5,8,0:1:0:0:
172,187,217995,1,0,1:0:0:0:
22,155,218162,5,0,0:0:0:0:
127,106,218329,1,0,1:0:0:0:
302,2,218495,2,0,B|280:25|280:25|273:97|275:97,1,90.0000034332277,8|0,0:1|0:0,0:0:0:0:
262,106,218828,6,0,L|348:89,1,88.000002685547,0|0,1:0|0:0,0:0:0:0:
505,140,219162,2,0,L|419:157,1,88.000002685547,8|0,0:1|0:0,0:0:0:0:
262,192,219495,2,0,L|348:208,1,88.000002685547,0|0,0:0|1:0,0:0:0:0:
508,38,219828,2,0,L|421:21,1,88.000002685547,8|0,0:1|0:0,0:0:0:0:
198,27,220162,5,0,1:0:0:0:
171,141,220328,1,0,0:0:0:0:
370,184,220495,5,8,0:1:0:0:
285,104,220661,1,0,1:0:0:0:
148,255,220829,5,0,0:0:0:0:
259,222,220995,1,0,1:0:0:0:
78,203,221162,1,8,0:1:0:0:
234,347,221328,5,2,0:0:0:0:
234,347,221412,1,2,0:0:0:0:
234,347,221495,2,0,B|242:242|242:242|258:221,1,132.00000402832,2|0,1:2|0:0,0:0:0:0:
273,210,221828,1,8,0:1:0:0:
407,120,221995,5,2,0:0:0:0:
407,120,222078,1,2,0:0:0:0:
407,120,222162,2,0,P|332:116|283:58,1,155.999992858887,2|0,0:2|0:0,0:0:0:0:
276,39,222495,1,8,0:1:0:0:
155,112,222662,5,2,0:0:0:0:
155,112,222745,1,2,0:0:0:0:
155,112,222828,2,0,B|16:98|16:98|32:149,1,180.000006866455,2|0,1:2|0:0,0:0:0:0:
35,157,223162,1,8,0:1:0:0:
158,298,223328,5,2,1:2:0:0:
158,298,223412,1,2,0:0:0:0:
158,298,223495,2,0,L|225:292,1,68.0000012969971,2|0,0:0|0:0,0:0:0:0:
318,284,223662,1,0,1:0:0:0:
196,186,223828,1,8,0:1:0:0:
383,201,223995,1,0,0:0:0:0:
292,106,224162,5,8,0:0:0:0:
414,276,224495,1,8,0:0:0:0:
462,79,224828,1,8,0:0:0:0:
392,172,225162,1,8,0:0:0:0:
335,278,225495,5,8,0:0:0:0:
362,70,225828,1,8,0:0:0:0:
497,222,226161,1,8,0:0:0:0:
392,172,226495,1,8,0:0:0:0:
333,281,226662,5,0,0:0:0:0:
333,281,226745,1,0,0:0:0:0:
333,281,226828,1,8,0:0:0:0:
233,216,227162,1,8,0:0:0:0:
423,279,227495,1,8,0:0:0:0:
260,368,227828,1,8,0:0:0:0:
327,198,228162,5,8,0:0:0:0:
356,371,228495,1,8,0:0:0:0:
282,298,228828,1,8,0:0:0:0:
378,275,228995,1,0,0:0:0:0:
451,339,229162,1,8,0:0:0:0:
512,265,229328,5,8,0:0:0:0:
512,265,229412,1,8,0:0:0:0:
512,265,229495,1,8,0:0:0:0:
434,192,229662,1,8,0:0:0:0:
378,275,229828,2,0,P|316:312|263:279,1,103.999995239258,8|8,0:0|0:0,0:0:0:0:
183,242,230162,5,8,0:0:0:0:
186,138,230328,1,8,0:0:0:0:
150,46,230495,2,0,P|97:107|103:151,1,103.999995239258,8|8,0:0|0:0,0:0:0:0:
303,147,230828,6,0,B|251:171|251:171|183:140,1,103.999995239258,8|8,0:0|0:0,0:0:0:0:
87,288,231162,2,0,B|139:264|139:264|181:283,1,103.999995239258,8|8,0:0|0:0,0:0:0:0:
282,354,231495,5,8,0:0:0:0:
271,242,231662,1,8,0:0:0:0:
358,285,231828,1,8,0:0:0:0:
383,184,231995,1,8,0:0:0:0:
458,246,232162,5,8,0:0:0:0:
458,246,232245,1,2,0:3:0:0:
458,246,232328,2,0,L|519:234,1,51.999997619629,2|2,0:3|0:3,0:0:0:0:
512,131,232495,5,8,0:2:0:0:
512,131,232578,1,2,0:3:0:0:
512,131,232661,2,0,L|451:119,1,51.999997619629,2|2,0:3|0:3,0:0:0:0:
380,36,232828,5,8,0:0:0:0:
380,36,232912,1,2,0:3:0:0:
380,36,232995,2,0,L|312:39,1,51.999997619629,2|2,0:3|0:3,0:0:0:0:
253,118,233162,1,8,0:0:0:0:
222,91,233245,1,2,0:3:0:0:
182,80,233328,1,2,0:3:0:0:
142,87,233412,1,2,0:3:0:0:
109,109,233495,6,0,L|117:167,3,40,2|2|2|2,3:0|3:0|3:0|3:0,0:0:0:0:
191,199,233828,2,0,L|179:272,3,60.0000022888184,2|2|2|2,3:0|3:0|3:0|3:0,0:0:0:0:
17,333,234162,2,0,P|46:312|100:315,3,80,2|2|2|2,3:0|3:0|3:0|3:0,0:0:0:0:
178,367,234495,1,2,3:0:0:0:
178,367,234578,1,2,3:0:0:0:
178,367,234662,2,0,P|194:374|229:371,2,53.3333333333333,2|2|2,0:3|0:3|0:3,0:0:0:0:
267,359,234828,6,0,P|315:341|366:346,1,103.999995239258,4|0,3:2|0:0,0:0:0:0:
512,252,235162,2,0,P|460:257|412:238,1,103.999995239258,8|0,0:1|0:0,0:0:0:0:
315,150,235495,2,0,P|295:102|313:55,1,103.999995239258,2|0,3:2|3:0,0:0:0:0:
474,63,235828,2,0,P|493:110|475:157,1,103.999995239258,8|0,0:1|0:0,0:0:0:0:
305,245,236162,6,0,B|241:240|241:240|213:226|213:226|152:221,1,155.999992858887,2|0,3:2|0:0,0:0:0:0:
133,232,236495,1,8,0:1:0:0:
22,135,236662,2,0,P|70:132|128:85,1,103.999995239258,2|0,0:0|3:0,0:0:0:0:
182,0,236995,1,0,3:0:0:0:
45,49,237162,1,8,0:1:0:0:
199,79,237328,6,0,B|243:67|243:67|345:108,1,155.999992858887,2|0,0:0|0:0,0:0:0:0:
361,126,237662,1,0,0:0:0:0:
466,23,237828,1,8,0:1:0:0:
453,265,237995,6,0,B|445:143|445:143|478:113,1,155.999992858887,2|0,0:2|0:0,0:0:0:0:
499,113,238328,1,0,3:0:0:0:
347,205,238495,1,8,0:1:0:0:
503,371,238662,6,0,B|466:355|466:355|437:356|437:356|404:343,1,103.999995239258,2|0,0:2|3:0,0:0:0:0:
200,313,238995,2,0,B|237:297|237:297|266:298|266:298|298:285,1,103.999995239258,2|8,0:0|0:1,0:0:0:0:
241,58,239328,2,0,B|288:97|288:97|259:204,1,155.999992858887,2|0,0:0|0:0,0:0:0:0:
253,209,239662,1,0,3:0:0:0:
111,359,239828,2,0,L|88:204,1,155.999992858887,8|0,0:1|0:0,0:0:0:0:
74,196,240162,6,0,P|120:173|171:179,1,103.999995239258,4|0,3:1|0:0,0:0:0:0:
360,205,240495,2,0,P|308:210|262:188,1,103.999995239258,8|0,0:1|0:0,0:0:0:0:
203,6,240828,2,0,L|214:109,1,103.999995239258,2|0,3:2|0:0,0:0:0:0:
251,291,241162,2,0,L|262:187,1,103.999995239258,8|0,0:1|0:0,0:0:0:0:
448,50,241495,6,0,P|400:107|325:100,1,155.999992858887,2|0,3:2|0:0,0:0:0:0:
319,86,241828,1,8,0:1:0:0:
478,157,241995,2,0,P|487:207|469:255,1,103.999995239258,2|0,0:0|3:0,0:0:0:0:
348,317,242328,1,2,3:2:0:0:
476,348,242495,1,8,0:1:0:0:
340,231,242662,6,0,P|274:266|265:340,1,155.999992858887
277,361,242995,1,2,0:0:0:0:
187,248,243162,1,8,0:1:0:0:
9,335,243328,6,0,B|49:369|49:369|149:343,1,155.999992858887,2|0,0:0|0:0,0:0:0:0:
170,347,243662,1,2,0:0:0:0:
244,177,243828,1,8,0:1:0:0:
33,150,243995,6,0,B|73:182|73:182|125:173,1,103.999995239258,2|0,0:0|3:0,0:0:0:0:
326,95,244328,2,0,B|286:63|286:63|233:71,1,103.999995239258,2|8,0:0|0:1,0:0:0:0:
12,239,244662,2,0,B|46:266|46:266|187:244,1,155.999992858887,2|0,0:0|0:0,0:0:0:0:
172,260,244995,1,2,0:0:0:0:
264,151,245162,1,8,0:1:0:0:
125,173,245328,1,2,0:0:0:0:
294,315,245495,6,0,P|345:314|393:332,1,103.999995239258,4|0,3:1|0:0,0:0:0:0:
512,186,245828,2,0,P|484:229|476:280,1,103.999995239258,8|0,0:1|0:0,0:0:0:0:
216,231,246162,2,0,P|266:226|296:185,1,103.999995239258,2|0,3:2|3:0,0:0:0:0:
470,71,246495,2,0,P|441:112|390:117,1,103.999995239258,8|0,0:1|0:0,0:0:0:0:
240,66,246828,6,0,B|257:39|254:6|254:6|257:39|295:88,1,155.999992858887,2|0,3:2|0:0,0:0:0:0:
307,104,247162,1,8,0:1:0:0:
153,14,247328,2,0,B|140:0|116:-2|116:-2|92:36|55:40,1,103.999995239258,2|0,0:0|3:0,0:0:0:0:
0,121,247662,1,0,3:0:0:0:
153,109,247828,1,8,0:1:0:0:
31,286,247995,6,0,P|28:213|99:196,1,155.999992858887,2|0,0:0|0:0,0:0:0:0:
113,210,248328,1,0,0:0:0:0:
144,333,248495,1,8,0:1:0:0:
345,223,248662,6,0,L|180:165,1,155.999992858887,2|0,0:0|0:0,0:0:0:0:
177,184,248995,1,2,3:2:0:0:
301,111,249162,1,8,0:1:0:0:
419,291,249328,6,0,P|445:248|440:197,1,103.999995239258,2|0,0:0|3:0,0:0:0:0:
273,26,249662,2,0,P|324:21|368:48,1,103.999995239258,2|8,0:0|0:1,0:0:0:0:
362,230,249995,2,0,L|189:242,1,155.999992858887,2|0,0:0|0:0,0:0:0:0:
194,254,250328,1,0,3:0:0:0:
15,93,250495,2,0,B|65:114|65:114|89:212,1,155.999992858887,8|0,0:1|0:0,0:0:0:0:
111,226,250828,6,0,P|91:272|106:320,1,103.999995239258,4|0,3:1|0:0,0:0:0:0:
265,329,251162,2,0,P|285:282|270:234,1,103.999995239258,8|0,0:1|0:0,0:0:0:0:
97,120,251495,2,0,P|148:127|194:150,1,103.999995239258,2|0,3:2|0:0,0:0:0:0:
374,62,251828,2,0,P|327:84|276:92,1,103.999995239258,8|0,0:1|0:0,0:0:0:0:
21,20,252162,6,0,B|73:21|73:21|100:36|100:36|173:36,1,155.999992858887,2|0,3:2|0:0,0:0:0:0:
186,32,252495,1,8,0:1:0:0:
374,62,252662,2,0,L|364:165,1,103.999995239258,2|0,0:0|3:0,0:0:0:0:
470,50,252995,1,0,3:0:0:0:
265,125,253162,1,8,0:1:0:0:
512,238,253328,6,0,P|460:232|366:283,1,155.999992858887,2|0,0:0|0:0,0:0:0:0:
357,296,253662,1,2,0:0:0:0:
218,240,253828,1,8,0:1:0:0:
116,349,253995,6,0,L|127:193,1,155.999992858887,2|0,0:0|0:0,0:0:0:0:
143,172,254328,1,2,0:0:0:0:
23,274,254495,1,8,0:1:0:0:
236,232,254662,6,0,P|287:236|329:264,1,103.999995239258,2|0,0:0|3:0,0:0:0:0:
474,304,254995,2,0,P|451:257|455:206,1,103.999995239258,2|8,0:0|0:1,0:0:0:0:
427,11,255328,2,0,P|405:84|341:125,1,155.999992858887,2|0,0:0|0:0,0:0:0:0:
331,146,255662,1,0,3:0:0:0:
182,95,255828,1,8,0:1:0:0:
308,6,255995,1,0,3:0:0:0:
223,196,256162,5,4,3:1:0:0:
223,196,256328,1,0,0:0:0:0:
130,26,256495,2,0,P|87:96|98:128,1,103.999995239258,8|0,0:1|0:0,0:0:0:0:
231,291,256828,2,0,P|238:218|210:184,1,103.999995239258,2|0,3:2|0:0,0:0:0:0:
108,218,257162,2,0,P|41:234|0:244,1,103.999995239258,8|2,0:1|0:0,0:0:0:0:
180,92,257495,6,0,P|266:116|344:115,1,155.999992858887,2|0,3:2|0:0,0:0:0:0:
373,118,257828,1,8,0:1:0:0:
369,17,257995,1,2,0:0:0:0:
495,100,258162,2,0,P|463:186|467:233,1,103.999995239258,2|0,3:2|0:0,0:0:0:0:
403,355,258495,2,0,P|394:303|370:258,1,103.999995239258,8|2,0:1|0:0,0:0:0:0:
263,217,258828,6,0,P|198:231|212:361,2,207.999990478516,2|8|0,3:2|0:1|3:0,0:0:0:0:
356,67,259662,1,0,0:0:0:0:
435,99,259828,2,0,P|397:154|342:157,1,103.999995239258,8|0,0:1|0:0,0:0:0:0:
247,114,260162,6,0,P|231:42|224:4,1,103.999995239258,2|2,3:2|0:0,0:0:0:0:
363,161,260495,2,0,P|353:212|341:262,1,103.999995239258,8|2,3:1|0:0,0:0:0:0:
250,316,260828,1,0,3:0:0:0:
250,316,260995,1,0,0:0:0:0:
161,242,261162,1,8,0:1:0:0:
161,242,261329,1,0,3:0:0:0:
341,262,261495,6,0,P|420:244|457:257,1,103.999995239258,4|0,3:1|0:0,0:0:0:0:
183,375,261828,2,0,P|170:311|161:270,1,103.999995239258,8|0,0:1|0:0,0:0:0:0:
387,127,262162,2,0,B|285:117|322:203|179:176,1,207.999990478516,2|8,3:2|0:1,0:0:0:0:
91,123,262662,1,0,0:0:0:0:
160,0,262828,6,0,B|182:38|182:38|164:106,1,103.999995239258,2|0,3:2|0:0,0:0:0:0:
97,213,263162,2,0,P|44:261|56:312,1,103.999995239258,8|0,0:1|0:0,0:0:0:0:
160,384,263495,2,0,P|177:289|290:283,1,207.999990478516,2|8,3:2|0:1,0:0:0:0:
246,358,263995,1,0,3:0:0:0:
357,208,264162,6,0,P|409:249|460:239,1,103.999995239258,2|0,3:2|0:0,0:0:0:0:
254,167,264495,2,0,P|239:103|237:60,1,103.999995239258,8|0,0:1|0:0,0:0:0:0:
333,97,264828,1,0,3:0:0:0:
333,97,264995,1,0,0:0:0:0:
214,255,265162,1,8,0:1:0:0:
214,255,265328,1,0,0:0:0:0:
341,342,265495,6,0,P|338:262|355:224,1,103.999995239258,0|0,3:0|0:0,0:0:0:0:
498,86,265828,2,0,P|469:157|422:150,1,103.999995239258,8|0,0:1|0:0,0:0:0:0:
347,121,266162,5,2,3:2:0:0:
257,166,266328,1,2,0:0:0:0:
228,273,266495,1,8,0:1:0:0:
339,232,266662,1,2,0:0:0:0:
200,87,266828,6,0,P|159:148|164:189,1,103.999995239258,4|0,3:1|0:0,0:0:0:0:
61,257,267162,2,0,P|33:170|50:147,1,103.999995239258,8|0,0:1|0:0,0:0:0:0:
109,370,267495,2,0,B|218:348|165:278|292:272,1,207.999990478516,2|8,3:2|0:1,0:0:0:0:
270,362,267995,1,0,0:0:0:0:
237,180,268162,6,0,P|260:112|324:111,1,103.999995239258,2|0,3:2|0:0,0:0:0:0:
346,193,268495,1,8,0:1:0:0:
346,193,268662,1,0,0:0:0:0:
496,88,268828,2,0,P|426:113|394:94,1,103.999995239258,2|0,3:2|0:0,0:0:0:0:
260,5,269162,2,0,P|286:94|278:123,1,103.999995239258,8|0,0:1|0:0,0:0:0:0:
261,258,269495,6,0,B|322:261|322:261|392:204|392:204|461:205,2,207.999990478516,2|8|2,3:2|0:1|3:2,0:0:0:0:
141,226,270328,1,2,0:0:0:0:
284,103,270495,2,0,P|252:162|216:161,1,103.999995239258,8|2,0:1|0:0,0:0:0:0:
144,88,270828,5,0,3:0:0:0:
144,88,270995,1,0,0:0:0:0:
49,128,271162,1,8,0:1:0:0:
49,128,271328,1,0,3:3:0:0:
130,291,271495,2,0,P|114:216|136:173,1,103.999995239258,0|2,3:0|0:0,0:0:0:0:
244,374,271828,2,0,P|260:299|238:256,1,103.999995239258,8|0,0:1|0:0,0:0:0:0:
170,64,272162,6,0,P|221:142|324:127,1,207.999990478516,4|8,3:1|0:1,0:0:0:0:
261,49,272662,1,0,0:0:0:0:
379,197,272828,2,0,P|421:128|412:94,1,103.999995239258,2|0,3:2|0:0,0:0:0:0:
493,20,273162,2,0,P|525:99|506:133,1,103.999995239258,8|0,0:1|0:0,0:0:0:0:
490,288,273495,6,0,P|401:247|288:284,1,207.999990478516,2|8,3:2|0:1,0:0:0:0:
212,82,273995,1,0,0:0:0:0:
158,151,274162,2,2,P|215:182|246:163,1,103.999995239258,2|2,3:2|0:0,0:0:0:0:
329,364,274495,2,0,P|320:293|291:271,1,103.999995239258,8|0,0:1|3:0,0:0:0:0:
180,271,274828,6,0,B|71:286|130:359|-13:381,2,207.999990478516,2|8|0,3:2|0:1|3:0,0:0:0:0:
183,363,275662,1,0,0:0:0:0:
68,221,275828,2,0,P|134:185|168:187,1,103.999995239258,8|0,0:1|0:0,0:0:0:0:
293,222,276162,5,2,3:2:0:0:
293,222,276328,1,0,0:0:0:0:
264,31,276495,2,0,B|236:81|236:81|248:130,1,103.999995239258,8|0,0:1|3:0,0:0:0:0:
468,135,276828,5,2,3:2:0:0:
361,101,276995,1,2,0:0:0:0:
485,240,277162,1,8,0:1:0:0:
371,207,277328,1,2,0:0:0:0:
438,351,277495,6,0,B|478:378|528:341|530:282|463:238|417:234|358:261|349:358|274:313|274:313|145:227|90:394|230:444|274:313|274:313|317:261|336:187|273:126|221:197|235:218,1,900.000034332277,4|0,0:0|0:0,0:0:0:0:
341,36,280162,6,0,B|380:6|426:58|415:87|373:142|291:127|250:69|250:69|206:11|150:39|150:39|107:-3|36:70|36:70|110:159|199:126|199:126|111:159|107:291,1,900.000034332277,4|0,0:0|0:0,0:0:0:0:
249,357,282828,6,0,B|159:316|207:216|207:216|314:209|332:289|332:289|360:217|486:192|553:353|441:390|389:352|389:352|415:277|415:277|410:223|410:223|450:112,1,900.000034332277,4|0,0:0|0:0,0:0:0:0:
290,80,285495,6,0,B|376:76|403:8|403:8|343:161|343:161|233:84|141:153|141:153|39:222|-95:126|29:-22|142:56|169:108,1,900.000034332277,4|0,0:0|0:0,0:0:0:0:
233,232,288162,5,4,0:0:0:0:
256,192,288245,12,0,296162,0:0:0:0:
