osu file format v14

[General]
AudioFilename: audio.mp3
AudioLeadIn: 0
PreviewTime: 1
Countdown: 0
SampleSet: Normal
StackLeniency: 0.7
Mode: 3
LetterboxInBreaks: 0
SpecialStyle: 0
WidescreenStoryboard: 1

[Editor]
DistanceSpacing: 1.2
BeatDivisor: 4
GridSize: 4
TimelineZoom: 2.5

[Metadata]
Title:Make U Mine
TitleUnicode:Make U Mine
Artist:James Landino feat. Jenny
ArtistUnicode:James Landino feat. Jenny
Creator:[KonG-69]
Version:Ex 7K
Source:Cytus II
Tags:
BeatmapID:1947480
BeatmapSetID:932782

[Difficulty]
HPDrainRate:8
CircleSize:7
OverallDifficulty:7
ApproachRate:5
SliderMultiplier:1.4
SliderTickRate:1

[Events]
//Background and Video events
0,0,"aaaaaaaAaaaaa.jpg",0,0
//Break Periods
//Storyboard Layer 0 (Background)
//Storyboard Layer 1 (Fail)
//Storyboard Layer 2 (Pass)
//Storyboard Layer 3 (Foreground)
//Storyboard Sound Samples

[TimingPoints]
12255,382.165605095541,4,1,0,20,1,0
110089,-76.9230769230769,4,1,0,20,0,1
110280,-125,4,1,0,20,0,1
110471,-76.9230769230769,4,1,0,20,0,1
110662,-125,4,1,0,20,0,1
110853,-76.9230769230769,4,1,0,20,0,1
111044,-125,4,1,0,20,0,1
111140,-76.9230769230769,4,1,0,20,0,1
111331,-125,4,1,0,20,0,1
111426,-76.9230769230769,4,1,0,20,0,1
111522,-125,4,1,0,20,0,1
111526,-76.9230769230769,4,1,0,20,0,1
111809,-125,4,1,0,20,0,1
112000,-76.9230769230769,4,1,0,20,0,1
112191,-125,4,1,0,20,0,1
112382,-76.9230769230769,4,1,0,20,0,1
112573,-125,4,1,0,20,0,1
112669,-76.9230769230769,4,1,0,20,0,1
112860,-125,4,1,0,20,0,1
112955,-76.9230769230769,4,1,0,20,0,1
113051,-125,4,1,0,20,0,1
113146,-76.9230769230769,4,1,0,20,0,1
113337,-125,4,1,0,20,0,1
113528,-76.9230769230769,4,1,0,20,0,1
113719,-125,4,1,0,20,0,1
113911,-76.9230769230769,4,1,0,20,0,1
114102,-125,4,1,0,20,0,1
114197,-76.9230769230769,4,1,0,20,0,1
114388,-125,4,1,0,20,0,1
114484,-76.9230769230769,4,1,0,20,0,1
114627,-125,4,1,0,20,0,1
114675,-76.9230769230769,4,1,0,20,0,1
114770,-125,4,1,0,20,0,1
114866,-76.9230769230769,4,1,0,20,0,1
114962,-125,4,1,0,20,0,1
115057,-76.9230769230769,4,1,0,20,0,1
115153,-125,4,1,0,20,0,1
115248,-76.9230769230769,4,1,0,20,0,1
115344,-125,4,1,0,20,0,1
115439,-76.9230769230769,4,1,0,20,0,1
115630,-125,4,1,0,20,0,1
115726,-76.9230769230769,4,1,0,20,0,1
115917,-125,4,1,0,20,0,1
116012,-76.9230769230769,4,1,0,20,0,1
116108,-100,4,1,0,20,0,1
116204,-76.9230769230769,4,1,0,20,0,1
116395,-125,4,1,0,20,0,1
116586,-76.9230769230769,4,1,0,20,0,1
116777,-125,4,1,0,20,0,1
116968,-76.9230769230769,4,1,0,20,0,1
117159,-125,4,1,0,20,0,1
117254,-76.9230769230769,4,1,0,20,0,1
117446,-125,4,1,0,20,0,1
117541,-76.9230769230769,4,1,0,20,0,1
117637,-125,4,1,0,20,0,1
117732,-76.9230769230769,4,1,0,20,0,1
117923,-125,4,1,0,20,0,1
118114,-76.9230769230769,4,1,0,20,0,1
118305,-125,4,1,0,20,0,1
118497,-76.9230769230769,4,1,0,20,0,1
118688,-125,4,1,0,20,0,1
118783,-76.9230769230769,4,1,0,20,0,1
118974,-125,4,1,0,20,0,1
119070,-76.9230769230769,4,1,0,20,0,1
119165,-125,4,1,0,20,0,1
119261,-76.9230769230769,4,1,0,20,0,1
119452,-125,4,1,0,20,0,1
119643,-76.9230769230769,4,1,0,20,0,1
119834,-125,4,1,0,20,0,1
120025,-76.9230769230769,4,1,0,20,0,1
120216,-125,4,1,0,20,0,1
120312,-76.9230769230769,4,1,0,20,0,1
120503,-125,4,1,0,20,0,1
120598,-76.9230769230769,4,1,0,20,0,1
120694,-125,4,1,0,20,0,1
120790,-76.9230769230769,4,1,0,20,0,1
120885,-125,4,1,0,20,0,1
120981,-76.9230769230769,4,1,0,20,0,1
121076,-125,4,1,0,20,0,1
121172,-76.9230769230769,4,1,0,20,0,1
121267,-125,4,1,0,20,0,1
121363,-76.9230769230769,4,1,0,20,0,1
121458,-125,4,1,0,20,0,1
121554,-76.9230769230769,4,1,0,20,0,1
121745,-125,4,1,0,20,0,1
121840,-76.9230769230769,4,1,0,20,0,1
122032,-125,4,1,0,20,0,1
122127,-76.9230769230769,4,1,0,20,0,1
122223,-125,4,1,0,20,0,1
122318,-76.9230769230769,4,1,0,20,0,1
122509,-125,4,1,0,20,0,1
122700,-76.9230769230769,4,1,0,20,0,1
122891,-125,4,1,0,20,0,1
123083,-76.9230769230769,4,1,0,20,0,1
123274,-125,4,1,0,20,0,1
123369,-76.9230769230769,4,1,0,20,0,1
123560,-125,4,1,0,20,0,1
123656,-76.9230769230769,4,1,0,20,0,1
123751,-125,4,1,0,20,0,1
123847,-76.9230769230769,4,1,0,20,0,1
124038,-125,4,1,0,20,0,1
124229,-76.9230769230769,4,1,0,20,0,1
124420,-125,4,1,0,20,0,1
124611,-76.9230769230769,4,1,0,20,0,1
124802,-125,4,1,0,20,0,1
124898,-76.9230769230769,4,1,0,20,0,1
125089,-125,4,1,0,20,0,1
125184,-76.9230769230769,4,1,0,20,0,1
125280,-125,4,1,0,20,0,1
125376,-76.9230769230769,4,1,0,20,0,1
125567,-125,4,1,0,20,0,1
125758,-76.9230769230769,4,1,0,20,0,1
125949,-125,4,1,0,20,0,1
126140,-76.9230769230769,4,1,0,20,0,1
126331,-125,4,1,0,20,0,1
126426,-76.9230769230769,4,1,0,20,0,1
126618,-125,4,1,0,20,0,1
126713,-76.9230769230769,4,1,0,20,0,1
126809,-125,4,1,0,20,0,1
126904,-76.9230769230769,4,1,0,20,0,1
127000,-125,4,1,0,20,0,1
127095,-76.9230769230769,4,1,0,20,0,1
127191,-125,4,1,0,20,0,1
127286,-76.9230769230769,4,1,0,20,0,1
127382,-125,4,1,0,20,0,1
127477,-76.9230769230769,4,1,0,20,0,1
127573,-125,4,1,0,20,0,1
127669,-76.9230769230769,4,1,0,20,0,1
127860,-125,4,1,0,20,0,1
127955,-76.9230769230769,4,1,0,20,0,1
128146,-125,4,1,0,20,0,1
128242,-76.9230769230769,4,1,0,20,0,1
128337,-125,4,1,0,20,0,1
128433,-76.9230769230769,4,1,0,20,0,1
128624,-125,4,1,0,20,0,1
128815,-76.9230769230769,4,1,0,20,0,1
128815,-76.9230769230769,4,1,0,20,0,1
129006,-125,4,1,0,20,0,1
129197,-76.9230769230769,4,1,0,20,0,1
129388,-125,4,1,0,20,0,1
129484,-76.9230769230769,4,1,0,20,0,1
129675,-125,4,1,0,20,0,1
129770,-76.9230769230769,4,1,0,20,0,1
129866,-125,4,1,0,20,0,1
129962,-76.9230769230769,4,1,0,20,0,1
130153,-125,4,1,0,20,0,1
130344,-76.9230769230769,4,1,0,20,0,1
130535,-125,4,1,0,20,0,1
130726,-76.9230769230769,4,1,0,20,0,1
130917,-125,4,1,0,20,0,1
131012,-76.9230769230769,4,1,0,20,0,1
131204,-125,4,1,0,20,0,1
131299,-76.9230769230769,4,1,0,20,0,1
131395,-125,4,1,0,20,0,1
131490,-76.9230769230769,4,1,0,20,0,1
131681,-125,4,1,0,20,0,1
131872,-76.9230769230769,4,1,0,20,0,1
131872,-76.9230769230769,4,1,0,20,0,1
132063,-125,4,1,0,20,0,1
132254,-76.9230769230769,4,1,0,20,0,1
132446,-125,4,1,0,20,0,1
132541,-76.9230769230769,4,1,0,20,0,1
132732,-125,4,1,0,20,0,1
132828,-76.9230769230769,4,1,0,20,0,1
132923,-125,4,1,0,20,0,1
133019,-76.9230769230769,4,1,0,20,0,1
133114,-125,4,1,0,20,0,1
133210,-76.9230769230769,4,1,0,20,0,1
133305,-125,4,1,0,20,0,1
133401,-76.9230769230769,4,1,0,20,0,1
133497,-125,4,1,0,20,0,1
133592,-76.9230769230769,4,1,0,20,0,1
133688,-125,4,1,0,20,0,1
133783,-76.9230769230769,4,1,0,20,0,1
133974,-125,4,1,0,20,0,1
134070,-76.9230769230769,4,1,0,20,0,1
134261,-125,4,1,0,20,0,1
134356,-71.4285714285714,4,1,0,20,0,1
134547,-100,4,1,0,20,0,0

[HitObjects]
475,192,25,128,0,121:0:0:0:0:
109,192,25,1,0,0:0:0:0:
182,192,25,128,0,1172:0:0:0:0:
475,192,216,128,0,312:0:0:0:0:
475,192,407,128,0,503:0:0:0:0:
475,192,598,128,0,694:0:0:0:0:
475,192,790,128,0,981:0:0:0:0:
329,192,1172,1,0,0:0:0:0:
402,192,1172,128,0,1554:0:0:0:0:
192,192,1554,128,0,1650:0:0:0:0:
256,192,1554,1,0,0:0:0:0:
36,192,1554,128,0,2700:0:0:0:0:
192,192,1745,128,0,1841:0:0:0:0:
192,192,1936,128,0,2032:0:0:0:0:
192,192,2127,128,0,2223:0:0:0:0:
192,192,2318,128,0,2510:0:0:0:0:
256,192,2700,1,0,0:0:0:0:
329,192,2700,128,0,3083:0:0:0:0:
109,192,3083,128,0,3178:0:0:0:0:
475,192,3083,128,0,4993:0:0:0:0:
36,192,3083,1,0,0:0:0:0:
109,192,3274,128,0,3369:0:0:0:0:
109,192,3465,128,0,3560:0:0:0:0:
109,192,3656,128,0,3751:0:0:0:0:
109,192,3847,128,0,3942:0:0:0:0:
109,192,4038,128,0,4133:0:0:0:0:
109,192,4229,128,0,4325:0:0:0:0:
109,192,4420,128,0,4516:0:0:0:0:
109,192,4611,128,0,4707:0:0:0:0:
109,192,4802,128,0,4898:0:0:0:0:
109,192,4993,128,0,5089:0:0:0:0:
256,192,4993,1,0,0:0:0:0:
329,192,4993,128,0,5376:0:0:0:0:
109,192,5184,128,0,5280:0:0:0:0:
109,192,5376,128,0,5471:0:0:0:0:
182,192,5376,1,0,0:0:0:0:
36,192,5376,128,0,5758:0:0:0:0:
109,192,5567,128,0,5662:0:0:0:0:
109,192,5758,128,0,5949:0:0:0:0:
329,192,5758,1,0,0:0:0:0:
402,192,5758,128,0,6140:0:0:0:0:
475,192,6140,128,0,6235:0:0:0:0:
109,192,6140,1,0,0:0:0:0:
182,192,6140,128,0,7286:0:0:0:0:
475,192,6331,128,0,6426:0:0:0:0:
475,192,6522,128,0,6618:0:0:0:0:
475,192,6713,128,0,6809:0:0:0:0:
475,192,6904,128,0,7095:0:0:0:0:
36,192,7286,128,0,7669:0:0:0:0:
109,192,7286,1,0,0:0:0:0:
182,192,7669,128,0,7764:0:0:0:0:
402,192,7669,1,0,0:0:0:0:
256,192,7669,128,0,8815:0:0:0:0:
182,192,7860,128,0,7955:0:0:0:0:
182,192,8051,128,0,8146:0:0:0:0:
182,192,8242,128,0,8337:0:0:0:0:
182,192,8433,128,0,8624:0:0:0:0:
329,192,8815,1,0,0:0:0:0:
475,192,8815,128,0,9197:0:0:0:0:
64,192,9197,128,0,9293:0:0:0:0:
109,192,9197,1,0,0:0:0:0:
182,192,9197,128,0,10917:0:0:0:0:
64,192,9388,128,0,9484:0:0:0:0:
64,192,9579,128,0,9675:0:0:0:0:
64,192,9770,128,0,9866:0:0:0:0:
64,192,9962,128,0,10057:0:0:0:0:
64,192,10153,128,0,10248:0:0:0:0:
64,192,10344,128,0,10439:0:0:0:0:
64,192,10535,128,0,10726:0:0:0:0:
109,192,10917,128,0,11108:0:0:0:0:
182,192,11108,128,0,11299:0:0:0:0:
256,192,11299,128,0,11490:0:0:0:0:
402,192,11490,128,0,11586:0:0:0:0:
329,192,11490,128,0,12255:0:0:0:0:
402,192,11681,128,0,11777:0:0:0:0:
402,192,11872,128,0,11968:0:0:0:0:
402,192,12063,128,0,12159:0:0:0:0:
448,192,12255,128,0,12350:0:0:0:0:
64,192,12255,1,0,0:0:0:0:
192,192,12255,1,0,0:0:0:0:
402,192,12350,1,0,0:0:0:0:
448,192,12446,128,0,12541:0:0:0:0:
329,192,12446,1,0,0:0:0:0:
256,192,12541,1,0,0:0:0:0:
448,192,12637,128,0,12732:0:0:0:0:
329,192,12637,1,0,0:0:0:0:
109,192,12637,1,0,0:0:0:0:
182,192,12732,1,0,0:0:0:0:
448,192,12828,128,0,12923:0:0:0:0:
64,192,12828,1,0,0:0:0:0:
256,192,12828,1,0,0:0:0:0:
329,192,12923,1,0,0:0:0:0:
448,192,13019,128,0,13210:0:0:0:0:
64,192,13019,1,0,0:0:0:0:
402,192,13019,1,0,0:0:0:0:
256,192,13019,1,0,0:0:0:0:
109,192,13114,1,0,0:0:0:0:
182,192,13210,1,0,0:0:0:0:
256,192,13305,1,0,0:0:0:0:
182,192,13401,1,0,0:0:0:0:
36,192,13401,1,0,0:0:0:0:
475,192,13401,1,0,0:0:0:0:
402,192,13497,1,0,0:0:0:0:
329,192,13592,1,0,0:0:0:0:
256,192,13688,1,0,0:0:0:0:
182,192,13783,128,0,13879:0:0:0:0:
109,192,13783,1,0,0:0:0:0:
36,192,13879,1,0,0:0:0:0:
182,192,13974,128,0,14070:0:0:0:0:
475,192,13974,1,0,0:0:0:0:
402,192,14070,1,0,0:0:0:0:
182,192,14165,128,0,14261:0:0:0:0:
36,192,14165,1,0,0:0:0:0:
329,192,14165,1,0,0:0:0:0:
402,192,14261,1,0,0:0:0:0:
182,192,14356,128,0,14452:0:0:0:0:
448,192,14356,1,0,0:0:0:0:
109,192,14356,1,0,0:0:0:0:
256,192,14452,1,0,0:0:0:0:
182,192,14547,128,0,14739:0:0:0:0:
64,192,14547,1,0,0:0:0:0:
448,192,14547,1,0,0:0:0:0:
329,192,14547,1,0,0:0:0:0:
402,192,14643,1,0,0:0:0:0:
36,192,14739,1,0,0:0:0:0:
109,192,14834,1,0,0:0:0:0:
182,192,14930,1,0,0:0:0:0:
402,192,14930,1,0,0:0:0:0:
329,192,15025,1,0,0:0:0:0:
256,192,15121,1,0,0:0:0:0:
182,192,15216,1,0,0:0:0:0:
109,192,15312,128,0,15407:0:0:0:0:
448,192,15312,1,0,0:0:0:0:
256,192,15312,1,0,0:0:0:0:
36,192,15407,1,0,0:0:0:0:
109,192,15503,128,0,15598:0:0:0:0:
475,192,15503,1,0,0:0:0:0:
402,192,15598,1,0,0:0:0:0:
109,192,15694,128,0,15790:0:0:0:0:
182,192,15694,1,0,0:0:0:0:
329,192,15694,1,0,0:0:0:0:
402,192,15790,1,0,0:0:0:0:
109,192,15885,128,0,15981:0:0:0:0:
320,192,15885,1,0,0:0:0:0:
36,192,15885,1,0,0:0:0:0:
475,192,15885,1,0,0:0:0:0:
182,192,15981,1,0,0:0:0:0:
109,192,16076,128,0,16172:0:0:0:0:
448,192,16076,1,0,0:0:0:0:
320,192,16076,1,0,0:0:0:0:
256,192,16076,1,0,0:0:0:0:
402,192,16172,1,0,0:0:0:0:
109,192,16267,128,0,16363:0:0:0:0:
36,192,16267,1,0,0:0:0:0:
182,192,16363,1,0,0:0:0:0:
109,192,16458,128,0,16554:0:0:0:0:
329,192,16458,1,0,0:0:0:0:
475,192,16458,1,0,0:0:0:0:
256,192,16554,1,0,0:0:0:0:
109,192,16649,128,0,16745:0:0:0:0:
36,192,16649,1,0,0:0:0:0:
402,192,16745,1,0,0:0:0:0:
109,192,16840,128,0,16936:0:0:0:0:
329,192,16840,1,0,0:0:0:0:
256,192,16936,1,0,0:0:0:0:
109,192,17032,128,0,17127:0:0:0:0:
475,192,17032,1,0,0:0:0:0:
182,192,17032,1,0,0:0:0:0:
329,192,17127,1,0,0:0:0:0:
256,192,17127,1,0,0:0:0:0:
109,192,17223,128,0,17318:0:0:0:0:
448,192,17223,1,0,0:0:0:0:
36,192,17223,1,0,0:0:0:0:
182,192,17318,1,0,0:0:0:0:
402,192,17318,1,0,0:0:0:0:
109,192,17414,128,0,17509:0:0:0:0:
256,192,17414,1,0,0:0:0:0:
329,192,17414,1,0,0:0:0:0:
402,192,17509,1,0,0:0:0:0:
109,192,17605,128,0,17700:0:0:0:0:
448,192,17605,1,0,0:0:0:0:
36,192,17605,1,0,0:0:0:0:
256,192,17605,1,0,0:0:0:0:
329,192,17700,1,0,0:0:0:0:
109,192,17796,128,0,17891:0:0:0:0:
36,192,17796,1,0,0:0:0:0:
182,192,17891,1,0,0:0:0:0:
109,192,17987,128,0,18178:0:0:0:0:
402,192,17987,1,0,0:0:0:0:
256,192,17987,1,0,0:0:0:0:
475,192,18083,1,0,0:0:0:0:
402,192,18178,1,0,0:0:0:0:
329,192,18274,1,0,0:0:0:0:
475,192,18369,128,0,18465:0:0:0:0:
182,192,18369,1,0,0:0:0:0:
36,192,18369,1,0,0:0:0:0:
109,192,18465,1,0,0:0:0:0:
475,192,18560,128,0,18656:0:0:0:0:
36,192,18560,1,0,0:0:0:0:
402,192,18560,1,0,0:0:0:0:
329,192,18656,1,0,0:0:0:0:
475,192,18751,128,0,18847:0:0:0:0:
182,192,18751,1,0,0:0:0:0:
109,192,18751,1,0,0:0:0:0:
256,192,18847,1,0,0:0:0:0:
475,192,18942,128,0,19038:0:0:0:0:
402,192,18942,1,0,0:0:0:0:
329,192,18942,1,0,0:0:0:0:
109,192,19038,1,0,0:0:0:0:
475,192,19133,128,0,19325:0:0:0:0:
182,192,19133,1,0,0:0:0:0:
36,192,19133,1,0,0:0:0:0:
256,192,19133,1,0,0:0:0:0:
329,192,19229,1,0,0:0:0:0:
402,192,19325,1,0,0:0:0:0:
36,192,19420,1,0,0:0:0:0:
329,192,19516,1,0,0:0:0:0:
182,192,19516,1,0,0:0:0:0:
109,192,19611,1,0,0:0:0:0:
36,192,19707,1,0,0:0:0:0:
475,192,19802,1,0,0:0:0:0:
182,192,19898,128,0,19993:0:0:0:0:
402,192,19898,1,0,0:0:0:0:
329,192,19993,1,0,0:0:0:0:
182,192,20089,128,0,20184:0:0:0:0:
109,192,20089,1,0,0:0:0:0:
36,192,20184,1,0,0:0:0:0:
182,192,20280,128,0,20376:0:0:0:0:
402,192,20280,1,0,0:0:0:0:
256,192,20280,1,0,0:0:0:0:
475,192,20376,1,0,0:0:0:0:
182,192,20471,128,0,20567:0:0:0:0:
36,192,20471,1,0,0:0:0:0:
109,192,20471,1,0,0:0:0:0:
256,192,20567,1,0,0:0:0:0:
182,192,20662,128,0,20853:0:0:0:0:
329,192,20662,1,0,0:0:0:0:
475,192,20662,1,0,0:0:0:0:
109,192,20662,1,0,0:0:0:0:
402,192,20758,1,0,0:0:0:0:
109,192,20853,1,0,0:0:0:0:
182,192,20949,1,0,0:0:0:0:
475,192,21044,1,0,0:0:0:0:
256,192,21044,1,0,0:0:0:0:
182,192,21140,1,0,0:0:0:0:
109,192,21235,1,0,0:0:0:0:
475,192,21331,1,0,0:0:0:0:
36,192,21426,128,0,21522:0:0:0:0:
329,192,21426,1,0,0:0:0:0:
256,192,21426,1,0,0:0:0:0:
182,192,21522,1,0,0:0:0:0:
36,192,21618,128,0,21713:0:0:0:0:
109,192,21618,1,0,0:0:0:0:
475,192,21713,1,0,0:0:0:0:
36,192,21809,128,0,21904:0:0:0:0:
109,192,21809,1,0,0:0:0:0:
256,192,21809,1,0,0:0:0:0:
329,192,21904,1,0,0:0:0:0:
36,192,22000,128,0,22095:0:0:0:0:
475,192,22000,1,0,0:0:0:0:
402,192,22000,1,0,0:0:0:0:
109,192,22095,1,0,0:0:0:0:
36,192,22191,128,0,22286:0:0:0:0:
475,192,22191,1,0,0:0:0:0:
182,192,22191,1,0,0:0:0:0:
256,192,22191,1,0,0:0:0:0:
329,192,22286,1,0,0:0:0:0:
36,192,22382,128,0,22477:0:0:0:0:
402,192,22382,1,0,0:0:0:0:
109,192,22477,1,0,0:0:0:0:
36,192,22573,128,0,22669:0:0:0:0:
256,192,22573,1,0,0:0:0:0:
402,192,22573,1,0,0:0:0:0:
475,192,22669,1,0,0:0:0:0:
36,192,22764,128,0,22955:0:0:0:0:
402,192,22764,1,0,0:0:0:0:
256,192,22860,1,0,0:0:0:0:
182,192,22955,1,0,0:0:0:0:
109,192,23051,1,0,0:0:0:0:
36,192,23146,1,0,0:0:0:0:
256,192,23146,1,0,0:0:0:0:
475,192,23242,1,0,0:0:0:0:
402,192,23242,1,0,0:0:0:0:
36,192,23337,1,0,0:0:0:0:
256,192,23337,1,0,0:0:0:0:
36,192,23528,1,0,0:0:0:0:
329,192,23528,1,0,0:0:0:0:
256,192,23719,128,0,23815:0:0:0:0:
329,192,23719,1,0,0:0:0:0:
475,192,23719,1,0,0:0:0:0:
109,192,23719,1,0,0:0:0:0:
256,192,23911,128,0,24006:0:0:0:0:
36,192,23911,1,0,0:0:0:0:
402,192,23911,1,0,0:0:0:0:
256,192,24102,128,0,24293:0:0:0:0:
109,192,24102,1,0,0:0:0:0:
402,192,24102,1,0,0:0:0:0:
109,192,24293,1,0,0:0:0:0:
402,192,24293,1,0,0:0:0:0:
182,192,24484,1,0,0:0:0:0:
329,192,24484,1,0,0:0:0:0:
36,192,24484,128,0,26968:0:0:0:0:
475,192,24484,128,0,24866:0:0:0:0:
182,192,24866,128,0,25057:0:0:0:0:
109,192,25057,128,0,25248:0:0:0:0:
329,192,25248,128,0,25439:0:0:0:0:
182,192,25439,128,0,25630:0:0:0:0:
475,192,25630,128,0,25821:0:0:0:0:
402,192,25821,128,0,26586:0:0:0:0:
182,192,26586,128,0,26777:0:0:0:0:
256,192,26777,128,0,26968:0:0:0:0:
109,192,26968,1,0,0:0:0:0:
182,192,26968,128,0,27541:0:0:0:0:
402,192,26968,1,0,0:0:0:0:
475,192,26968,128,0,27159:0:0:0:0:
329,192,27159,128,0,27350:0:0:0:0:
36,192,27350,128,0,27923:0:0:0:0:
256,192,27541,1,0,0:0:0:0:
402,192,27541,128,0,30025:0:0:0:0:
475,192,27541,1,0,0:0:0:0:
109,192,27923,128,0,28114:0:0:0:0:
475,192,28114,128,0,28305:0:0:0:0:
182,192,28305,128,0,28497:0:0:0:0:
329,192,28497,128,0,28688:0:0:0:0:
256,192,28688,128,0,28879:0:0:0:0:
36,192,28879,128,0,29643:0:0:0:0:
475,192,29643,128,0,29834:0:0:0:0:
256,192,29834,128,0,30025:0:0:0:0:
329,192,30025,128,0,30598:0:0:0:0:
109,192,30025,1,0,0:0:0:0:
475,192,30025,1,0,0:0:0:0:
36,192,30025,128,0,30216:0:0:0:0:
256,192,30216,128,0,30407:0:0:0:0:
109,192,30407,128,0,30981:0:0:0:0:
36,192,30598,128,0,33083:0:0:0:0:
402,192,30598,1,0,0:0:0:0:
475,192,30598,1,0,0:0:0:0:
182,192,30981,128,0,31172:0:0:0:0:
329,192,31172,128,0,31363:0:0:0:0:
109,192,31363,128,0,31554:0:0:0:0:
402,192,31554,128,0,31745:0:0:0:0:
475,192,31745,128,0,31936:0:0:0:0:
329,192,31936,128,0,32700:0:0:0:0:
182,192,32700,128,0,32891:0:0:0:0:
329,192,32891,128,0,33083:0:0:0:0:
256,192,33083,128,0,33656:0:0:0:0:
475,192,33083,1,0,0:0:0:0:
402,192,33083,1,0,0:0:0:0:
109,192,33083,128,0,33274:0:0:0:0:
475,192,33274,128,0,33465:0:0:0:0:
329,192,33465,128,0,33656:0:0:0:0:
182,192,33656,1,0,0:0:0:0:
475,192,33656,128,0,36140:0:0:0:0:
36,192,33656,128,0,34038:0:0:0:0:
256,192,34038,128,0,34229:0:0:0:0:
329,192,34229,128,0,34420:0:0:0:0:
402,192,34420,128,0,34611:0:0:0:0:
182,192,34611,128,0,34802:0:0:0:0:
109,192,34802,128,0,34993:0:0:0:0:
36,192,34993,128,0,35376:0:0:0:0:
256,192,35376,128,0,35567:0:0:0:0:
329,192,35567,128,0,35758:0:0:0:0:
402,192,35758,128,0,35949:0:0:0:0:
256,192,35949,128,0,36140:0:0:0:0:
329,192,36140,128,0,36713:0:0:0:0:
36,192,36140,128,0,36331:0:0:0:0:
109,192,36140,1,0,0:0:0:0:
402,192,36140,1,0,0:0:0:0:
182,192,36331,128,0,36522:0:0:0:0:
475,192,36522,128,0,37095:0:0:0:0:
402,192,36713,1,0,0:0:0:0:
109,192,36713,128,0,37860:0:0:0:0:
182,192,36713,1,0,0:0:0:0:
329,192,37095,1,0,0:0:0:0:
256,192,37095,1,0,0:0:0:0:
36,192,37286,128,0,37477:0:0:0:0:
475,192,37477,128,0,37669:0:0:0:0:
256,192,37669,128,0,37860:0:0:0:0:
329,192,37860,1,0,0:0:0:0:
475,192,37860,128,0,38051:0:0:0:0:
402,192,37860,1,0,0:0:0:0:
182,192,38051,128,0,38815:0:0:0:0:
36,192,38624,1,0,0:0:0:0:
109,192,38624,1,0,0:0:0:0:
475,192,38815,128,0,39006:0:0:0:0:
329,192,39006,128,0,39197:0:0:0:0:
36,192,39197,128,0,39770:0:0:0:0:
256,192,39197,128,0,39388:0:0:0:0:
402,192,39388,1,0,0:0:0:0:
475,192,39388,1,0,0:0:0:0:
109,192,39388,128,0,39579:0:0:0:0:
182,192,39579,128,0,39770:0:0:0:0:
329,192,39770,128,0,40917:0:0:0:0:
475,192,39770,128,0,40153:0:0:0:0:
256,192,40153,1,0,0:0:0:0:
182,192,40153,1,0,0:0:0:0:
36,192,40153,128,0,40344:0:0:0:0:
109,192,40344,1,0,0:0:0:0:
402,192,40535,128,0,40726:0:0:0:0:
109,192,40726,128,0,40917:0:0:0:0:
475,192,40917,1,0,0:0:0:0:
402,192,40917,1,0,0:0:0:0:
36,192,40917,128,0,41108:0:0:0:0:
256,192,41108,128,0,41872:0:0:0:0:
109,192,41681,1,0,0:0:0:0:
182,192,41681,1,0,0:0:0:0:
402,192,41872,128,0,42063:0:0:0:0:
109,192,42063,128,0,42254:0:0:0:0:
475,192,42254,128,0,42828:0:0:0:0:
36,192,42254,128,0,42446:0:0:0:0:
256,192,42254,1,0,0:0:0:0:
182,192,42254,1,0,0:0:0:0:
256,192,42446,1,0,0:0:0:0:
329,192,42446,1,0,0:0:0:0:
402,192,42446,128,0,42637:0:0:0:0:
329,192,42637,128,0,42828:0:0:0:0:
182,192,42828,128,0,43974:0:0:0:0:
256,192,42828,128,0,43401:0:0:0:0:
36,192,42828,1,0,0:0:0:0:
36,192,43210,1,0,0:0:0:0:
109,192,43210,1,0,0:0:0:0:
475,192,43401,128,0,43592:0:0:0:0:
109,192,43592,128,0,43783:0:0:0:0:
36,192,43783,128,0,43974:0:0:0:0:
329,192,43974,1,0,0:0:0:0:
402,192,43974,1,0,0:0:0:0:
475,192,43974,128,0,44165:0:0:0:0:
256,192,43974,128,0,44165:0:0:0:0:
109,192,44165,128,0,44930:0:0:0:0:
182,192,44739,1,0,0:0:0:0:
256,192,44739,1,0,0:0:0:0:
36,192,44930,128,0,45121:0:0:0:0:
402,192,45121,128,0,45312:0:0:0:0:
329,192,45312,128,0,45885:0:0:0:0:
109,192,45312,128,0,45694:0:0:0:0:
182,192,45503,1,0,0:0:0:0:
256,192,45503,1,0,0:0:0:0:
36,192,45694,128,0,45885:0:0:0:0:
182,192,45885,128,0,46649:0:0:0:0:
109,192,45885,128,0,46267:0:0:0:0:
402,192,46267,1,0,0:0:0:0:
475,192,46267,1,0,0:0:0:0:
256,192,46267,128,0,46458:0:0:0:0:
329,192,46458,128,0,46649:0:0:0:0:
402,192,46649,128,0,46840:0:0:0:0:
329,192,46840,128,0,47032:0:0:0:0:
109,192,47032,1,0,0:0:0:0:
36,192,47032,1,0,0:0:0:0:
475,192,47032,128,0,47223:0:0:0:0:
329,192,47223,128,0,47605:0:0:0:0:
36,192,47605,128,0,47796:0:0:0:0:
109,192,47796,1,0,0:0:0:0:
182,192,47796,1,0,0:0:0:0:
402,192,47796,128,0,47987:0:0:0:0:
329,192,47987,128,0,48178:0:0:0:0:
36,192,47987,128,0,48369:0:0:0:0:
182,192,48178,128,0,48369:0:0:0:0:
256,192,48369,128,0,48942:0:0:0:0:
329,192,48560,1,0,0:0:0:0:
402,192,48560,1,0,0:0:0:0:
182,192,48942,1,0,0:0:0:0:
109,192,48942,1,0,0:0:0:0:
402,192,48942,1,0,0:0:0:0:
475,192,48942,1,0,0:0:0:0:
36,192,48942,128,0,50089:0:0:0:0:
182,192,49325,1,0,0:0:0:0:
109,192,49325,1,0,0:0:0:0:
402,192,49516,1,0,0:0:0:0:
256,192,49516,1,0,0:0:0:0:
109,192,49707,1,0,0:0:0:0:
182,192,49707,1,0,0:0:0:0:
402,192,49707,1,0,0:0:0:0:
109,192,50089,1,0,0:0:0:0:
182,192,50089,1,0,0:0:0:0:
109,192,50471,1,0,0:0:0:0:
182,192,50471,1,0,0:0:0:0:
475,192,50853,1,0,0:0:0:0:
402,192,50853,1,0,0:0:0:0:
182,192,51044,1,0,0:0:0:0:
36,192,51044,1,0,0:0:0:0:
402,192,51235,1,0,0:0:0:0:
475,192,51235,1,0,0:0:0:0:
182,192,51235,1,0,0:0:0:0:
109,192,51426,128,0,52000:0:0:0:0:
36,192,51426,1,0,0:0:0:0:
256,192,51618,1,0,0:0:0:0:
329,192,51618,1,0,0:0:0:0:
475,192,52000,128,0,52382:0:0:0:0:
256,192,52000,1,0,0:0:0:0:
329,192,52000,1,0,0:0:0:0:
109,192,52382,1,0,0:0:0:0:
36,192,52382,1,0,0:0:0:0:
329,192,52573,1,0,0:0:0:0:
182,192,52573,1,0,0:0:0:0:
36,192,52764,1,0,0:0:0:0:
109,192,52764,1,0,0:0:0:0:
329,192,52764,1,0,0:0:0:0:
256,192,53146,1,0,0:0:0:0:
182,192,53146,1,0,0:0:0:0:
182,192,53528,1,0,0:0:0:0:
256,192,53528,1,0,0:0:0:0:
475,192,53719,1,0,0:0:0:0:
109,192,53719,1,0,0:0:0:0:
256,192,53815,1,0,0:0:0:0:
182,192,53815,1,0,0:0:0:0:
475,192,53911,1,0,0:0:0:0:
402,192,53911,1,0,0:0:0:0:
36,192,53911,1,0,0:0:0:0:
36,192,54102,1,0,0:0:0:0:
182,192,54102,1,0,0:0:0:0:
402,192,54293,1,0,0:0:0:0:
475,192,54293,1,0,0:0:0:0:
182,192,54293,1,0,0:0:0:0:
329,192,54484,128,0,55057:0:0:0:0:
109,192,54675,1,0,0:0:0:0:
182,192,54675,1,0,0:0:0:0:
36,192,55057,128,0,56204:0:0:0:0:
109,192,55057,1,0,0:0:0:0:
182,192,55057,1,0,0:0:0:0:
256,192,55439,1,0,0:0:0:0:
182,192,55439,1,0,0:0:0:0:
109,192,55630,1,0,0:0:0:0:
402,192,55630,1,0,0:0:0:0:
182,192,55821,1,0,0:0:0:0:
256,192,55821,1,0,0:0:0:0:
402,192,55821,1,0,0:0:0:0:
402,192,56204,1,0,0:0:0:0:
475,192,56204,1,0,0:0:0:0:
402,192,56586,1,0,0:0:0:0:
475,192,56586,1,0,0:0:0:0:
329,192,56968,1,0,0:0:0:0:
256,192,56968,1,0,0:0:0:0:
475,192,57159,1,0,0:0:0:0:
109,192,57159,1,0,0:0:0:0:
256,192,57350,1,0,0:0:0:0:
329,192,57350,1,0,0:0:0:0:
109,192,57350,1,0,0:0:0:0:
182,192,57541,128,0,58114:0:0:0:0:
109,192,57732,1,0,0:0:0:0:
36,192,57732,1,0,0:0:0:0:
402,192,58114,1,0,0:0:0:0:
475,192,58114,1,0,0:0:0:0:
256,192,58114,128,0,58879:0:0:0:0:
109,192,58497,1,0,0:0:0:0:
36,192,58497,1,0,0:0:0:0:
182,192,58688,1,0,0:0:0:0:
329,192,58688,1,0,0:0:0:0:
402,192,58879,1,0,0:0:0:0:
475,192,58879,1,0,0:0:0:0:
182,192,58879,1,0,0:0:0:0:
109,192,59261,1,0,0:0:0:0:
182,192,59261,1,0,0:0:0:0:
329,192,59643,1,0,0:0:0:0:
402,192,59643,1,0,0:0:0:0:
256,192,59834,1,0,0:0:0:0:
36,192,59834,1,0,0:0:0:0:
109,192,59930,1,0,0:0:0:0:
402,192,59930,1,0,0:0:0:0:
182,192,60025,1,0,0:0:0:0:
256,192,60025,1,0,0:0:0:0:
475,192,60025,1,0,0:0:0:0:
475,192,60216,1,0,0:0:0:0:
329,192,60216,1,0,0:0:0:0:
182,192,60407,1,0,0:0:0:0:
109,192,60407,1,0,0:0:0:0:
329,192,60407,1,0,0:0:0:0:
36,192,60598,1,0,0:0:0:0:
475,192,60598,1,0,0:0:0:0:
256,192,60598,128,0,60790:0:0:0:0:
329,192,60790,1,0,0:0:0:0:
402,192,60790,1,0,0:0:0:0:
109,192,60790,128,0,60981:0:0:0:0:
182,192,60981,1,0,0:0:0:0:
402,192,60981,1,0,0:0:0:0:
329,192,60981,128,0,61172:0:0:0:0:
109,192,61172,1,0,0:0:0:0:
36,192,61172,1,0,0:0:0:0:
475,192,61172,128,0,61554:0:0:0:0:
36,192,61554,128,0,61745:0:0:0:0:
256,192,61554,1,0,0:0:0:0:
182,192,61554,1,0,0:0:0:0:
402,192,61554,1,0,0:0:0:0:
329,192,61745,1,0,0:0:0:0:
402,192,61745,1,0,0:0:0:0:
402,192,61936,128,0,62127:0:0:0:0:
109,192,61936,1,0,0:0:0:0:
182,192,61936,1,0,0:0:0:0:
475,192,61936,1,0,0:0:0:0:
256,192,62127,1,0,0:0:0:0:
329,192,62127,1,0,0:0:0:0:
109,192,62318,128,0,62509:0:0:0:0:
36,192,62318,1,0,0:0:0:0:
182,192,62318,1,0,0:0:0:0:
475,192,62318,1,0,0:0:0:0:
402,192,62700,128,0,62891:0:0:0:0:
475,192,62700,1,0,0:0:0:0:
182,192,62700,1,0,0:0:0:0:
256,192,62700,1,0,0:0:0:0:
109,192,62891,1,0,0:0:0:0:
36,192,62891,1,0,0:0:0:0:
36,192,63083,128,0,63274:0:0:0:0:
329,192,63083,1,0,0:0:0:0:
402,192,63083,1,0,0:0:0:0:
109,192,63083,1,0,0:0:0:0:
182,192,63274,1,0,0:0:0:0:
256,192,63274,1,0,0:0:0:0:
475,192,63465,128,0,63656:0:0:0:0:
109,192,63465,1,0,0:0:0:0:
36,192,63465,1,0,0:0:0:0:
329,192,63465,1,0,0:0:0:0:
109,192,63656,1,0,0:0:0:0:
182,192,63656,1,0,0:0:0:0:
402,192,63751,1,0,0:0:0:0:
475,192,63751,1,0,0:0:0:0:
36,192,63847,128,0,64038:0:0:0:0:
329,192,63847,1,0,0:0:0:0:
256,192,63847,1,0,0:0:0:0:
109,192,63847,1,0,0:0:0:0:
182,192,64038,1,0,0:0:0:0:
109,192,64038,1,0,0:0:0:0:
475,192,64229,128,0,64420:0:0:0:0:
256,192,64229,1,0,0:0:0:0:
182,192,64229,1,0,0:0:0:0:
329,192,64229,1,0,0:0:0:0:
36,192,64611,128,0,64802:0:0:0:0:
109,192,64611,1,0,0:0:0:0:
182,192,64611,1,0,0:0:0:0:
329,192,64611,1,0,0:0:0:0:
402,192,64802,1,0,0:0:0:0:
475,192,64802,1,0,0:0:0:0:
329,192,64993,128,0,65184:0:0:0:0:
256,192,64993,1,0,0:0:0:0:
182,192,64993,1,0,0:0:0:0:
36,192,64993,1,0,0:0:0:0:
402,192,65184,1,0,0:0:0:0:
475,192,65184,1,0,0:0:0:0:
182,192,65376,128,0,65567:0:0:0:0:
36,192,65376,1,0,0:0:0:0:
109,192,65376,1,0,0:0:0:0:
329,192,65376,1,0,0:0:0:0:
329,192,65758,128,0,65949:0:0:0:0:
182,192,65758,1,0,0:0:0:0:
109,192,65758,1,0,0:0:0:0:
475,192,65949,1,0,0:0:0:0:
402,192,65949,1,0,0:0:0:0:
182,192,66140,128,0,66331:0:0:0:0:
109,192,66140,1,0,0:0:0:0:
36,192,66140,1,0,0:0:0:0:
329,192,66140,1,0,0:0:0:0:
256,192,66331,1,0,0:0:0:0:
329,192,66331,1,0,0:0:0:0:
329,192,66522,128,0,66713:0:0:0:0:
402,192,66522,1,0,0:0:0:0:
475,192,66522,1,0,0:0:0:0:
109,192,66522,1,0,0:0:0:0:
256,192,66713,1,0,0:0:0:0:
182,192,66713,1,0,0:0:0:0:
402,192,66809,1,0,0:0:0:0:
475,192,66809,1,0,0:0:0:0:
109,192,66904,128,0,67095:0:0:0:0:
36,192,66904,1,0,0:0:0:0:
329,192,66904,1,0,0:0:0:0:
256,192,66904,1,0,0:0:0:0:
182,192,67095,1,0,0:0:0:0:
256,192,67095,1,0,0:0:0:0:
329,192,67191,1,0,0:0:0:0:
402,192,67286,128,0,67477:0:0:0:0:
36,192,67286,1,0,0:0:0:0:
256,192,67286,1,0,0:0:0:0:
109,192,67286,1,0,0:0:0:0:
475,192,67382,1,0,0:0:0:0:
109,192,67477,128,0,67573:0:0:0:0:
329,192,67477,1,0,0:0:0:0:
256,192,67477,1,0,0:0:0:0:
36,192,67573,1,0,0:0:0:0:
475,192,67669,1,0,0:0:0:0:
182,192,67669,128,0,67764:0:0:0:0:
402,192,67669,1,0,0:0:0:0:
109,192,67669,1,0,0:0:0:0:
256,192,67764,1,0,0:0:0:0:
329,192,67860,128,0,67955:0:0:0:0:
402,192,67860,1,0,0:0:0:0:
475,192,67860,1,0,0:0:0:0:
256,192,67955,1,0,0:0:0:0:
36,192,68051,1,0,0:0:0:0:
109,192,68051,128,0,68146:0:0:0:0:
182,192,68051,1,0,0:0:0:0:
402,192,68051,1,0,0:0:0:0:
256,192,68146,1,0,0:0:0:0:
402,192,68242,1,0,0:0:0:0:
475,192,68242,128,0,68337:0:0:0:0:
182,192,68242,1,0,0:0:0:0:
109,192,68337,1,0,0:0:0:0:
329,192,68433,128,0,68528:0:0:0:0:
36,192,68433,1,0,0:0:0:0:
402,192,68433,1,0,0:0:0:0:
256,192,68433,1,0,0:0:0:0:
475,192,68528,1,0,0:0:0:0:
109,192,68624,128,0,68719:0:0:0:0:
256,192,68624,1,0,0:0:0:0:
182,192,68624,1,0,0:0:0:0:
402,192,68719,1,0,0:0:0:0:
36,192,68815,1,0,0:0:0:0:
256,192,68815,128,0,68911:0:0:0:0:
329,192,68815,1,0,0:0:0:0:
182,192,68815,1,0,0:0:0:0:
109,192,68911,1,0,0:0:0:0:
36,192,69006,128,0,69102:0:0:0:0:
402,192,69006,1,0,0:0:0:0:
329,192,69006,1,0,0:0:0:0:
182,192,69102,1,0,0:0:0:0:
475,192,69197,128,0,69293:0:0:0:0:
329,192,69197,1,0,0:0:0:0:
256,192,69197,1,0,0:0:0:0:
402,192,69197,1,0,0:0:0:0:
36,192,69293,1,0,0:0:0:0:
109,192,69388,128,0,69484:0:0:0:0:
182,192,69388,1,0,0:0:0:0:
256,192,69388,1,0,0:0:0:0:
475,192,69484,1,0,0:0:0:0:
329,192,69579,128,0,69675:0:0:0:0:
256,192,69579,1,0,0:0:0:0:
182,192,69579,1,0,0:0:0:0:
36,192,69579,1,0,0:0:0:0:
109,192,69675,1,0,0:0:0:0:
475,192,69770,128,0,69866:0:0:0:0:
182,192,69770,1,0,0:0:0:0:
256,192,69770,1,0,0:0:0:0:
402,192,69866,1,0,0:0:0:0:
36,192,69962,128,0,70057:0:0:0:0:
329,192,69962,1,0,0:0:0:0:
256,192,69962,1,0,0:0:0:0:
109,192,69962,1,0,0:0:0:0:
475,192,70057,1,0,0:0:0:0:
256,192,70153,128,0,70248:0:0:0:0:
109,192,70153,1,0,0:0:0:0:
182,192,70153,1,0,0:0:0:0:
329,192,70248,1,0,0:0:0:0:
109,192,70344,5,0,0:0:0:0:
475,192,70344,1,0,0:0:0:0:
36,192,70344,1,0,0:0:0:0:
402,192,70344,1,0,0:0:0:0:
182,192,70391,1,0,0:0:0:0:
256,192,70439,1,0,0:0:0:0:
329,192,70487,1,0,0:0:0:0:
402,192,70535,1,0,0:0:0:0:
475,192,70583,1,0,0:0:0:0:
36,192,70630,1,0,0:0:0:0:
109,192,70678,1,0,0:0:0:0:
256,192,70726,1,0,0:0:0:0:
182,192,70726,1,0,0:0:0:0:
475,192,70726,1,0,0:0:0:0:
402,192,70774,1,0,0:0:0:0:
329,192,70821,1,0,0:0:0:0:
182,192,70869,1,0,0:0:0:0:
109,192,70917,1,0,0:0:0:0:
36,192,70965,1,0,0:0:0:0:
475,192,71012,1,0,0:0:0:0:
402,192,71060,1,0,0:0:0:0:
329,192,71108,1,0,0:0:0:0:
256,192,71108,1,0,0:0:0:0:
36,192,71108,1,0,0:0:0:0:
109,192,71156,1,0,0:0:0:0:
182,192,71204,1,0,0:0:0:0:
256,192,71251,1,0,0:0:0:0:
402,192,71299,1,0,0:0:0:0:
475,192,71347,1,0,0:0:0:0:
36,192,71395,1,0,0:0:0:0:
109,192,71442,1,0,0:0:0:0:
402,192,71490,1,0,0:0:0:0:
182,192,71490,1,0,0:0:0:0:
475,192,71490,1,0,0:0:0:0:
329,192,71538,1,0,0:0:0:0:
256,192,71586,1,0,0:0:0:0:
182,192,71633,1,0,0:0:0:0:
109,192,71681,1,0,0:0:0:0:
475,192,71729,1,0,0:0:0:0:
402,192,71777,1,0,0:0:0:0:
329,192,71825,1,0,0:0:0:0:
36,192,71872,1,0,0:0:0:0:
256,192,71872,1,0,0:0:0:0:
109,192,71872,1,0,0:0:0:0:
329,192,73019,1,0,0:0:0:0:
182,192,73019,1,0,0:0:0:0:
36,192,73019,1,0,0:0:0:0:
475,192,73019,1,0,0:0:0:0:
329,192,73210,1,0,0:0:0:0:
182,192,73210,1,0,0:0:0:0:
109,192,73210,1,0,0:0:0:0:
402,192,73210,1,0,0:0:0:0:
36,192,73401,128,0,73497:0:0:0:0:
475,192,73401,1,0,0:0:0:0:
329,192,73401,1,0,0:0:0:0:
182,192,73401,1,0,0:0:0:0:
256,192,73401,1,0,0:0:0:0:
36,192,73592,128,0,73688:0:0:0:0:
36,192,73783,128,0,73879:0:0:0:0:
36,192,73974,128,0,74070:0:0:0:0:
475,192,73974,1,0,0:0:0:0:
109,192,73974,1,0,0:0:0:0:
36,192,74165,128,0,74356:0:0:0:0:
182,192,74165,1,0,0:0:0:0:
475,192,74165,1,0,0:0:0:0:
256,192,74165,1,0,0:0:0:0:
329,192,74547,1,0,0:0:0:0:
402,192,74595,1,0,0:0:0:0:
475,192,74643,1,0,0:0:0:0:
36,192,74739,1,0,0:0:0:0:
109,192,74739,1,0,0:0:0:0:
329,192,74930,128,0,75025:0:0:0:0:
329,192,75121,128,0,75216:0:0:0:0:
329,192,75312,128,0,75407:0:0:0:0:
329,192,75503,128,0,75598:0:0:0:0:
36,192,75503,1,0,0:0:0:0:
256,192,75503,1,0,0:0:0:0:
329,192,75694,128,0,75885:0:0:0:0:
475,192,75694,1,0,0:0:0:0:
36,192,75694,1,0,0:0:0:0:
182,192,75694,1,0,0:0:0:0:
256,192,76076,1,0,0:0:0:0:
182,192,76124,1,0,0:0:0:0:
109,192,76172,1,0,0:0:0:0:
402,192,76267,1,0,0:0:0:0:
475,192,76267,1,0,0:0:0:0:
402,192,76458,128,0,76554:0:0:0:0:
36,192,76458,1,0,0:0:0:0:
256,192,76458,1,0,0:0:0:0:
402,192,76649,128,0,76745:0:0:0:0:
402,192,76840,128,0,76936:0:0:0:0:
402,192,77032,128,0,77127:0:0:0:0:
182,192,77032,1,0,0:0:0:0:
475,192,77032,1,0,0:0:0:0:
402,192,77223,128,0,77318:0:0:0:0:
36,192,77223,1,0,0:0:0:0:
182,192,77223,1,0,0:0:0:0:
256,192,77223,1,0,0:0:0:0:
402,192,77414,128,0,77509:0:0:0:0:
402,192,77605,128,0,77700:0:0:0:0:
402,192,77796,128,0,77891:0:0:0:0:
402,192,77987,128,0,78083:0:0:0:0:
402,192,78178,128,0,78274:0:0:0:0:
36,192,78178,1,0,0:0:0:0:
329,192,78178,1,0,0:0:0:0:
182,192,78274,1,0,0:0:0:0:
256,192,78274,1,0,0:0:0:0:
402,192,78369,128,0,78465:0:0:0:0:
36,192,78369,1,0,0:0:0:0:
475,192,78369,1,0,0:0:0:0:
402,192,78560,128,0,78656:0:0:0:0:
475,192,78560,1,0,0:0:0:0:
256,192,78560,1,0,0:0:0:0:
402,192,78751,128,0,78847:0:0:0:0:
36,192,78751,1,0,0:0:0:0:
109,192,78751,1,0,0:0:0:0:
256,192,78751,1,0,0:0:0:0:
402,192,78942,128,0,79038:0:0:0:0:
402,192,79133,128,0,79325:0:0:0:0:
36,192,79516,128,0,79611:0:0:0:0:
475,192,79516,1,0,0:0:0:0:
182,192,79516,1,0,0:0:0:0:
36,192,79707,128,0,79802:0:0:0:0:
36,192,79898,128,0,79993:0:0:0:0:
36,192,80089,128,0,80184:0:0:0:0:
256,192,80089,1,0,0:0:0:0:
109,192,80089,1,0,0:0:0:0:
36,192,80280,128,0,80471:0:0:0:0:
329,192,80280,1,0,0:0:0:0:
475,192,80280,1,0,0:0:0:0:
256,192,80280,1,0,0:0:0:0:
109,192,80662,1,0,0:0:0:0:
182,192,80710,1,0,0:0:0:0:
256,192,80758,1,0,0:0:0:0:
402,192,80853,1,0,0:0:0:0:
475,192,80853,1,0,0:0:0:0:
329,192,81044,128,0,81140:0:0:0:0:
329,192,81235,128,0,81331:0:0:0:0:
329,192,81426,128,0,81522:0:0:0:0:
329,192,81618,128,0,81713:0:0:0:0:
182,192,81618,1,0,0:0:0:0:
475,192,81618,1,0,0:0:0:0:
329,192,81809,128,0,82000:0:0:0:0:
182,192,81809,1,0,0:0:0:0:
36,192,81809,1,0,0:0:0:0:
402,192,81809,1,0,0:0:0:0:
475,192,82191,1,0,0:0:0:0:
402,192,82239,1,0,0:0:0:0:
329,192,82286,1,0,0:0:0:0:
36,192,82382,1,0,0:0:0:0:
109,192,82382,1,0,0:0:0:0:
475,192,82573,128,0,82669:0:0:0:0:
182,192,82573,1,0,0:0:0:0:
109,192,82573,1,0,0:0:0:0:
475,192,82764,128,0,82860:0:0:0:0:
475,192,82955,128,0,83051:0:0:0:0:
475,192,83146,128,0,83242:0:0:0:0:
36,192,83146,1,0,0:0:0:0:
256,192,83146,1,0,0:0:0:0:
475,192,83337,128,0,83433:0:0:0:0:
36,192,83337,1,0,0:0:0:0:
329,192,83337,1,0,0:0:0:0:
402,192,83337,1,0,0:0:0:0:
475,192,83528,128,0,83624:0:0:0:0:
475,192,83719,128,0,83815:0:0:0:0:
475,192,83911,128,0,84102:0:0:0:0:
256,192,84102,1,0,0:0:0:0:
182,192,84102,1,0,0:0:0:0:
329,192,84293,1,0,0:0:0:0:
109,192,84293,1,0,0:0:0:0:
36,192,84388,1,0,0:0:0:0:
256,192,84388,1,0,0:0:0:0:
329,192,84484,1,0,0:0:0:0:
475,192,84484,1,0,0:0:0:0:
475,192,84675,1,0,0:0:0:0:
182,192,84675,1,0,0:0:0:0:
256,192,84866,128,0,84962:0:0:0:0:
182,192,84866,1,0,0:0:0:0:
36,192,84866,1,0,0:0:0:0:
402,192,84866,1,0,0:0:0:0:
256,192,85057,128,0,85153:0:0:0:0:
329,192,85057,1,0,0:0:0:0:
182,192,85057,1,0,0:0:0:0:
256,192,85248,128,0,85439:0:0:0:0:
402,192,85248,1,0,0:0:0:0:
109,192,85248,1,0,0:0:0:0:
402,192,85439,1,0,0:0:0:0:
109,192,85439,1,0,0:0:0:0:
192,192,85630,1,0,0:0:0:0:
64,192,85630,1,0,0:0:0:0:
448,192,85630,128,0,85726:0:0:0:0:
329,192,85630,1,0,0:0:0:0:
256,192,85630,1,0,0:0:0:0:
448,192,85821,128,0,85917:0:0:0:0:
448,192,86012,128,0,86108:0:0:0:0:
182,192,86012,1,0,0:0:0:0:
402,192,86204,1,0,0:0:0:0:
64,192,86204,1,0,0:0:0:0:
448,192,86204,128,0,86299:0:0:0:0:
64,192,86395,1,0,0:0:0:0:
256,192,86395,1,0,0:0:0:0:
448,192,86395,128,0,86586:0:0:0:0:
320,192,86395,1,0,0:0:0:0:
36,192,86777,1,0,0:0:0:0:
109,192,86825,1,0,0:0:0:0:
182,192,86872,1,0,0:0:0:0:
402,192,86968,1,0,0:0:0:0:
475,192,86968,1,0,0:0:0:0:
182,192,87159,128,0,87254:0:0:0:0:
182,192,87350,128,0,87446:0:0:0:0:
182,192,87541,128,0,87637:0:0:0:0:
329,192,87541,1,0,0:0:0:0:
256,192,87732,1,0,0:0:0:0:
448,192,87732,1,0,0:0:0:0:
182,192,87732,128,0,87828:0:0:0:0:
448,192,87923,1,0,0:0:0:0:
329,192,87923,1,0,0:0:0:0:
182,192,87923,128,0,88114:0:0:0:0:
64,192,87923,1,0,0:0:0:0:
402,192,88305,1,0,0:0:0:0:
329,192,88353,1,0,0:0:0:0:
256,192,88401,1,0,0:0:0:0:
109,192,88497,1,0,0:0:0:0:
36,192,88497,1,0,0:0:0:0:
256,192,88688,1,0,0:0:0:0:
448,192,88688,1,0,0:0:0:0:
109,192,88688,128,0,88783:0:0:0:0:
109,192,88879,128,0,88974:0:0:0:0:
109,192,89070,128,0,89165:0:0:0:0:
182,192,89070,1,0,0:0:0:0:
36,192,89261,1,0,0:0:0:0:
320,192,89261,1,0,0:0:0:0:
109,192,89261,128,0,89356:0:0:0:0:
320,192,89452,1,0,0:0:0:0:
256,192,89452,1,0,0:0:0:0:
109,192,89452,128,0,89547:0:0:0:0:
448,192,89452,1,0,0:0:0:0:
109,192,89643,128,0,89739:0:0:0:0:
109,192,89834,128,0,89930:0:0:0:0:
402,192,89834,1,0,0:0:0:0:
109,192,90025,128,0,90121:0:0:0:0:
109,192,90216,128,0,90312:0:0:0:0:
182,192,90407,1,0,0:0:0:0:
475,192,90407,1,0,0:0:0:0:
109,192,90407,128,0,90503:0:0:0:0:
329,192,90503,1,0,0:0:0:0:
256,192,90503,1,0,0:0:0:0:
36,192,90598,1,0,0:0:0:0:
448,192,90598,1,0,0:0:0:0:
109,192,90598,128,0,90694:0:0:0:0:
256,192,90790,1,0,0:0:0:0:
36,192,90790,1,0,0:0:0:0:
109,192,90790,128,0,90885:0:0:0:0:
402,192,90981,1,0,0:0:0:0:
256,192,90981,1,0,0:0:0:0:
109,192,90981,128,0,91076:0:0:0:0:
448,192,90981,1,0,0:0:0:0:
109,192,91172,128,0,91267:0:0:0:0:
109,192,91363,128,0,91554:0:0:0:0:
329,192,91363,1,0,0:0:0:0:
329,192,91745,1,0,0:0:0:0:
36,192,91745,1,0,0:0:0:0:
475,192,91745,128,0,91840:0:0:0:0:
475,192,91936,128,0,92032:0:0:0:0:
475,192,92127,128,0,92223:0:0:0:0:
109,192,92127,1,0,0:0:0:0:
402,192,92318,1,0,0:0:0:0:
256,192,92318,1,0,0:0:0:0:
475,192,92318,128,0,92414:0:0:0:0:
36,192,92509,1,0,0:0:0:0:
256,192,92509,1,0,0:0:0:0:
475,192,92509,128,0,92700:0:0:0:0:
182,192,92509,1,0,0:0:0:0:
109,192,92891,1,0,0:0:0:0:
182,192,92939,1,0,0:0:0:0:
256,192,92987,1,0,0:0:0:0:
475,192,93083,1,0,0:0:0:0:
402,192,93083,1,0,0:0:0:0:
182,192,93274,128,0,93369:0:0:0:0:
182,192,93465,128,0,93560:0:0:0:0:
182,192,93656,128,0,93751:0:0:0:0:
256,192,93656,1,0,0:0:0:0:
36,192,93847,1,0,0:0:0:0:
329,192,93847,1,0,0:0:0:0:
182,192,93847,128,0,93942:0:0:0:0:
475,192,94038,1,0,0:0:0:0:
109,192,94038,1,0,0:0:0:0:
182,192,94038,128,0,94229:0:0:0:0:
329,192,94038,1,0,0:0:0:0:
475,192,94420,1,0,0:0:0:0:
402,192,94468,1,0,0:0:0:0:
329,192,94516,1,0,0:0:0:0:
109,192,94611,1,0,0:0:0:0:
182,192,94611,1,0,0:0:0:0:
402,192,94802,1,0,0:0:0:0:
329,192,94802,1,0,0:0:0:0:
36,192,94802,128,0,94898:0:0:0:0:
36,192,94993,128,0,95089:0:0:0:0:
36,192,95184,128,0,95280:0:0:0:0:
402,192,95184,1,0,0:0:0:0:
256,192,95376,1,0,0:0:0:0:
475,192,95376,1,0,0:0:0:0:
36,192,95376,128,0,95471:0:0:0:0:
182,192,95567,1,0,0:0:0:0:
109,192,95567,1,0,0:0:0:0:
36,192,95567,128,0,95662:0:0:0:0:
475,192,95567,1,0,0:0:0:0:
36,192,95758,128,0,95853:0:0:0:0:
36,192,95949,128,0,96044:0:0:0:0:
329,192,95949,1,0,0:0:0:0:
36,192,96140,128,0,96235:0:0:0:0:
256,192,96331,128,0,96426:0:0:0:0:
402,192,96522,1,0,0:0:0:0:
182,192,96522,1,0,0:0:0:0:
256,192,96522,128,0,96618:0:0:0:0:
475,192,96618,1,0,0:0:0:0:
329,192,96618,1,0,0:0:0:0:
36,192,96713,1,0,0:0:0:0:
182,192,96713,1,0,0:0:0:0:
256,192,96713,128,0,96809:0:0:0:0:
329,192,96904,1,0,0:0:0:0:
36,192,96904,1,0,0:0:0:0:
256,192,96904,128,0,97000:0:0:0:0:
475,192,97095,1,0,0:0:0:0:
109,192,97095,1,0,0:0:0:0:
329,192,97095,1,0,0:0:0:0:
256,192,97095,128,0,97191:0:0:0:0:
36,192,97286,1,0,0:0:0:0:
475,192,97286,1,0,0:0:0:0:
256,192,97286,1,0,0:0:0:0:
402,192,97477,1,0,0:0:0:0:
109,192,97477,1,0,0:0:0:0:
256,192,97477,1,0,0:0:0:0:
402,192,97669,1,0,0:0:0:0:
109,192,97669,1,0,0:0:0:0:
256,192,97669,1,0,0:0:0:0:
402,192,97860,1,0,0:0:0:0:
475,192,97860,1,0,0:0:0:0:
109,192,97860,1,0,0:0:0:0:
36,192,97860,128,0,98242:0:0:0:0:
475,192,98242,128,0,98433:0:0:0:0:
256,192,98242,1,0,0:0:0:0:
329,192,98242,1,0,0:0:0:0:
109,192,98242,1,0,0:0:0:0:
182,192,98433,1,0,0:0:0:0:
109,192,98433,1,0,0:0:0:0:
109,192,98624,128,0,98815:0:0:0:0:
402,192,98624,1,0,0:0:0:0:
329,192,98624,1,0,0:0:0:0:
36,192,98624,1,0,0:0:0:0:
256,192,98815,1,0,0:0:0:0:
182,192,98815,1,0,0:0:0:0:
402,192,99006,128,0,99197:0:0:0:0:
475,192,99006,1,0,0:0:0:0:
329,192,99006,1,0,0:0:0:0:
36,192,99006,1,0,0:0:0:0:
109,192,99388,128,0,99579:0:0:0:0:
36,192,99388,1,0,0:0:0:0:
329,192,99388,1,0,0:0:0:0:
256,192,99388,1,0,0:0:0:0:
402,192,99579,1,0,0:0:0:0:
475,192,99579,1,0,0:0:0:0:
475,192,99770,128,0,99962:0:0:0:0:
182,192,99770,1,0,0:0:0:0:
109,192,99770,1,0,0:0:0:0:
402,192,99770,1,0,0:0:0:0:
329,192,99962,1,0,0:0:0:0:
256,192,99962,1,0,0:0:0:0:
36,192,100153,128,0,100344:0:0:0:0:
402,192,100153,1,0,0:0:0:0:
475,192,100153,1,0,0:0:0:0:
182,192,100153,1,0,0:0:0:0:
402,192,100344,1,0,0:0:0:0:
329,192,100344,1,0,0:0:0:0:
109,192,100439,1,0,0:0:0:0:
36,192,100439,1,0,0:0:0:0:
475,192,100535,128,0,100726:0:0:0:0:
182,192,100535,1,0,0:0:0:0:
256,192,100535,1,0,0:0:0:0:
402,192,100535,1,0,0:0:0:0:
329,192,100726,1,0,0:0:0:0:
402,192,100726,1,0,0:0:0:0:
36,192,100917,128,0,101108:0:0:0:0:
256,192,100917,1,0,0:0:0:0:
329,192,100917,1,0,0:0:0:0:
182,192,100917,1,0,0:0:0:0:
475,192,101299,128,0,101490:0:0:0:0:
402,192,101299,1,0,0:0:0:0:
329,192,101299,1,0,0:0:0:0:
182,192,101299,1,0,0:0:0:0:
109,192,101490,1,0,0:0:0:0:
36,192,101490,1,0,0:0:0:0:
182,192,101681,128,0,101872:0:0:0:0:
256,192,101681,1,0,0:0:0:0:
329,192,101681,1,0,0:0:0:0:
475,192,101681,1,0,0:0:0:0:
109,192,101872,1,0,0:0:0:0:
36,192,101872,1,0,0:0:0:0:
329,192,102063,128,0,102254:0:0:0:0:
475,192,102063,1,0,0:0:0:0:
402,192,102063,1,0,0:0:0:0:
182,192,102063,1,0,0:0:0:0:
182,192,102446,128,0,102637:0:0:0:0:
329,192,102446,1,0,0:0:0:0:
402,192,102446,1,0,0:0:0:0:
36,192,102637,1,0,0:0:0:0:
109,192,102637,1,0,0:0:0:0:
329,192,102828,128,0,103019:0:0:0:0:
402,192,102828,1,0,0:0:0:0:
475,192,102828,1,0,0:0:0:0:
182,192,102828,1,0,0:0:0:0:
256,192,103019,1,0,0:0:0:0:
182,192,103019,1,0,0:0:0:0:
182,192,103210,128,0,103401:0:0:0:0:
109,192,103210,1,0,0:0:0:0:
36,192,103210,1,0,0:0:0:0:
402,192,103210,1,0,0:0:0:0:
256,192,103401,1,0,0:0:0:0:
329,192,103401,1,0,0:0:0:0:
109,192,103497,1,0,0:0:0:0:
36,192,103497,1,0,0:0:0:0:
402,192,103592,128,0,103783:0:0:0:0:
475,192,103592,1,0,0:0:0:0:
182,192,103592,1,0,0:0:0:0:
256,192,103592,1,0,0:0:0:0:
329,192,103783,1,0,0:0:0:0:
256,192,103783,1,0,0:0:0:0:
182,192,103879,1,0,0:0:0:0:
36,192,103974,1,0,0:0:0:0:
109,192,103974,1,0,0:0:0:0:
256,192,103974,128,0,104070:0:0:0:0:
475,192,103974,1,0,0:0:0:0:
329,192,104070,1,0,0:0:0:0:
402,192,104165,128,0,104261:0:0:0:0:
182,192,104165,1,0,0:0:0:0:
256,192,104165,1,0,0:0:0:0:
475,192,104261,1,0,0:0:0:0:
36,192,104356,1,0,0:0:0:0:
329,192,104356,128,0,104452:0:0:0:0:
109,192,104356,1,0,0:0:0:0:
402,192,104356,1,0,0:0:0:0:
256,192,104452,1,0,0:0:0:0:
182,192,104547,128,0,104643:0:0:0:0:
109,192,104547,1,0,0:0:0:0:
36,192,104547,1,0,0:0:0:0:
256,192,104643,1,0,0:0:0:0:
475,192,104739,1,0,0:0:0:0:
402,192,104739,128,0,104834:0:0:0:0:
329,192,104739,1,0,0:0:0:0:
109,192,104739,1,0,0:0:0:0:
256,192,104834,1,0,0:0:0:0:
109,192,104930,1,0,0:0:0:0:
36,192,104930,128,0,105025:0:0:0:0:
329,192,104930,1,0,0:0:0:0:
402,192,105025,1,0,0:0:0:0:
182,192,105121,128,0,105216:0:0:0:0:
475,192,105121,1,0,0:0:0:0:
109,192,105121,1,0,0:0:0:0:
256,192,105121,1,0,0:0:0:0:
36,192,105216,1,0,0:0:0:0:
402,192,105312,128,0,105407:0:0:0:0:
256,192,105312,1,0,0:0:0:0:
329,192,105312,1,0,0:0:0:0:
109,192,105407,1,0,0:0:0:0:
475,192,105503,1,0,0:0:0:0:
256,192,105503,128,0,105598:0:0:0:0:
182,192,105503,1,0,0:0:0:0:
329,192,105503,1,0,0:0:0:0:
402,192,105598,1,0,0:0:0:0:
475,192,105694,128,0,105790:0:0:0:0:
109,192,105694,1,0,0:0:0:0:
182,192,105694,1,0,0:0:0:0:
329,192,105790,1,0,0:0:0:0:
36,192,105885,128,0,105981:0:0:0:0:
182,192,105885,1,0,0:0:0:0:
256,192,105885,1,0,0:0:0:0:
109,192,105885,1,0,0:0:0:0:
475,192,105981,1,0,0:0:0:0:
402,192,106076,128,0,106172:0:0:0:0:
329,192,106076,1,0,0:0:0:0:
256,192,106076,1,0,0:0:0:0:
36,192,106172,1,0,0:0:0:0:
182,192,106267,128,0,106363:0:0:0:0:
256,192,106267,1,0,0:0:0:0:
329,192,106267,1,0,0:0:0:0:
475,192,106267,1,0,0:0:0:0:
402,192,106363,1,0,0:0:0:0:
36,192,106458,128,0,106554:0:0:0:0:
329,192,106458,1,0,0:0:0:0:
256,192,106458,1,0,0:0:0:0:
109,192,106554,1,0,0:0:0:0:
475,192,106649,128,0,106745:0:0:0:0:
182,192,106649,1,0,0:0:0:0:
256,192,106649,1,0,0:0:0:0:
402,192,106649,1,0,0:0:0:0:
36,192,106745,1,0,0:0:0:0:
256,192,106840,128,0,106936:0:0:0:0:
402,192,106840,1,0,0:0:0:0:
329,192,106840,1,0,0:0:0:0:
182,192,106936,1,0,0:0:0:0:
402,192,107032,5,0,0:0:0:0:
475,192,107032,1,0,0:0:0:0:
36,192,107032,1,0,0:0:0:0:
109,192,107032,1,0,0:0:0:0:
329,192,107079,1,0,0:0:0:0:
256,192,107127,1,0,0:0:0:0:
182,192,107175,1,0,0:0:0:0:
109,192,107223,1,0,0:0:0:0:
36,192,107270,1,0,0:0:0:0:
475,192,107318,1,0,0:0:0:0:
402,192,107366,1,0,0:0:0:0:
256,192,107414,1,0,0:0:0:0:
329,192,107414,1,0,0:0:0:0:
36,192,107414,1,0,0:0:0:0:
109,192,107462,1,0,0:0:0:0:
182,192,107509,1,0,0:0:0:0:
329,192,107557,1,0,0:0:0:0:
402,192,107605,1,0,0:0:0:0:
475,192,107653,1,0,0:0:0:0:
36,192,107700,1,0,0:0:0:0:
109,192,107748,1,0,0:0:0:0:
182,192,107796,1,0,0:0:0:0:
256,192,107796,1,0,0:0:0:0:
475,192,107796,1,0,0:0:0:0:
402,192,107844,1,0,0:0:0:0:
329,192,107891,1,0,0:0:0:0:
256,192,107939,1,0,0:0:0:0:
109,192,107987,1,0,0:0:0:0:
36,192,108035,1,0,0:0:0:0:
475,192,108083,1,0,0:0:0:0:
402,192,108130,1,0,0:0:0:0:
109,192,108178,1,0,0:0:0:0:
329,192,108178,1,0,0:0:0:0:
36,192,108178,1,0,0:0:0:0:
182,192,108226,1,0,0:0:0:0:
256,192,108274,1,0,0:0:0:0:
329,192,108321,1,0,0:0:0:0:
402,192,108369,1,0,0:0:0:0:
36,192,108417,1,0,0:0:0:0:
109,192,108465,1,0,0:0:0:0:
182,192,108512,1,0,0:0:0:0:
475,192,108560,1,0,0:0:0:0:
256,192,108560,1,0,0:0:0:0:
402,192,108560,1,0,0:0:0:0:
36,192,108560,128,0,108942:0:0:0:0:
329,192,108560,128,0,108942:0:0:0:0:
256,192,108942,1,0,0:0:0:0:
182,192,108942,1,0,0:0:0:0:
329,192,109133,1,0,0:0:0:0:
402,192,109133,1,0,0:0:0:0:
475,192,109133,1,0,0:0:0:0:
182,192,109325,1,0,0:0:0:0:
109,192,109325,1,0,0:0:0:0:
36,192,109325,1,0,0:0:0:0:
329,192,109611,1,0,0:0:0:0:
256,192,109611,1,0,0:0:0:0:
402,192,109611,1,0,0:0:0:0:
109,192,109707,1,0,0:0:0:0:
36,192,109707,1,0,0:0:0:0:
329,192,109898,1,0,0:0:0:0:
256,192,109898,1,0,0:0:0:0:
182,192,109898,1,0,0:0:0:0:
475,192,110089,1,0,0:0:0:0:
402,192,110089,1,0,0:0:0:0:
109,192,110089,128,0,110280:0:0:0:0:
182,192,110280,1,0,0:0:0:0:
109,192,110471,128,0,110662:0:0:0:0:
256,192,110471,1,0,0:0:0:0:
329,192,110471,1,0,0:0:0:0:
36,192,110662,1,0,0:0:0:0:
109,192,110853,128,0,111044:0:0:0:0:
402,192,110853,1,0,0:0:0:0:
475,192,110853,1,0,0:0:0:0:
182,192,110853,1,0,0:0:0:0:
256,192,111140,1,0,0:0:0:0:
329,192,111140,1,0,0:0:0:0:
109,192,111140,128,0,111331:0:0:0:0:
402,192,111235,1,0,0:0:0:0:
182,192,111426,1,0,0:0:0:0:
256,192,111426,1,0,0:0:0:0:
109,192,111426,128,0,111618:0:0:0:0:
36,192,111522,1,0,0:0:0:0:
329,192,111618,128,0,111809:0:0:0:0:
475,192,111618,1,0,0:0:0:0:
402,192,111618,1,0,0:0:0:0:
256,192,111809,1,0,0:0:0:0:
329,192,112000,128,0,112191:0:0:0:0:
109,192,112000,1,0,0:0:0:0:
36,192,112000,1,0,0:0:0:0:
256,192,112191,1,0,0:0:0:0:
329,192,112382,128,0,112573:0:0:0:0:
402,192,112382,1,0,0:0:0:0:
475,192,112382,1,0,0:0:0:0:
182,192,112382,1,0,0:0:0:0:
109,192,112669,1,0,0:0:0:0:
182,192,112669,1,0,0:0:0:0:
329,192,112669,128,0,112860:0:0:0:0:
36,192,112764,1,0,0:0:0:0:
402,192,112955,1,0,0:0:0:0:
475,192,112955,1,0,0:0:0:0:
329,192,112955,128,0,113146:0:0:0:0:
256,192,113051,1,0,0:0:0:0:
36,192,113146,128,0,113337:0:0:0:0:
109,192,113146,1,0,0:0:0:0:
182,192,113146,1,0,0:0:0:0:
256,192,113337,1,0,0:0:0:0:
36,192,113528,128,0,113719:0:0:0:0:
402,192,113528,1,0,0:0:0:0:
475,192,113528,1,0,0:0:0:0:
109,192,113719,1,0,0:0:0:0:
36,192,113911,128,0,114102:0:0:0:0:
256,192,113911,1,0,0:0:0:0:
329,192,113911,1,0,0:0:0:0:
475,192,113911,1,0,0:0:0:0:
182,192,114197,1,0,0:0:0:0:
256,192,114197,1,0,0:0:0:0:
36,192,114197,128,0,114388:0:0:0:0:
402,192,114293,1,0,0:0:0:0:
402,192,114484,1,0,0:0:0:0:
475,192,114484,1,0,0:0:0:0:
36,192,114484,128,0,114675:0:0:0:0:
109,192,114579,1,0,0:0:0:0:
256,192,114675,128,0,114770:0:0:0:0:
182,192,114675,1,0,0:0:0:0:
329,192,114675,1,0,0:0:0:0:
256,192,114866,128,0,114962:0:0:0:0:
256,192,115057,128,0,115153:0:0:0:0:
109,192,115057,1,0,0:0:0:0:
402,192,115057,1,0,0:0:0:0:
256,192,115248,128,0,115344:0:0:0:0:
256,192,115439,128,0,115630:0:0:0:0:
402,192,115439,1,0,0:0:0:0:
475,192,115439,1,0,0:0:0:0:
36,192,115439,1,0,0:0:0:0:
109,192,115439,1,0,0:0:0:0:
402,192,115726,1,0,0:0:0:0:
329,192,115726,1,0,0:0:0:0:
182,192,115726,128,0,115917:0:0:0:0:
36,192,115821,1,0,0:0:0:0:
256,192,116012,1,0,0:0:0:0:
182,192,116012,128,0,116204:0:0:0:0:
329,192,116012,1,0,0:0:0:0:
475,192,116108,1,0,0:0:0:0:
36,192,116204,1,0,0:0:0:0:
109,192,116204,1,0,0:0:0:0:
402,192,116204,128,0,116395:0:0:0:0:
329,192,116395,1,0,0:0:0:0:
402,192,116586,128,0,116777:0:0:0:0:
256,192,116586,1,0,0:0:0:0:
182,192,116586,1,0,0:0:0:0:
109,192,116777,1,0,0:0:0:0:
402,192,116968,128,0,117159:0:0:0:0:
109,192,116968,1,0,0:0:0:0:
36,192,116968,1,0,0:0:0:0:
329,192,116968,1,0,0:0:0:0:
256,192,117254,1,0,0:0:0:0:
182,192,117254,1,0,0:0:0:0:
402,192,117254,128,0,117446:0:0:0:0:
109,192,117350,1,0,0:0:0:0:
329,192,117541,1,0,0:0:0:0:
256,192,117541,1,0,0:0:0:0:
402,192,117541,128,0,117732:0:0:0:0:
475,192,117637,1,0,0:0:0:0:
182,192,117732,128,0,117923:0:0:0:0:
36,192,117732,1,0,0:0:0:0:
109,192,117732,1,0,0:0:0:0:
256,192,117923,1,0,0:0:0:0:
182,192,118114,128,0,118305:0:0:0:0:
402,192,118114,1,0,0:0:0:0:
475,192,118114,1,0,0:0:0:0:
256,192,118305,1,0,0:0:0:0:
182,192,118497,128,0,118688:0:0:0:0:
109,192,118497,1,0,0:0:0:0:
36,192,118497,1,0,0:0:0:0:
329,192,118497,1,0,0:0:0:0:
402,192,118783,1,0,0:0:0:0:
329,192,118783,1,0,0:0:0:0:
182,192,118783,128,0,118974:0:0:0:0:
256,192,118879,1,0,0:0:0:0:
109,192,119070,1,0,0:0:0:0:
36,192,119070,1,0,0:0:0:0:
182,192,119070,128,0,119261:0:0:0:0:
256,192,119165,1,0,0:0:0:0:
475,192,119261,128,0,119452:0:0:0:0:
402,192,119261,1,0,0:0:0:0:
329,192,119261,1,0,0:0:0:0:
182,192,119452,1,0,0:0:0:0:
475,192,119643,128,0,119834:0:0:0:0:
109,192,119643,1,0,0:0:0:0:
36,192,119643,1,0,0:0:0:0:
182,192,119834,1,0,0:0:0:0:
475,192,120025,128,0,120216:0:0:0:0:
402,192,120025,1,0,0:0:0:0:
109,192,120025,1,0,0:0:0:0:
182,192,120025,1,0,0:0:0:0:
329,192,120312,1,0,0:0:0:0:
256,192,120312,1,0,0:0:0:0:
475,192,120312,128,0,120503:0:0:0:0:
182,192,120407,1,0,0:0:0:0:
109,192,120598,1,0,0:0:0:0:
36,192,120598,1,0,0:0:0:0:
475,192,120598,128,0,120790:0:0:0:0:
182,192,120694,1,0,0:0:0:0:
256,192,120790,128,0,120885:0:0:0:0:
329,192,120790,1,0,0:0:0:0:
109,192,120790,1,0,0:0:0:0:
256,192,120981,128,0,121076:0:0:0:0:
256,192,121172,128,0,121267:0:0:0:0:
402,192,121172,1,0,0:0:0:0:
475,192,121172,1,0,0:0:0:0:
256,192,121363,128,0,121458:0:0:0:0:
256,192,121554,128,0,121745:0:0:0:0:
109,192,121554,1,0,0:0:0:0:
36,192,121554,1,0,0:0:0:0:
475,192,121554,1,0,0:0:0:0:
182,192,121840,1,0,0:0:0:0:
109,192,121840,1,0,0:0:0:0:
402,192,121840,128,0,122032:0:0:0:0:
36,192,121936,1,0,0:0:0:0:
256,192,122127,1,0,0:0:0:0:
182,192,122127,1,0,0:0:0:0:
402,192,122127,128,0,122318:0:0:0:0:
36,192,122223,1,0,0:0:0:0:
109,192,122318,128,0,122509:0:0:0:0:
329,192,122318,1,0,0:0:0:0:
475,192,122318,1,0,0:0:0:0:
182,192,122509,1,0,0:0:0:0:
329,192,122700,1,0,0:0:0:0:
256,192,122700,1,0,0:0:0:0:
109,192,122700,128,0,122891:0:0:0:0:
36,192,122700,1,0,0:0:0:0:
182,192,122891,1,0,0:0:0:0:
475,192,123083,1,0,0:0:0:0:
109,192,123083,128,0,123274:0:0:0:0:
402,192,123083,1,0,0:0:0:0:
329,192,123083,1,0,0:0:0:0:
329,192,123369,1,0,0:0:0:0:
256,192,123369,1,0,0:0:0:0:
109,192,123369,128,0,123560:0:0:0:0:
36,192,123369,1,0,0:0:0:0:
402,192,123465,1,0,0:0:0:0:
256,192,123656,1,0,0:0:0:0:
182,192,123656,1,0,0:0:0:0:
109,192,123656,128,0,123847:0:0:0:0:
36,192,123751,1,0,0:0:0:0:
402,192,123847,1,0,0:0:0:0:
475,192,123847,1,0,0:0:0:0:
329,192,123847,128,0,124038:0:0:0:0:
256,192,124038,1,0,0:0:0:0:
36,192,124229,1,0,0:0:0:0:
109,192,124229,1,0,0:0:0:0:
329,192,124229,128,0,124420:0:0:0:0:
475,192,124229,1,0,0:0:0:0:
182,192,124420,1,0,0:0:0:0:
475,192,124611,1,0,0:0:0:0:
329,192,124611,128,0,124802:0:0:0:0:
402,192,124611,1,0,0:0:0:0:
256,192,124611,1,0,0:0:0:0:
329,192,124898,128,0,125089:0:0:0:0:
36,192,124898,1,0,0:0:0:0:
109,192,124898,1,0,0:0:0:0:
256,192,124898,1,0,0:0:0:0:
402,192,124993,1,0,0:0:0:0:
475,192,125184,1,0,0:0:0:0:
402,192,125184,1,0,0:0:0:0:
329,192,125184,128,0,125376:0:0:0:0:
256,192,125280,1,0,0:0:0:0:
182,192,125376,1,0,0:0:0:0:
109,192,125376,1,0,0:0:0:0:
36,192,125376,128,0,125567:0:0:0:0:
256,192,125567,1,0,0:0:0:0:
475,192,125758,1,0,0:0:0:0:
402,192,125758,1,0,0:0:0:0:
36,192,125758,128,0,125949:0:0:0:0:
182,192,125758,1,0,0:0:0:0:
109,192,125949,1,0,0:0:0:0:
329,192,126140,1,0,0:0:0:0:
256,192,126140,1,0,0:0:0:0:
36,192,126140,128,0,126331:0:0:0:0:
402,192,126140,1,0,0:0:0:0:
256,192,126426,1,0,0:0:0:0:
182,192,126426,1,0,0:0:0:0:
36,192,126426,128,0,126618:0:0:0:0:
475,192,126426,1,0,0:0:0:0:
329,192,126522,1,0,0:0:0:0:
475,192,126713,1,0,0:0:0:0:
402,192,126713,1,0,0:0:0:0:
36,192,126713,128,0,126904:0:0:0:0:
109,192,126809,1,0,0:0:0:0:
402,192,126904,1,0,0:0:0:0:
182,192,126904,1,0,0:0:0:0:
256,192,126904,128,0,127000:0:0:0:0:
256,192,127095,128,0,127191:0:0:0:0:
36,192,127286,1,0,0:0:0:0:
109,192,127286,1,0,0:0:0:0:
256,192,127286,128,0,127382:0:0:0:0:
402,192,127286,1,0,0:0:0:0:
256,192,127477,128,0,127573:0:0:0:0:
475,192,127669,1,0,0:0:0:0:
256,192,127669,128,0,127860:0:0:0:0:
402,192,127669,1,0,0:0:0:0:
329,192,127669,1,0,0:0:0:0:
329,192,127955,1,0,0:0:0:0:
402,192,127955,1,0,0:0:0:0:
182,192,127955,128,0,128146:0:0:0:0:
36,192,127955,1,0,0:0:0:0:
109,192,128051,1,0,0:0:0:0:
256,192,128242,1,0,0:0:0:0:
329,192,128242,1,0,0:0:0:0:
182,192,128242,128,0,128433:0:0:0:0:
475,192,128337,1,0,0:0:0:0:
402,192,128433,128,0,128624:0:0:0:0:
109,192,128433,1,0,0:0:0:0:
36,192,128433,1,0,0:0:0:0:
329,192,128624,1,0,0:0:0:0:
182,192,128815,1,0,0:0:0:0:
402,192,128815,128,0,129006:0:0:0:0:
256,192,128815,1,0,0:0:0:0:
329,192,129006,1,0,0:0:0:0:
36,192,129197,1,0,0:0:0:0:
402,192,129197,128,0,129388:0:0:0:0:
109,192,129197,1,0,0:0:0:0:
182,192,129197,1,0,0:0:0:0:
182,192,129484,1,0,0:0:0:0:
256,192,129484,1,0,0:0:0:0:
402,192,129484,128,0,129675:0:0:0:0:
475,192,129484,1,0,0:0:0:0:
109,192,129579,1,0,0:0:0:0:
256,192,129770,1,0,0:0:0:0:
329,192,129770,1,0,0:0:0:0:
402,192,129770,128,0,129962:0:0:0:0:
475,192,129866,1,0,0:0:0:0:
109,192,129962,1,0,0:0:0:0:
36,192,129962,1,0,0:0:0:0:
182,192,129962,128,0,130153:0:0:0:0:
256,192,130153,1,0,0:0:0:0:
475,192,130344,1,0,0:0:0:0:
402,192,130344,1,0,0:0:0:0:
182,192,130344,128,0,130535:0:0:0:0:
109,192,130344,1,0,0:0:0:0:
329,192,130535,1,0,0:0:0:0:
36,192,130726,1,0,0:0:0:0:
182,192,130726,128,0,130917:0:0:0:0:
109,192,130726,1,0,0:0:0:0:
256,192,130726,1,0,0:0:0:0:
182,192,131012,128,0,131204:0:0:0:0:
475,192,131012,1,0,0:0:0:0:
402,192,131012,1,0,0:0:0:0:
256,192,131012,1,0,0:0:0:0:
329,192,131108,1,0,0:0:0:0:
36,192,131299,1,0,0:0:0:0:
109,192,131299,1,0,0:0:0:0:
182,192,131299,128,0,131490:0:0:0:0:
256,192,131395,1,0,0:0:0:0:
329,192,131490,1,0,0:0:0:0:
402,192,131490,1,0,0:0:0:0:
475,192,131490,128,0,131681:0:0:0:0:
182,192,131681,1,0,0:0:0:0:
36,192,131872,1,0,0:0:0:0:
109,192,131872,1,0,0:0:0:0:
475,192,131872,128,0,132063:0:0:0:0:
329,192,131872,1,0,0:0:0:0:
402,192,132063,1,0,0:0:0:0:
182,192,132254,1,0,0:0:0:0:
256,192,132254,1,0,0:0:0:0:
475,192,132254,128,0,132446:0:0:0:0:
329,192,132254,1,0,0:0:0:0:
256,192,132541,1,0,0:0:0:0:
329,192,132541,1,0,0:0:0:0:
475,192,132541,128,0,132732:0:0:0:0:
109,192,132541,1,0,0:0:0:0:
182,192,132637,1,0,0:0:0:0:
36,192,132828,1,0,0:0:0:0:
109,192,132828,1,0,0:0:0:0:
475,192,132828,128,0,133019:0:0:0:0:
182,192,132923,1,0,0:0:0:0:
109,192,133019,1,0,0:0:0:0:
329,192,133019,1,0,0:0:0:0:
256,192,133019,128,0,133114:0:0:0:0:
256,192,133210,128,0,133305:0:0:0:0:
475,192,133401,1,0,0:0:0:0:
402,192,133401,1,0,0:0:0:0:
256,192,133401,128,0,133497:0:0:0:0:
256,192,133592,128,0,133688:0:0:0:0:
36,192,133783,1,0,0:0:0:0:
475,192,133783,1,0,0:0:0:0:
256,192,133783,128,0,133974:0:0:0:0:
109,192,133783,1,0,0:0:0:0:
109,192,134070,128,0,134261:0:0:0:0:
402,192,134070,128,0,134261:0:0:0:0:
109,192,134356,128,0,134547:0:0:0:0:
402,192,134356,128,0,134547:0:0:0:0:
182,192,134547,1,0,0:0:0:0:
329,192,134547,1,0,0:0:0:0:
36,192,134547,128,0,137032:0:0:0:0:
475,192,134547,128,0,134930:0:0:0:0:
256,192,134547,1,0,0:0:0:0:
182,192,134930,128,0,135121:0:0:0:0:
109,192,135121,128,0,135312:0:0:0:0:
329,192,135312,128,0,135503:0:0:0:0:
182,192,135503,128,0,135694:0:0:0:0:
475,192,135694,128,0,135885:0:0:0:0:
402,192,135885,128,0,136649:0:0:0:0:
182,192,136649,128,0,136840:0:0:0:0:
256,192,136840,128,0,137032:0:0:0:0:
109,192,137032,1,0,0:0:0:0:
182,192,137032,128,0,137605:0:0:0:0:
402,192,137032,1,0,0:0:0:0:
475,192,137032,128,0,137223:0:0:0:0:
329,192,137223,128,0,137414:0:0:0:0:
36,192,137414,128,0,137987:0:0:0:0:
256,192,137605,1,0,0:0:0:0:
402,192,137605,128,0,140089:0:0:0:0:
475,192,137605,1,0,0:0:0:0:
109,192,137987,128,0,138178:0:0:0:0:
475,192,138178,128,0,138369:0:0:0:0:
182,192,138369,128,0,138560:0:0:0:0:
329,192,138560,128,0,138751:0:0:0:0:
256,192,138751,128,0,138942:0:0:0:0:
36,192,138942,128,0,139707:0:0:0:0:
475,192,139707,128,0,139898:0:0:0:0:
256,192,139898,128,0,140089:0:0:0:0:
329,192,140089,128,0,140662:0:0:0:0:
109,192,140089,1,0,0:0:0:0:
475,192,140089,1,0,0:0:0:0:
36,192,140089,128,0,140280:0:0:0:0:
256,192,140280,128,0,140471:0:0:0:0:
109,192,140471,128,0,141044:0:0:0:0:
36,192,140662,128,0,143146:0:0:0:0:
402,192,140662,1,0,0:0:0:0:
475,192,140662,1,0,0:0:0:0:
182,192,141044,128,0,141235:0:0:0:0:
329,192,141235,128,0,141426:0:0:0:0:
109,192,141426,128,0,141618:0:0:0:0:
402,192,141618,128,0,141809:0:0:0:0:
475,192,141809,128,0,142000:0:0:0:0:
329,192,142000,128,0,142764:0:0:0:0:
182,192,142764,128,0,142955:0:0:0:0:
329,192,142955,128,0,143146:0:0:0:0:
256,192,143146,128,0,143719:0:0:0:0:
475,192,143146,1,0,0:0:0:0:
402,192,143146,1,0,0:0:0:0:
109,192,143146,128,0,143337:0:0:0:0:
475,192,143337,128,0,143528:0:0:0:0:
329,192,143528,128,0,143719:0:0:0:0:
475,192,143719,128,0,146012:0:0:0:0:
182,192,143719,1,0,0:0:0:0:
36,192,143719,128,0,144102:0:0:0:0:
256,192,144102,128,0,144293:0:0:0:0:
329,192,144293,128,0,144484:0:0:0:0:
402,192,144484,128,0,144675:0:0:0:0:
182,192,144675,128,0,144866:0:0:0:0:
109,192,144866,128,0,145057:0:0:0:0:
36,192,145057,128,0,145439:0:0:0:0:
329,192,145439,128,0,145630:0:0:0:0:
182,192,145439,128,0,145630:0:0:0:0:
402,192,145630,128,0,145821:0:0:0:0:
36,192,145630,128,0,145821:0:0:0:0:
109,192,145821,128,0,146012:0:0:0:0:
182,192,145821,128,0,146012:0:0:0:0:
256,192,146012,128,0,146204:0:0:0:0:
402,192,146012,128,0,146204:0:0:0:0:
36,192,146204,128,0,146395:0:0:0:0:
109,192,146204,128,0,146395:0:0:0:0:
182,192,146395,128,0,146586:0:0:0:0:
329,192,146395,128,0,146586:0:0:0:0:
475,192,146586,128,0,146777:0:0:0:0:
256,192,146586,128,0,146777:0:0:0:0:
109,192,146777,128,0,147541:0:0:0:0:
36,192,146777,128,0,147541:0:0:0:0:
