osu file format v14

[General]
AudioFilename: audio.mp3
AudioLeadIn: 0
PreviewTime: 50088
Countdown: 0
SampleSet: None
StackLeniency: 0.7
Mode: 3
LetterboxInBreaks: 0
SpecialStyle: 0
WidescreenStoryboard: 1

[Editor]
Bookmarks: 1861,14012,26164,38316,50468,63000,74772,86924,99076
DistanceSpacing: 2.5
BeatDivisor: 4
GridSize: 8
TimelineZoom: 1.6

[Metadata]
Title:Spellbound
TitleUnicode:Spellbound
Artist:James Landino
ArtistUnicode:James Landino
Creator:[OSC]Amagai
Version:Insane
Source:osu!
Tags:FAMoss featured artist fa edm electronic instrumental mocha@3日目西-O01a
BeatmapID:3343927
BeatmapSetID:1638281

[Difficulty]
HPDrainRate:8
CircleSize:4
OverallDifficulty:7.8
ApproachRate:5
SliderMultiplier:1.4
SliderTickRate:1

[Events]
//Background and Video events
0,0,"1.jpg",0,0
//Break Periods
//Storyboard Layer 0 (Background)
//Storyboard Layer 1 (Fail)
//Storyboard Layer 2 (Pass)
//Storyboard Layer 3 (Foreground)
//Storyboard Layer 4 (Overlay)
//Storyboard Sound Samples
Sample,50468,0,"LR3_BassDrop.wav",70
Sample,53506,0,"LR3_BassDrop.wav",70
Sample,56544,0,"LR3_BassDrop.wav",70
Sample,59582,0,"LR3_BassDrop.wav",70
Sample,68696,0,"LR3_BassDrop.wav",70
Sample,71734,0,"LR3_BassDrop.wav",70
Sample,75816,0,"LR3_BassDrop.wav",70
Sample,77335,0,"LR3_BassDrop.wav",70
Sample,78095,0,"LR3_BassDrop.wav",70
Sample,78854,0,"LR3_BassDrop.wav",70
Sample,79614,0,"LR3_BassDrop.wav",70
Sample,80373,0,"LR3_BassDrop.wav",70
Sample,80848,0,"LR4_ClapLRV.wav",70
Sample,81607,0,"LR4_ClapLRV.wav",70
Sample,81892,0,"LR3_BassDrop.wav",70
Sample,82367,0,"LR4_ClapLRV.wav",70
Sample,82652,0,"LR3_BassDrop.wav",70
Sample,83126,0,"LR4_ClapLRV.wav",70
Sample,83411,0,"LR3_BassDrop.wav",70
Sample,83886,0,"LR4_ClapLRV.wav",70

[TimingPoints]
1861,379.746835443038,4,3,1,22,1,0
50848,-100,4,3,1,22,0,1
53506,-100,4,3,1,22,0,0
53886,-100,4,3,1,22,0,1
56544,-100,4,3,1,22,0,0
56924,-100,4,3,1,22,0,1
59582,-100,4,3,1,22,0,0
59962,-100,4,3,1,22,0,1
62620,-100,4,3,1,22,0,0
63000,-100,4,3,1,22,0,1
65658,-100,4,3,1,22,0,0
66038,-100,4,3,1,22,0,1
68696,-100,4,3,1,22,0,0
69076,-100,4,3,1,22,0,1
71734,-100,4,3,1,22,0,0
72114,-100,4,3,1,22,0,1
74772,-100,4,3,1,22,0,0
86924,-100,4,3,1,22,0,1
111228,-100,4,3,1,22,0,0

[HitObjects]
64,192,1861,128,0,1955:0:0:0:0:
320,192,1861,1,0,0:0:0:0:
448,192,1861,1,0,0:0:0:0:
192,192,2050,128,0,2145:0:0:0:0:
320,192,2240,128,0,2335:0:0:0:0:
448,192,2430,128,0,2620:0:0:0:0:
448,192,2810,128,0,2905:0:0:0:0:
320,192,3000,128,0,3095:0:0:0:0:
192,192,3190,128,0,3285:0:0:0:0:
64,192,3379,128,0,3474:0:0:0:0:
192,192,3569,128,0,3664:0:0:0:0:
320,192,3759,128,0,3854:0:0:0:0:
448,192,3949,128,0,4139:0:0:0:0:
448,192,4329,128,0,4424:0:0:0:0:
320,192,4519,128,0,4614:0:0:0:0:
192,192,4709,128,0,4804:0:0:0:0:
320,192,4898,128,0,4993:0:0:0:0:
192,192,5088,128,0,5183:0:0:0:0:
320,192,5278,128,0,5373:0:0:0:0:
448,192,5468,128,0,5658:0:0:0:0:
448,192,5848,128,0,5943:0:0:0:0:
320,192,6038,128,0,6133:0:0:0:0:
192,192,6228,128,0,6323:0:0:0:0:
448,192,6417,128,0,6512:0:0:0:0:
192,192,6607,128,0,6702:0:0:0:0:
320,192,6797,128,0,6892:0:0:0:0:
448,192,6987,128,0,7177:0:0:0:0:
448,192,7367,128,0,7462:0:0:0:0:
320,192,7557,128,0,7652:0:0:0:0:
192,192,7747,128,0,7842:0:0:0:0:
64,192,7936,128,0,8031:0:0:0:0:
192,192,8126,128,0,8221:0:0:0:0:
320,192,8316,128,0,8411:0:0:0:0:
448,192,8506,128,0,8696:0:0:0:0:
448,192,8886,128,0,8981:0:0:0:0:
320,192,9076,128,0,9171:0:0:0:0:
192,192,9266,128,0,9361:0:0:0:0:
192,192,9455,128,0,9550:0:0:0:0:
192,192,9645,128,0,9740:0:0:0:0:
320,192,9835,128,0,9930:0:0:0:0:
448,192,10025,128,0,10215:0:0:0:0:
448,192,10405,128,0,10500:0:0:0:0:
320,192,10595,128,0,10690:0:0:0:0:
192,192,10785,128,0,10879:0:0:0:0:
320,192,10974,128,0,11069:0:0:0:0:
192,192,11164,128,0,11259:0:0:0:0:
320,192,11354,128,0,11449:0:0:0:0:
448,192,11544,128,0,11734:0:0:0:0:
448,192,11924,128,0,12019:0:0:0:0:
320,192,12114,128,0,12209:0:0:0:0:
192,192,12304,128,0,12398:0:0:0:0:
448,192,12493,128,0,12588:0:0:0:0:
192,192,12683,128,0,12778:0:0:0:0:
320,192,12873,128,0,12968:0:0:0:0:
448,192,13063,128,0,13253:0:0:0:0:
448,192,13443,128,0,13538:0:0:0:0:
320,192,13633,128,0,13728:0:0:0:0:
192,192,13823,128,0,13917:0:0:0:0:
64,192,14012,1,0,0:0:0:0:
448,192,14012,128,0,14297:0:0:0:0:
320,192,14297,128,0,14582:0:0:0:0:
192,192,14582,128,0,14772:0:0:0:0:
64,192,14772,128,0,15057:0:0:0:0:
320,192,15057,128,0,15342:0:0:0:0:
192,192,15342,128,0,15531:0:0:0:0:
448,192,15531,128,0,15816:0:0:0:0:
320,192,15816,128,0,16101:0:0:0:0:
192,192,16101,128,0,16291:0:0:0:0:
448,192,16101,1,0,0:0:0:0:
64,192,16291,128,0,16576:0:0:0:0:
320,192,16576,128,0,17050:0:0:0:0:
192,192,16671,1,0,0:0:0:0:
192,192,16861,1,0,0:0:0:0:
448,192,16861,1,0,0:0:0:0:
64,192,17050,128,0,17335:0:0:0:0:
192,192,17335,128,0,17620:0:0:0:0:
320,192,17620,128,0,17810:0:0:0:0:
448,192,17810,128,0,18095:0:0:0:0:
192,192,18095,128,0,18569:0:0:0:0:
64,192,18569,128,0,18854:0:0:0:0:
448,192,18569,1,0,0:0:0:0:
192,192,18854,128,0,19139:0:0:0:0:
64,192,19139,1,0,0:0:0:0:
320,192,19139,128,0,19329:0:0:0:0:
448,192,19329,128,0,19614:0:0:0:0:
192,192,19614,128,0,19898:0:0:0:0:
64,192,19709,128,0,20088:0:0:0:0:
320,192,19898,128,0,20088:0:0:0:0:
448,192,20088,128,0,20373:0:0:0:0:
320,192,20373,128,0,20658:0:0:0:0:
192,192,20658,128,0,20848:0:0:0:0:
64,192,20848,128,0,21133:0:0:0:0:
320,192,21133,128,0,21417:0:0:0:0:
192,192,21417,128,0,21607:0:0:0:0:
448,192,21607,128,0,21892:0:0:0:0:
320,192,21892,128,0,22177:0:0:0:0:
192,192,22177,128,0,22367:0:0:0:0:
448,192,22177,1,0,0:0:0:0:
64,192,22367,128,0,22652:0:0:0:0:
320,192,22652,128,0,23126:0:0:0:0:
192,192,22747,1,0,0:0:0:0:
192,192,22936,1,0,0:0:0:0:
448,192,22936,1,0,0:0:0:0:
64,192,23126,128,0,23411:0:0:0:0:
192,192,23411,128,0,23696:0:0:0:0:
64,192,23696,1,0,0:0:0:0:
320,192,23696,128,0,23886:0:0:0:0:
448,192,23886,128,0,24171:0:0:0:0:
192,192,24171,128,0,24645:0:0:0:0:
320,192,24455,1,0,0:0:0:0:
64,192,24645,128,0,24930:0:0:0:0:
192,192,24930,128,0,25215:0:0:0:0:
64,192,25215,1,0,0:0:0:0:
320,192,25215,128,0,25405:0:0:0:0:
448,192,25405,128,0,25690:0:0:0:0:
192,192,25690,128,0,25974:0:0:0:0:
64,192,25785,128,0,26164:0:0:0:0:
320,192,25974,128,0,26164:0:0:0:0:
192,192,26164,1,0,0:0:0:70:LR4_ClapLRV.wav
448,192,26164,128,0,26449:0:0:0:0:
192,192,26449,128,0,26734:0:0:0:0:
64,192,26544,1,0,0:0:0:70:LR4_ClapLRV.wav
320,192,26544,1,0,0:0:0:0:
448,192,26734,128,0,26924:0:0:0:0:
64,192,26924,128,0,27209:0:0:0:70:LR4_ClapLRV.wav
192,192,26924,1,0,0:0:0:0:
192,192,27209,128,0,27493:0:0:0:0:
320,192,27304,1,0,0:0:0:70:LR4_ClapLRV.wav
448,192,27304,1,0,0:0:0:0:
192,192,27683,1,0,0:0:0:70:LR4_ClapLRV.wav
448,192,27683,128,0,27968:0:0:0:0:
192,192,27968,128,0,28253:0:0:0:0:
64,192,28063,1,0,0:0:0:70:LR4_ClapLRV.wav
320,192,28063,1,0,0:0:0:0:
320,192,28253,1,0,0:0:0:0:
448,192,28253,128,0,28443:0:0:0:0:
64,192,28443,128,0,28728:0:0:0:70:LR4_ClapLRV.wav
192,192,28443,1,0,0:0:0:0:
192,192,28728,128,0,29012:0:0:0:0:
320,192,28823,1,0,0:0:0:70:LR4_ClapLRV.wav
448,192,28823,1,0,0:0:0:0:
64,192,29012,1,0,0:0:0:0:
64,192,29202,128,0,29487:0:0:0:70:LR4_ClapLRV.wav
320,192,29202,1,0,0:0:0:0:
320,192,29487,128,0,29772:0:0:0:0:
192,192,29582,1,0,0:0:0:70:LR4_ClapLRV.wav
448,192,29582,1,0,0:0:0:0:
64,192,29772,128,0,29962:0:0:0:0:
320,192,29962,1,0,0:0:0:70:LR4_ClapLRV.wav
448,192,29962,128,0,30247:0:0:0:0:
320,192,30247,128,0,30531:0:0:0:0:
64,192,30342,1,0,0:0:0:70:LR4_ClapLRV.wav
192,192,30342,1,0,0:0:0:0:
64,192,30721,128,0,31006:0:0:0:70:LR4_ClapLRV.wav
320,192,30721,1,0,0:0:0:0:
320,192,31006,128,0,31291:0:0:0:0:
192,192,31101,1,0,0:0:0:70:LR4_ClapLRV.wav
448,192,31101,1,0,0:0:0:0:
64,192,31291,128,0,31481:0:0:0:0:
192,192,31291,1,0,0:0:0:0:
320,192,31481,1,0,0:0:0:70:LR4_ClapLRV.wav
448,192,31481,128,0,31766:0:0:0:0:
320,192,31766,128,0,32050:0:0:0:0:
64,192,31861,1,0,0:0:0:70:LR4_ClapLRV.wav
192,192,31861,1,0,0:0:0:0:
192,192,32240,1,0,0:0:0:70:LR4_ClapLRV.wav
448,192,32240,128,0,32525:0:0:0:0:
192,192,32525,128,0,32810:0:0:0:0:
64,192,32620,1,0,0:0:0:70:LR4_ClapLRV.wav
320,192,32620,1,0,0:0:0:0:
448,192,32810,128,0,33000:0:0:0:0:
64,192,33000,128,0,33285:0:0:0:70:LR4_ClapLRV.wav
192,192,33000,1,0,0:0:0:0:
192,192,33285,128,0,33569:0:0:0:0:
320,192,33379,1,0,0:0:0:70:LR4_ClapLRV.wav
448,192,33379,1,0,0:0:0:0:
192,192,33759,1,0,0:0:0:70:LR4_ClapLRV.wav
448,192,33759,128,0,34044:0:0:0:0:
192,192,34044,128,0,34329:0:0:0:0:
64,192,34139,1,0,0:0:0:70:LR4_ClapLRV.wav
320,192,34139,1,0,0:0:0:0:
320,192,34329,1,0,0:0:0:0:
448,192,34329,128,0,34519:0:0:0:0:
64,192,34519,128,0,34804:0:0:0:70:LR4_ClapLRV.wav
192,192,34519,1,0,0:0:0:0:
192,192,34804,128,0,35088:0:0:0:0:
320,192,34898,1,0,0:0:0:70:LR4_ClapLRV.wav
448,192,34898,1,0,0:0:0:0:
64,192,35088,1,0,0:0:0:0:
64,192,35278,128,0,35563:0:0:0:70:LR4_ClapLRV.wav
320,192,35278,1,0,0:0:0:0:
320,192,35563,128,0,35848:0:0:0:0:
192,192,35658,1,0,0:0:0:70:LR4_ClapLRV.wav
448,192,35658,1,0,0:0:0:0:
64,192,35848,128,0,36038:0:0:0:0:
320,192,36038,1,0,0:0:0:70:LR4_ClapLRV.wav
448,192,36038,128,0,36323:0:0:0:0:
320,192,36323,128,0,36607:0:0:0:0:
64,192,36417,1,0,0:0:0:70:LR4_ClapLRV.wav
192,192,36417,1,0,0:0:0:0:
64,192,36797,128,0,37082:0:0:0:70:LR4_ClapLRV.wav
320,192,36797,1,0,0:0:0:0:
320,192,37082,128,0,37367:0:0:0:0:
192,192,37177,1,0,0:0:0:70:LR4_ClapLRV.wav
448,192,37177,1,0,0:0:0:0:
64,192,37367,128,0,37557:0:0:0:0:
192,192,37367,1,0,0:0:0:0:
320,192,37557,1,0,0:0:0:70:LR4_ClapLRV.wav
448,192,37557,128,0,37842:0:0:0:0:
320,192,37842,128,0,38126:0:0:0:0:
64,192,37936,1,0,0:0:0:70:LR4_ClapLRV.wav
192,192,37936,1,0,0:0:0:0:
64,192,38316,1,0,0:0:0:70:W.wav
192,192,38316,1,0,0:0:0:0:
448,192,38316,1,0,0:0:0:0:
320,192,38601,1,0,0:0:0:0:
64,192,38696,1,0,0:0:0:70:LR_Clap Kick Fast Low Beat.wav
192,192,38696,1,0,0:0:0:0:
448,192,38886,1,0,0:0:0:0:
192,192,39076,1,0,0:0:0:70:W.wav
320,192,39076,1,0,0:0:0:0:
320,192,39361,1,0,0:0:0:0:
64,192,39455,1,0,0:0:0:70:LR_Clap Kick Fast Low Beat.wav
192,192,39455,1,0,0:0:0:0:
448,192,39645,1,0,0:0:0:0:
192,192,39835,1,0,0:0:0:70:W.wav
320,192,39835,1,0,0:0:0:0:
320,192,40120,1,0,0:0:0:0:
64,192,40215,1,0,0:0:0:70:LR_Clap Kick Fast Low Beat.wav
192,192,40215,1,0,0:0:0:0:
448,192,40405,1,0,0:0:0:0:
192,192,40595,1,0,0:0:0:70:W.wav
320,192,40595,1,0,0:0:0:0:
320,192,40879,1,0,0:0:0:0:
64,192,40974,1,0,0:0:0:70:LR_Clap Kick Fast Low Beat.wav
448,192,40974,1,0,0:0:0:0:
192,192,41164,1,0,0:0:0:0:
192,192,41354,1,0,0:0:0:70:W.wav
320,192,41354,1,0,0:0:0:0:
320,192,41639,1,0,0:0:0:0:
64,192,41734,1,0,0:0:0:70:LR_Clap Kick Fast Low Beat.wav
192,192,41734,1,0,0:0:0:0:
448,192,41924,1,0,0:0:0:0:
192,192,42114,1,0,0:0:0:70:W.wav
320,192,42114,1,0,0:0:0:0:
320,192,42398,1,0,0:0:0:0:
64,192,42493,1,0,0:0:0:70:LR_Clap Kick Fast Low Beat.wav
192,192,42493,1,0,0:0:0:0:
448,192,42683,1,0,0:0:0:0:
192,192,42873,1,0,0:0:0:70:W.wav
320,192,42873,1,0,0:0:0:0:
320,192,43158,1,0,0:0:0:0:
64,192,43253,1,0,0:0:0:70:LR_Clap Kick Fast Low Beat.wav
192,192,43253,1,0,0:0:0:0:
448,192,43443,1,0,0:0:0:0:
192,192,43633,1,0,0:0:0:70:W.wav
320,192,43633,1,0,0:0:0:0:
320,192,43917,1,0,0:0:0:0:
192,192,44012,128,0,44392:0:0:0:70:LR_Clap Kick Fast Low Beat.wav
448,192,44012,1,0,0:0:0:0:
64,192,44392,1,0,0:0:0:70:W.wav
64,192,44582,1,0,0:0:0:70:W.wav
448,192,44772,1,0,0:0:0:70:W.wav
448,192,44962,1,0,0:0:0:70:W.wav
64,192,45152,1,0,0:0:0:70:W.wav
64,192,45342,1,0,0:0:0:70:W.wav
448,192,45531,1,0,0:0:0:70:W.wav
448,192,45721,1,0,0:0:0:70:W.wav
192,192,45911,1,0,0:0:0:70:W.wav
192,192,46101,1,0,0:0:0:70:W.wav
320,192,46291,1,0,0:0:0:70:W.wav
320,192,46481,1,0,0:0:0:70:W.wav
192,192,46671,1,0,0:0:0:70:W.wav
192,192,46861,1,0,0:0:0:70:W.wav
320,192,47050,1,0,0:0:0:70:W.wav
320,192,47240,1,0,0:0:0:70:W.wav
192,192,47430,1,0,0:0:0:70:W.wav
64,192,47525,1,0,0:0:0:70:W.wav
448,192,47620,1,0,0:0:0:70:W.wav
320,192,47715,1,0,0:0:0:70:W.wav
192,192,47810,1,0,0:0:0:70:W.wav
448,192,47905,1,0,0:0:0:70:W.wav
320,192,48000,1,0,0:0:0:70:W.wav
64,192,48095,1,0,0:0:0:70:W.wav
192,192,48190,1,0,0:0:0:70:W.wav
320,192,48285,1,0,0:0:0:70:W.wav
64,192,48379,1,0,0:0:0:70:W.wav
192,192,48474,1,0,0:0:0:70:W.wav
320,192,48569,1,0,0:0:0:70:W.wav
448,192,48664,1,0,0:0:0:70:W.wav
192,192,48759,1,0,0:0:0:70:W.wav
320,192,48854,1,0,0:0:0:70:W.wav
64,192,48949,1,0,0:0:0:0:
192,192,48949,1,0,0:0:0:0:
64,192,49329,1,0,0:0:0:0:
192,192,49329,1,0,0:0:0:0:
64,192,49709,1,0,0:0:0:0:
192,192,49709,1,0,0:0:0:0:
320,192,50088,128,0,50468:0:0:0:70:LR3_BassDrop.wav
448,192,50088,128,0,50468:0:0:0:0:
64,192,50468,128,0,50563:0:0:0:70:W.wav
192,192,50563,128,0,50658:0:0:0:0:
320,192,50658,128,0,50753:0:0:0:0:
448,192,50753,128,0,50848:0:0:0:70:LR3_BassDrop.wav
64,192,50848,1,0,0:0:0:70:LR_Clap Kick Fast Low Beat.wav
192,192,50848,1,0,0:0:0:0:
320,192,50943,1,0,0:0:0:0:
448,192,51038,1,0,0:0:0:70:LR3_BassDrop.wav
448,192,51133,1,0,0:0:0:0:
64,192,51228,1,0,0:0:0:70:W.wav
192,192,51228,1,0,0:0:0:70:LR3_BassDrop.wav
320,192,51323,1,0,0:0:0:0:
448,192,51417,1,0,0:0:0:0:
448,192,51512,1,0,0:0:0:70:LR3_BassDrop.wav
64,192,51607,1,0,0:0:0:70:LR_Clap Kick Fast Low Beat.wav
192,192,51607,1,0,0:0:0:0:
320,192,51702,1,0,0:0:0:0:
448,192,51797,1,0,0:0:0:0:
448,192,51892,1,0,0:0:0:0:
64,192,51987,1,0,0:0:0:70:W.wav
192,192,51987,1,0,0:0:0:70:LR3_BassDrop.wav
320,192,52082,1,0,0:0:0:0:
448,192,52177,1,0,0:0:0:0:
448,192,52272,1,0,0:0:0:70:LR3_BassDrop.wav
64,192,52367,1,0,0:0:0:70:LR_Clap Kick Fast Low Beat.wav
192,192,52367,1,0,0:0:0:0:
320,192,52462,1,0,0:0:0:0:
448,192,52557,1,0,0:0:0:70:LR3_BassDrop.wav
448,192,52652,1,0,0:0:0:0:
64,192,52747,1,0,0:0:0:70:W.wav
192,192,52747,1,0,0:0:0:70:LR3_BassDrop.wav
320,192,52842,1,0,0:0:0:0:
448,192,52936,1,0,0:0:0:0:
448,192,53031,1,0,0:0:0:70:LR3_BassDrop.wav
64,192,53126,1,0,0:0:0:70:LR_Clap Kick Fast Low Beat.wav
192,192,53126,1,0,0:0:0:0:
320,192,53221,1,0,0:0:0:0:
448,192,53316,1,0,0:0:0:70:LR3_BassDrop.wav
448,192,53411,1,0,0:0:0:0:
192,192,53506,128,0,53601:0:0:0:70:W.wav
320,192,53601,128,0,53696:0:0:0:0:
448,192,53696,128,0,53791:0:0:0:0:
64,192,53791,128,0,53886:0:0:0:0:
320,192,53886,1,0,0:0:0:70:LR_Clap Kick Fast Low Beat.wav
448,192,53886,1,0,0:0:0:0:
192,192,53981,1,0,0:0:0:0:
64,192,54076,1,0,0:0:0:70:LR3_BassDrop.wav
64,192,54171,1,0,0:0:0:0:
320,192,54266,1,0,0:0:0:70:W.wav
448,192,54266,1,0,0:0:0:70:LR3_BassDrop.wav
192,192,54361,1,0,0:0:0:0:
64,192,54455,1,0,0:0:0:0:
64,192,54550,1,0,0:0:0:70:LR3_BassDrop.wav
320,192,54645,1,0,0:0:0:70:LR_Clap Kick Fast Low Beat.wav
448,192,54645,1,0,0:0:0:0:
192,192,54740,1,0,0:0:0:0:
64,192,54835,1,0,0:0:0:0:
64,192,54930,1,0,0:0:0:0:
320,192,55025,1,0,0:0:0:70:W.wav
448,192,55025,1,0,0:0:0:70:LR3_BassDrop.wav
192,192,55120,1,0,0:0:0:0:
64,192,55215,1,0,0:0:0:0:
64,192,55310,1,0,0:0:0:70:LR3_BassDrop.wav
320,192,55405,1,0,0:0:0:70:LR_Clap Kick Fast Low Beat.wav
448,192,55405,1,0,0:0:0:0:
192,192,55500,1,0,0:0:0:0:
64,192,55595,1,0,0:0:0:70:LR3_BassDrop.wav
64,192,55690,1,0,0:0:0:0:
320,192,55785,1,0,0:0:0:70:W.wav
448,192,55785,1,0,0:0:0:70:LR3_BassDrop.wav
192,192,55879,1,0,0:0:0:0:
64,192,55974,1,0,0:0:0:0:
64,192,56069,1,0,0:0:0:70:LR3_BassDrop.wav
320,192,56164,1,0,0:0:0:70:LR_Clap Kick Fast Low Beat.wav
448,192,56164,1,0,0:0:0:0:
192,192,56259,1,0,0:0:0:0:
64,192,56354,1,0,0:0:0:70:LR3_BassDrop.wav
64,192,56449,1,0,0:0:0:0:
320,192,56544,128,0,56639:0:0:0:70:W.wav
448,192,56639,128,0,56734:0:0:0:0:
64,192,56734,128,0,56829:0:0:0:0:
192,192,56829,128,0,56924:0:0:0:0:
64,192,56924,1,0,0:0:0:70:LR_Clap Kick Fast Low Beat.wav
448,192,56924,1,0,0:0:0:0:
320,192,57019,1,0,0:0:0:0:
192,192,57114,1,0,0:0:0:70:LR3_BassDrop.wav
192,192,57209,1,0,0:0:0:0:
64,192,57304,1,0,0:0:0:70:W.wav
448,192,57304,1,0,0:0:0:70:LR3_BassDrop.wav
320,192,57398,1,0,0:0:0:0:
192,192,57493,1,0,0:0:0:0:
192,192,57588,1,0,0:0:0:70:LR3_BassDrop.wav
64,192,57683,1,0,0:0:0:70:LR_Clap Kick Fast Low Beat.wav
448,192,57683,1,0,0:0:0:0:
320,192,57778,1,0,0:0:0:0:
192,192,57873,1,0,0:0:0:0:
192,192,57968,1,0,0:0:0:0:
64,192,58063,1,0,0:0:0:70:W.wav
448,192,58063,1,0,0:0:0:70:LR3_BassDrop.wav
320,192,58158,1,0,0:0:0:0:
192,192,58253,1,0,0:0:0:0:
192,192,58348,1,0,0:0:0:70:LR3_BassDrop.wav
64,192,58443,1,0,0:0:0:70:LR_Clap Kick Fast Low Beat.wav
448,192,58443,1,0,0:0:0:0:
320,192,58538,1,0,0:0:0:0:
192,192,58633,1,0,0:0:0:70:LR3_BassDrop.wav
192,192,58728,1,0,0:0:0:0:
64,192,58823,1,0,0:0:0:70:W.wav
448,192,58823,1,0,0:0:0:70:LR3_BassDrop.wav
320,192,58917,1,0,0:0:0:0:
192,192,59012,1,0,0:0:0:0:
192,192,59107,1,0,0:0:0:70:LR3_BassDrop.wav
64,192,59202,1,0,0:0:0:70:LR_Clap Kick Fast Low Beat.wav
448,192,59202,1,0,0:0:0:0:
320,192,59297,1,0,0:0:0:0:
192,192,59392,1,0,0:0:0:70:LR3_BassDrop.wav
192,192,59487,1,0,0:0:0:0:
64,192,59582,128,0,59677:0:0:0:70:W.wav
448,192,59677,128,0,59772:0:0:0:0:
192,192,59772,128,0,59867:0:0:0:0:
320,192,59867,128,0,59962:0:0:0:0:
64,192,59962,1,0,0:0:0:70:W.wav
448,192,59962,1,0,0:0:0:70:LR3_BassDrop.wav
192,192,60057,1,0,0:0:0:0:
320,192,60152,1,0,0:0:0:0:
320,192,60247,1,0,0:0:0:0:
64,192,60342,1,0,0:0:0:70:W.wav
448,192,60342,1,0,0:0:0:70:LR3_BassDrop.wav
192,192,60436,1,0,0:0:0:0:
320,192,60531,1,0,0:0:0:0:
320,192,60626,1,0,0:0:0:0:
64,192,60721,1,0,0:0:0:70:W.wav
448,192,60721,1,0,0:0:0:70:LR3_BassDrop.wav
192,192,60816,1,0,0:0:0:0:
320,192,60911,1,0,0:0:0:0:
320,192,61006,1,0,0:0:0:0:
64,192,61101,1,0,0:0:0:70:W.wav
448,192,61101,1,0,0:0:0:70:LR3_BassDrop.wav
192,192,61196,1,0,0:0:0:0:
320,192,61291,1,0,0:0:0:0:
320,192,61386,1,0,0:0:0:0:
64,192,61481,1,0,0:0:0:70:W.wav
448,192,61481,1,0,0:0:0:70:LR3_BassDrop.wav
192,192,61576,1,0,0:0:0:0:
320,192,61671,1,0,0:0:0:0:
320,192,61766,1,0,0:0:0:0:
64,192,61861,1,0,0:0:0:70:W.wav
448,192,61861,1,0,0:0:0:70:LR3_BassDrop.wav
192,192,61955,1,0,0:0:0:0:
320,192,62050,1,0,0:0:0:0:
320,192,62145,1,0,0:0:0:0:
64,192,62240,1,0,0:0:0:70:W.wav
448,192,62240,1,0,0:0:0:70:LR3_BassDrop.wav
192,192,62335,1,0,0:0:0:0:
320,192,62430,1,0,0:0:0:0:
320,192,62525,1,0,0:0:0:0:
192,192,62620,128,0,62715:0:0:0:70:W.wav
64,192,62715,128,0,62810:0:0:0:0:
320,192,62810,128,0,62905:0:0:0:0:
448,192,62905,128,0,63000:0:0:0:0:
64,192,63000,1,0,0:0:0:0:
192,192,63095,1,0,0:0:0:0:
320,192,63190,1,0,0:0:0:0:
320,192,63285,1,0,0:0:0:0:
64,192,63379,1,0,0:0:0:70:C.wav
192,192,63379,1,0,0:0:0:0:
448,192,63379,1,0,0:0:0:0:
320,192,63474,1,0,0:0:0:0:
64,192,63569,1,0,0:0:0:0:
64,192,63664,1,0,0:0:0:0:
320,192,63759,1,0,0:0:0:70:W.wav
448,192,63759,128,0,65658:0:0:0:70:LR3_BassDrop.wav
192,192,63854,1,0,0:0:0:0:
64,192,63949,1,0,0:0:0:0:
64,192,64044,1,0,0:0:0:0:
192,192,64139,1,0,0:0:0:0:
320,192,64234,1,0,0:0:0:0:
64,192,64329,1,0,0:0:0:0:
64,192,64424,1,0,0:0:0:0:
320,192,64519,1,0,0:0:0:0:
192,192,64614,1,0,0:0:0:0:
64,192,64709,1,0,0:0:0:0:
64,192,64804,1,0,0:0:0:0:
192,192,64898,1,0,0:0:0:70:C.wav
320,192,64993,1,0,0:0:0:0:
64,192,65088,1,0,0:0:0:0:
64,192,65183,1,0,0:0:0:0:
320,192,65278,1,0,0:0:0:0:
192,192,65373,1,0,0:0:0:0:
64,192,65468,1,0,0:0:0:0:
64,192,65563,1,0,0:0:0:0:
320,192,65658,128,0,65753:0:0:0:70:W.wav
448,192,65753,128,0,65848:0:0:0:0:
192,192,65848,128,0,65943:0:0:0:0:
64,192,65943,128,0,66038:0:0:0:0:
448,192,66038,1,0,0:0:0:0:
320,192,66133,1,0,0:0:0:0:
192,192,66228,1,0,0:0:0:0:
192,192,66323,1,0,0:0:0:0:
64,192,66417,1,0,0:0:0:70:C.wav
320,192,66417,1,0,0:0:0:0:
448,192,66417,1,0,0:0:0:0:
192,192,66512,1,0,0:0:0:0:
448,192,66607,1,0,0:0:0:0:
448,192,66702,1,0,0:0:0:0:
64,192,66797,128,0,68696:0:0:0:70:W.wav
192,192,66797,1,0,0:0:0:70:LR3_BassDrop.wav
320,192,66892,1,0,0:0:0:0:
448,192,66987,1,0,0:0:0:0:
448,192,67082,1,0,0:0:0:0:
320,192,67177,1,0,0:0:0:0:
192,192,67272,1,0,0:0:0:0:
448,192,67367,1,0,0:0:0:0:
448,192,67462,1,0,0:0:0:0:
192,192,67557,1,0,0:0:0:0:
320,192,67652,1,0,0:0:0:0:
448,192,67747,1,0,0:0:0:0:
448,192,67842,1,0,0:0:0:0:
320,192,67936,1,0,0:0:0:70:C.wav
192,192,68031,1,0,0:0:0:0:
448,192,68126,1,0,0:0:0:0:
448,192,68221,1,0,0:0:0:0:
192,192,68316,1,0,0:0:0:0:
320,192,68411,1,0,0:0:0:0:
448,192,68506,1,0,0:0:0:0:
448,192,68601,1,0,0:0:0:0:
192,192,68696,128,0,68791:0:0:0:70:W.wav
320,192,68791,128,0,68886:0:0:0:0:
448,192,68886,128,0,68981:0:0:0:0:
64,192,68981,128,0,69076:0:0:0:70:LR3_BassDrop.wav
192,192,69076,1,0,0:0:0:70:W.wav
320,192,69076,1,0,0:0:0:0:
448,192,69171,1,0,0:0:0:0:
64,192,69266,1,0,0:0:0:70:LR3_BassDrop.wav
64,192,69361,1,0,0:0:0:0:
192,192,69455,1,0,0:0:0:70:LR3_BassDrop.wav
320,192,69455,1,0,0:0:0:70:C.wav
448,192,69455,1,0,0:0:0:0:
64,192,69550,1,0,0:0:0:0:
448,192,69645,1,0,0:0:0:0:
448,192,69740,1,0,0:0:0:70:LR3_BassDrop.wav
192,192,69835,1,0,0:0:0:70:W.wav
320,192,69835,1,0,0:0:0:0:
448,192,69930,1,0,0:0:0:0:
64,192,70025,1,0,0:0:0:0:
64,192,70120,1,0,0:0:0:0:
192,192,70215,1,0,0:0:0:70:W.wav
320,192,70215,1,0,0:0:0:70:LR3_BassDrop.wav
64,192,70310,1,0,0:0:0:0:
448,192,70405,1,0,0:0:0:0:
448,192,70500,1,0,0:0:0:70:LR3_BassDrop.wav
192,192,70595,1,0,0:0:0:70:W.wav
320,192,70595,1,0,0:0:0:0:
448,192,70690,1,0,0:0:0:0:
64,192,70785,1,0,0:0:0:70:LR3_BassDrop.wav
64,192,70879,1,0,0:0:0:0:
192,192,70974,1,0,0:0:0:70:LR3_BassDrop.wav
320,192,70974,1,0,0:0:0:70:C.wav
448,192,70974,1,0,0:0:0:0:
64,192,71069,1,0,0:0:0:0:
448,192,71164,1,0,0:0:0:0:
448,192,71259,1,0,0:0:0:70:LR3_BassDrop.wav
192,192,71354,1,0,0:0:0:70:W.wav
320,192,71354,1,0,0:0:0:0:
448,192,71449,1,0,0:0:0:0:
64,192,71544,1,0,0:0:0:70:LR3_BassDrop.wav
64,192,71639,1,0,0:0:0:0:
320,192,71734,128,0,71829:0:0:0:70:W.wav
192,192,71829,128,0,71924:0:0:0:0:
64,192,71924,128,0,72019:0:0:0:0:
448,192,72019,128,0,72114:0:0:0:0:
192,192,72114,1,0,0:0:0:70:W.wav
320,192,72114,1,0,0:0:0:0:
64,192,72209,1,0,0:0:0:0:
448,192,72304,1,0,0:0:0:70:LR3_BassDrop.wav
448,192,72398,1,0,0:0:0:0:
64,192,72493,1,0,0:0:0:70:LR3_BassDrop.wav
192,192,72493,1,0,0:0:0:70:C.wav
320,192,72493,1,0,0:0:0:0:
448,192,72588,1,0,0:0:0:0:
64,192,72683,1,0,0:0:0:0:
64,192,72778,1,0,0:0:0:70:LR3_BassDrop.wav
192,192,72873,1,0,0:0:0:70:W.wav
320,192,72873,1,0,0:0:0:0:
64,192,72968,1,0,0:0:0:0:
448,192,73063,1,0,0:0:0:0:
448,192,73158,1,0,0:0:0:0:
192,192,73253,1,0,0:0:0:70:W.wav
320,192,73253,1,0,0:0:0:70:LR3_BassDrop.wav
448,192,73348,1,0,0:0:0:0:
64,192,73443,1,0,0:0:0:0:
64,192,73538,1,0,0:0:0:70:LR3_BassDrop.wav
192,192,73633,1,0,0:0:0:0:
320,192,73633,1,0,0:0:0:0:
64,192,73728,1,0,0:0:0:0:
448,192,73823,1,0,0:0:0:70:LR3_BassDrop.wav
448,192,73917,1,0,0:0:0:0:
192,192,74012,1,0,0:0:0:70:LR3_BassDrop.wav
320,192,74012,1,0,0:0:0:70:LR4_ClapLRV.wav
448,192,74107,1,0,0:0:0:0:
64,192,74202,1,0,0:0:0:0:
64,192,74297,1,0,0:0:0:70:LR3_BassDrop.wav
192,192,74392,1,0,0:0:0:0:
320,192,74392,1,0,0:0:0:0:
64,192,74487,1,0,0:0:0:0:
448,192,74582,1,0,0:0:0:70:LR3_BassDrop.wav
448,192,74677,1,0,0:0:0:0:
64,192,74772,1,0,0:0:0:70:LR3_BassDrop.wav
192,192,74772,1,0,0:0:0:0:
320,192,74962,1,0,0:0:0:0:
448,192,75057,1,0,0:0:0:70:LR3_BassDrop.wav
64,192,75152,1,0,0:0:0:70:LR4_ClapLRV.wav
192,192,75152,1,0,0:0:0:0:
320,192,75342,1,0,0:0:0:70:LR3_BassDrop.wav
64,192,75531,1,0,0:0:0:70:LR3_BassDrop.wav
192,192,75531,1,0,0:0:0:70:LR4_ClapLRV.wav
320,192,75721,1,0,0:0:0:0:
448,192,75816,1,0,0:0:0:70:W.wav
64,192,75911,1,0,0:0:0:70:LR4_ClapLRV.wav
192,192,75911,1,0,0:0:0:0:
320,192,76101,1,0,0:0:0:70:LR3_BassDrop.wav
64,192,76291,1,0,0:0:0:70:LR3_BassDrop.wav
192,192,76291,1,0,0:0:0:70:LR4_ClapLRV.wav
320,192,76481,1,0,0:0:0:0:
448,192,76576,1,0,0:0:0:70:W.wav
64,192,76671,1,0,0:0:0:70:LR4_ClapLRV.wav
192,192,76671,1,0,0:0:0:0:
320,192,76861,1,0,0:0:0:70:LR3_BassDrop.wav
320,192,77050,1,0,0:0:0:70:LR3_BassDrop.wav
448,192,77050,1,0,0:0:0:70:LR4_ClapLRV.wav
192,192,77240,1,0,0:0:0:0:
64,192,77335,1,0,0:0:0:70:W.wav
320,192,77430,1,0,0:0:0:70:LR4_ClapLRV.wav
448,192,77430,1,0,0:0:0:0:
192,192,77620,1,0,0:0:0:0:
320,192,77810,1,0,0:0:0:70:LR3_BassDrop.wav
448,192,77810,1,0,0:0:0:70:LR4_ClapLRV.wav
192,192,78000,1,0,0:0:0:0:
64,192,78095,1,0,0:0:0:70:W.wav
320,192,78190,1,0,0:0:0:70:LR4_ClapLRV.wav
448,192,78190,1,0,0:0:0:0:
192,192,78379,1,0,0:0:0:70:LR3_BassDrop.wav
320,192,78569,1,0,0:0:0:70:LR3_BassDrop.wav
448,192,78569,1,0,0:0:0:70:LR4_ClapLRV.wav
192,192,78759,1,0,0:0:0:0:
64,192,78854,1,0,0:0:0:70:W.wav
320,192,78949,1,0,0:0:0:70:LR4_ClapLRV.wav
448,192,78949,1,0,0:0:0:0:
192,192,79139,1,0,0:0:0:70:LR3_BassDrop.wav
64,192,79329,1,0,0:0:0:70:LR3_BassDrop.wav
192,192,79329,1,0,0:0:0:70:LR4_ClapLRV.wav
320,192,79519,1,0,0:0:0:0:
448,192,79614,1,0,0:0:0:70:W.wav
64,192,79709,1,0,0:0:0:70:LR4_ClapLRV.wav
192,192,79709,1,0,0:0:0:0:
320,192,79898,1,0,0:0:0:70:LR3_BassDrop.wav
64,192,80088,1,0,0:0:0:70:LR3_BassDrop.wav
192,192,80088,1,0,0:0:0:70:LR4_ClapLRV.wav
320,192,80278,1,0,0:0:0:0:
448,192,80373,1,0,0:0:0:70:W.wav
64,192,80468,1,0,0:0:0:70:LR4_ClapLRV.wav
192,192,80468,1,0,0:0:0:0:
320,192,80658,1,0,0:0:0:70:LR3_BassDrop.wav
64,192,80848,1,0,0:0:0:70:W.wav
192,192,80848,1,0,0:0:0:70:LR3_BassDrop.wav
448,192,81038,1,0,0:0:0:70:W.wav
320,192,81133,1,0,0:0:0:70:W.wav
64,192,81228,1,0,0:0:0:70:W.wav
192,192,81228,1,0,0:0:0:70:LR4_ClapLRV.wav
320,192,81417,1,0,0:0:0:70:W.wav
448,192,81417,1,0,0:0:0:70:LR3_BassDrop.wav
64,192,81607,1,0,0:0:0:70:W.wav
192,192,81607,1,0,0:0:0:70:LR3_BassDrop.wav
448,192,81797,1,0,0:0:0:70:W.wav
320,192,81892,1,0,0:0:0:70:W.wav
64,192,81987,1,0,0:0:0:70:W.wav
192,192,81987,1,0,0:0:0:70:LR4_ClapLRV.wav
320,192,82177,1,0,0:0:0:70:W.wav
448,192,82177,1,0,0:0:0:0:
64,192,82367,1,0,0:0:0:70:W.wav
192,192,82367,1,0,0:0:0:70:LR3_BassDrop.wav
448,192,82557,1,0,0:0:0:70:W.wav
320,192,82652,1,0,0:0:0:70:W.wav
64,192,82747,1,0,0:0:0:70:W.wav
192,192,82747,1,0,0:0:0:70:LR4_ClapLRV.wav
320,192,82936,1,0,0:0:0:70:W.wav
448,192,82936,1,0,0:0:0:70:LR3_BassDrop.wav
64,192,83126,1,0,0:0:0:70:W.wav
192,192,83126,1,0,0:0:0:70:LR3_BassDrop.wav
448,192,83316,1,0,0:0:0:70:W.wav
320,192,83411,1,0,0:0:0:70:W.wav
64,192,83506,1,0,0:0:0:70:W.wav
192,192,83506,1,0,0:0:0:70:LR4_ClapLRV.wav
320,192,83696,1,0,0:0:0:70:W.wav
448,192,83696,1,0,0:0:0:70:LR3_BassDrop.wav
64,192,83886,1,0,0:0:0:70:W.wav
192,192,83886,1,0,0:0:0:70:LR3_BassDrop.wav
320,192,83981,1,0,0:0:0:70:W.wav
64,192,84076,1,0,0:0:0:70:W.wav
320,192,84171,1,0,0:0:0:70:W.wav
192,192,84266,1,0,0:0:0:70:W.wav
448,192,84266,1,0,0:0:0:70:LR4_ClapLRV.wav
64,192,84361,1,0,0:0:0:70:W.wav
320,192,84455,1,0,0:0:0:70:W.wav
448,192,84550,1,0,0:0:0:70:W.wav
64,192,84645,1,0,0:0:0:70:W.wav
192,192,84645,1,0,0:0:0:70:LR4_ClapLRV.wav
448,192,84740,1,0,0:0:0:70:W.wav
192,192,84835,1,0,0:0:0:70:W.wav
320,192,84930,1,0,0:0:0:70:W.wav
192,192,85025,1,0,0:0:0:70:W.wav
448,192,85025,1,0,0:0:0:70:LR4_ClapLRV.wav
64,192,85120,1,0,0:0:0:70:W.wav
192,192,85215,1,0,0:0:0:70:W.wav
320,192,85310,1,0,0:0:0:70:W.wav
64,192,85405,1,0,0:0:0:0:
192,192,85405,1,0,0:0:0:0:
64,192,85785,1,0,0:0:0:0:
192,192,85785,1,0,0:0:0:0:
64,192,86164,1,0,0:0:0:0:
192,192,86164,1,0,0:0:0:0:
320,192,86354,1,0,0:0:0:70:tom01.wav
448,192,86354,1,0,0:0:0:0:
64,192,86544,1,0,0:0:0:70:tom02.wav
448,192,86544,1,0,0:0:0:0:
320,192,86734,1,0,0:0:0:70:tom03.wav
448,192,86734,1,0,0:0:0:0:
64,192,86924,1,0,0:0:0:70:W.wav
320,192,86924,1,0,0:0:0:70:F.wav
448,192,86924,128,0,87209:0:0:0:0:
64,192,87209,1,0,0:0:0:0:
320,192,87209,128,0,87493:0:0:0:0:
64,192,87493,1,0,0:0:0:70:W.wav
192,192,87493,128,0,87683:0:0:0:0:
64,192,87683,128,0,87968:0:0:0:70:C.wav
320,192,87683,1,0,0:0:0:0:
448,192,87683,1,0,0:0:0:0:
320,192,87968,128,0,88253:0:0:0:0:
64,192,88443,1,0,0:0:0:0:
448,192,88443,128,0,88728:0:0:0:0:
64,192,88728,1,0,0:0:0:0:
320,192,88728,128,0,89012:0:0:0:0:
64,192,89012,1,0,0:0:0:70:W.wav
192,192,89012,128,0,89202:0:0:0:0:
64,192,89202,128,0,89487:0:0:0:70:C.wav
320,192,89202,1,0,0:0:0:0:
448,192,89202,1,0,0:0:0:0:
320,192,89487,128,0,89772:0:0:0:0:
448,192,89487,1,0,0:0:0:0:
448,192,89772,1,0,0:0:0:0:
64,192,89962,128,0,90247:0:0:0:0:
448,192,89962,1,0,0:0:0:0:
192,192,90247,128,0,90531:0:0:0:0:
448,192,90247,1,0,0:0:0:0:
320,192,90531,128,0,90721:0:0:0:70:W.wav
448,192,90531,1,0,0:0:0:0:
64,192,90721,1,0,0:0:0:70:C.wav
192,192,90721,1,0,0:0:0:0:
448,192,90721,128,0,91006:0:0:0:0:
192,192,91006,128,0,91291:0:0:0:0:
64,192,91481,128,0,91766:0:0:0:70:W.wav
448,192,91481,1,0,0:0:0:0:
192,192,91766,128,0,92050:0:0:0:0:
448,192,91766,1,0,0:0:0:0:
320,192,92050,128,0,92240:0:0:0:70:W.wav
448,192,92050,1,0,0:0:0:0:
64,192,92240,1,0,0:0:0:70:C.wav
192,192,92240,1,0,0:0:0:0:
448,192,92240,128,0,92525:0:0:0:0:
64,192,92525,1,0,0:0:0:0:
192,192,92525,128,0,92810:0:0:0:0:
64,192,92810,1,0,0:0:0:0:
64,192,93000,1,0,0:0:0:70:W.wav
448,192,93000,128,0,93285:0:0:0:0:
64,192,93285,1,0,0:0:0:0:
320,192,93285,128,0,93569:0:0:0:0:
64,192,93569,1,0,0:0:0:0:
192,192,93569,128,0,93759:0:0:0:0:
64,192,93759,128,0,94044:0:0:0:70:C.wav
320,192,93759,1,0,0:0:0:0:
448,192,93759,1,0,0:0:0:0:
320,192,94044,128,0,94329:0:0:0:0:
64,192,94519,1,0,0:0:0:0:
448,192,94519,128,0,94804:0:0:0:0:
64,192,94804,1,0,0:0:0:0:
320,192,94804,128,0,95088:0:0:0:0:
64,192,95088,1,0,0:0:0:70:W.wav
192,192,95088,128,0,95278:0:0:0:0:
64,192,95278,128,0,95563:0:0:0:70:C.wav
320,192,95278,1,0,0:0:0:0:
448,192,95278,1,0,0:0:0:0:
320,192,95563,128,0,95848:0:0:0:0:
448,192,95563,1,0,0:0:0:0:
448,192,95848,1,0,0:0:0:0:
64,192,96038,128,0,96323:0:0:0:0:
448,192,96038,1,0,0:0:0:0:
192,192,96323,128,0,96607:0:0:0:0:
448,192,96323,1,0,0:0:0:0:
320,192,96607,128,0,96797:0:0:0:70:W.wav
448,192,96607,1,0,0:0:0:0:
64,192,96797,1,0,0:0:0:70:C.wav
192,192,96797,1,0,0:0:0:0:
448,192,96797,128,0,97082:0:0:0:0:
64,192,97082,1,0,0:0:0:0:
192,192,97082,128,0,97367:0:0:0:0:
64,192,97367,1,0,0:0:0:0:
64,192,97557,128,0,97842:0:0:0:0:
448,192,97557,1,0,0:0:0:0:
192,192,97652,1,0,0:0:0:0:
320,192,97747,1,0,0:0:0:0:
192,192,97842,128,0,98126:0:0:0:0:
448,192,97936,1,0,0:0:0:0:
64,192,98031,1,0,0:0:0:0:
320,192,98126,128,0,98316:0:0:0:70:W.wav
448,192,98126,1,0,0:0:0:0:
192,192,98221,1,0,0:0:0:0:
64,192,98316,1,0,0:0:0:70:C.wav
448,192,98316,128,0,98601:0:0:0:0:
192,192,98411,1,0,0:0:0:0:
320,192,98506,1,0,0:0:0:0:
64,192,98601,1,0,0:0:0:70:W.wav
192,192,98601,128,0,98886:0:0:0:0:
320,192,98696,1,0,0:0:0:0:
448,192,98791,1,0,0:0:0:0:
64,192,98886,1,0,0:0:0:70:W.wav
64,192,99076,1,0,0:0:0:70:W.wav
320,192,99076,1,0,0:0:0:70:F.wav
448,192,99076,1,0,0:0:0:70:LR4_ClapLRV.wav
192,192,99266,1,0,0:0:0:0:
64,192,99455,1,0,0:0:0:70:LR4_ClapLRV.wav
320,192,99455,1,0,0:0:0:0:
320,192,99645,1,0,0:0:0:70:W.wav
448,192,99645,1,0,0:0:0:0:
64,192,99835,1,0,0:0:0:70:LR4_ClapLRV.wav
192,192,99835,1,0,0:0:0:70:C.wav
448,192,99835,1,0,0:0:0:0:
320,192,100025,1,0,0:0:0:0:
320,192,100215,1,0,0:0:0:70:LR4_ClapLRV.wav
448,192,100215,1,0,0:0:0:0:
192,192,100405,1,0,0:0:0:0:
64,192,100595,1,0,0:0:0:70:LR4_ClapLRV.wav
320,192,100595,1,0,0:0:0:0:
448,192,100785,1,0,0:0:0:0:
192,192,100974,1,0,0:0:0:70:LR4_ClapLRV.wav
320,192,100974,1,0,0:0:0:0:
64,192,101164,1,0,0:0:0:70:W.wav
320,192,101164,1,0,0:0:0:0:
64,192,101354,1,0,0:0:0:70:LR4_ClapLRV.wav
192,192,101354,1,0,0:0:0:70:C.wav
448,192,101354,1,0,0:0:0:0:
192,192,101544,1,0,0:0:0:0:
320,192,101734,128,0,101924:0:0:0:70:LR4_ClapLRV.wav
448,192,101734,1,0,0:0:0:0:
192,192,101924,128,0,102114:0:0:0:0:
64,192,102114,1,0,0:0:0:70:LR4_ClapLRV.wav
448,192,102114,1,0,0:0:0:0:
320,192,102304,1,0,0:0:0:0:
320,192,102493,1,0,0:0:0:70:LR4_ClapLRV.wav
448,192,102493,1,0,0:0:0:0:
64,192,102683,1,0,0:0:0:70:W.wav
192,192,102683,1,0,0:0:0:0:
64,192,102873,1,0,0:0:0:70:LR4_ClapLRV.wav
192,192,102873,1,0,0:0:0:70:C.wav
320,192,102873,1,0,0:0:0:0:
320,192,103063,1,0,0:0:0:0:
192,192,103253,1,0,0:0:0:70:LR4_ClapLRV.wav
448,192,103253,1,0,0:0:0:0:
64,192,103443,1,0,0:0:0:0:
320,192,103633,1,0,0:0:0:70:W.wav
448,192,103633,1,0,0:0:0:70:LR4_ClapLRV.wav
64,192,103823,1,0,0:0:0:0:
192,192,104012,1,0,0:0:0:70:LR4_ClapLRV.wav
448,192,104012,1,0,0:0:0:0:
320,192,104202,1,0,0:0:0:70:W.wav
448,192,104202,1,0,0:0:0:0:
64,192,104392,1,0,0:0:0:70:LR4_ClapLRV.wav
192,192,104392,1,0,0:0:0:70:C.wav
448,192,104392,1,0,0:0:0:0:
320,192,104582,1,0,0:0:0:0:
64,192,104772,128,0,105152:0:0:0:70:LR4_ClapLRV.wav
192,192,104772,1,0,0:0:0:0:
448,192,104962,1,0,0:0:0:0:
192,192,105152,1,0,0:0:0:70:W.wav
320,192,105152,1,0,0:0:0:70:LR4_ClapLRV.wav
64,192,105342,1,0,0:0:0:0:
320,192,105531,1,0,0:0:0:70:LR4_ClapLRV.wav
448,192,105531,1,0,0:0:0:0:
192,192,105721,1,0,0:0:0:0:
64,192,105911,1,0,0:0:0:70:LR4_ClapLRV.wav
320,192,105911,1,0,0:0:0:70:C.wav
448,192,105911,1,0,0:0:0:0:
192,192,106101,1,0,0:0:0:0:
64,192,106291,1,0,0:0:0:70:LR4_ClapLRV.wav
448,192,106291,1,0,0:0:0:0:
320,192,106481,1,0,0:0:0:0:
192,192,106671,1,0,0:0:0:70:LR4_ClapLRV.wav
320,192,106671,1,0,0:0:0:0:
192,192,106861,1,0,0:0:0:0:
64,192,107050,1,0,0:0:0:70:LR4_ClapLRV.wav
320,192,107050,1,0,0:0:0:0:
192,192,107240,1,0,0:0:0:70:W.wav
448,192,107240,1,0,0:0:0:0:
64,192,107430,1,0,0:0:0:70:LR4_ClapLRV.wav
320,192,107430,1,0,0:0:0:70:C.wav
448,192,107430,1,0,0:0:0:0:
320,192,107620,1,0,0:0:0:0:
448,192,107810,1,0,0:0:0:0:
192,192,107810,128,0,108000:0:0:0:70:LR4_ClapLRV.wav
64,192,108000,128,0,108190:0:0:0:0:
192,192,108190,1,0,0:0:0:70:LR4_ClapLRV.wav
320,192,108190,1,0,0:0:0:0:
448,192,108379,1,0,0:0:0:0:
64,192,108569,1,0,0:0:0:70:LR4_ClapLRV.wav
192,192,108569,1,0,0:0:0:0:
192,192,108759,1,0,0:0:0:70:W.wav
320,192,108759,1,0,0:0:0:0:
64,192,108949,1,0,0:0:0:70:LR4_ClapLRV.wav
320,192,108949,1,0,0:0:0:70:C.wav
448,192,108949,1,0,0:0:0:0:
192,192,109139,1,0,0:0:0:0:
64,192,109329,1,0,0:0:0:70:LR4_ClapLRV.wav
448,192,109329,1,0,0:0:0:0:
320,192,109519,1,0,0:0:0:0:
320,192,109709,1,0,0:0:0:70:LR4_ClapLRV.wav
448,192,109709,1,0,0:0:0:0:
64,192,109898,1,0,0:0:0:0:
64,192,110088,1,0,0:0:0:70:LR4_ClapLRV.wav
192,192,110088,1,0,0:0:0:0:
320,192,110278,1,0,0:0:0:70:W.wav
448,192,110278,1,0,0:0:0:0:
192,192,110468,1,0,0:0:0:70:LR4_ClapLRV.wav
320,192,110468,1,0,0:0:0:70:C.wav
448,192,110468,1,0,0:0:0:0:
64,192,110658,1,0,0:0:0:0:
320,192,110848,1,0,0:0:0:0:
192,192,110943,1,0,0:0:0:0:
64,192,111038,1,0,0:0:0:0:
448,192,111133,1,0,0:0:0:0:
64,192,111228,1,0,0:0:0:70:W.wav
192,192,111228,1,0,0:0:0:0:
320,192,111228,1,0,0:0:0:0:
448,192,111323,1,0,0:0:0:0:
192,192,111417,1,0,0:0:0:0:
320,192,111512,1,0,0:0:0:0:
192,192,111607,1,0,0:0:0:0:
64,192,111702,1,0,0:0:0:0:
320,192,111797,1,0,0:0:0:0:
192,192,111892,1,0,0:0:0:0:
64,192,111987,1,0,0:0:0:0:
320,192,112082,1,0,0:0:0:0:
64,192,112177,1,0,0:0:0:0:
192,192,112272,1,0,0:0:0:0:
320,192,112367,1,0,0:0:0:0:
448,192,112747,1,0,0:0:0:0:
320,192,112842,1,0,0:0:0:0:
192,192,112936,1,0,0:0:0:0:
448,192,113031,1,0,0:0:0:0:
320,192,113126,1,0,0:0:0:0:
448,192,113221,1,0,0:0:0:0:
192,192,113316,1,0,0:0:0:0:
320,192,113411,1,0,0:0:0:0:
448,192,113506,1,0,0:0:0:0:
192,192,113601,1,0,0:0:0:0:
448,192,113696,1,0,0:0:0:0:
320,192,113791,1,0,0:0:0:0:
192,192,113886,1,0,0:0:0:0:
448,192,113981,1,0,0:0:0:0:
192,192,114076,1,0,0:0:0:0:
320,192,114171,1,0,0:0:0:0:
448,192,114266,1,0,0:0:0:0:
192,192,114361,1,0,0:0:0:0:
320,192,114455,1,0,0:0:0:0:
448,192,114550,1,0,0:0:0:0:
192,192,114645,1,0,0:0:0:0:
448,192,114740,1,0,0:0:0:0:
320,192,114835,1,0,0:0:0:0:
448,192,114930,1,0,0:0:0:0:
192,192,115025,1,0,0:0:0:0:
320,192,115120,1,0,0:0:0:0:
448,192,115215,1,0,0:0:0:0:
192,192,115310,1,0,0:0:0:0:
320,192,115405,1,0,0:0:0:0:
192,192,115785,1,0,0:0:0:0:
448,192,115879,1,0,0:0:0:0:
64,192,115974,1,0,0:0:0:0:
448,192,116069,1,0,0:0:0:0:
192,192,116164,1,0,0:0:0:0:
64,192,116259,1,0,0:0:0:0:
448,192,116354,1,0,0:0:0:0:
64,192,116449,1,0,0:0:0:0:
192,192,116544,1,0,0:0:0:0:
448,192,116639,1,0,0:0:0:0:
64,192,116734,1,0,0:0:0:0:
192,192,116829,1,0,0:0:0:0:
448,192,116924,1,0,0:0:0:0:
192,192,117019,1,0,0:0:0:0:
64,192,117114,1,0,0:0:0:0:
192,192,117304,1,0,0:0:0:0:
64,192,117398,1,0,0:0:0:0:
192,192,117493,1,0,0:0:0:0:
448,192,117588,1,0,0:0:0:0:
64,192,117683,1,0,0:0:0:0:
192,192,117778,1,0,0:0:0:0:
64,192,117873,1,0,0:0:0:0:
448,192,117968,1,0,0:0:0:0:
192,192,118063,1,0,0:0:0:0:
64,192,118158,1,0,0:0:0:0:
448,192,118253,1,0,0:0:0:0:
192,192,118348,1,0,0:0:0:0:
64,192,118443,1,0,0:0:0:0:
320,192,118823,1,0,0:0:0:0:
448,192,118917,1,0,0:0:0:0:
320,192,119012,1,0,0:0:0:0:
64,192,119107,1,0,0:0:0:0:
448,192,119202,1,0,0:0:0:0:
320,192,119297,1,0,0:0:0:0:
64,192,119392,1,0,0:0:0:0:
320,192,119487,1,0,0:0:0:0:
448,192,119582,1,0,0:0:0:0:
64,192,119677,1,0,0:0:0:0:
320,192,119772,1,0,0:0:0:0:
448,192,119867,1,0,0:0:0:0:
320,192,119962,1,0,0:0:0:0:
64,192,120057,1,0,0:0:0:0:
448,192,120152,1,0,0:0:0:0:
320,192,120247,1,0,0:0:0:0:
64,192,120342,1,0,0:0:0:0:
320,192,120436,1,0,0:0:0:0:
448,192,120531,1,0,0:0:0:0:
320,192,120626,1,0,0:0:0:0:
64,192,120721,1,0,0:0:0:0:
448,192,120816,1,0,0:0:0:0:
320,192,120911,1,0,0:0:0:0:
448,192,121006,1,0,0:0:0:0:
64,192,121101,1,0,0:0:0:0:
320,192,121196,1,0,0:0:0:0:
448,192,121291,1,0,0:0:0:0:
320,192,121386,1,0,0:0:0:0:
448,192,121481,1,0,0:0:0:0:
64,192,121576,1,0,0:0:0:0:
320,192,121671,1,0,0:0:0:0:
448,192,121766,1,0,0:0:0:0:
320,192,121861,1,0,0:0:0:0:
64,192,121955,1,0,0:0:0:0:
448,192,122050,1,0,0:0:0:0:
320,192,122145,1,0,0:0:0:0:
64,192,122240,1,0,0:0:0:0:
448,192,122335,1,0,0:0:0:0:
320,192,122430,1,0,0:0:0:0:
448,192,122525,1,0,0:0:0:0:
64,192,122620,1,0,0:0:0:0:
320,192,122715,1,0,0:0:0:0:
448,192,122810,1,0,0:0:0:0:
64,192,122905,1,0,0:0:0:0:
320,192,123000,1,0,0:0:0:0:
448,192,123095,1,0,0:0:0:0:
320,192,123190,1,0,0:0:0:0:
64,192,123285,1,0,0:0:0:0:
448,192,123379,128,0,123759:0:0:0:0:
