osu file format v14

[General]
AudioFilename: audio.mp3
AudioLeadIn: 0
PreviewTime: 47916
Countdown: 0
SampleSet: Soft
StackLeniency: 0.7
Mode: 3
LetterboxInBreaks: 0
SpecialStyle: 0
WidescreenStoryboard: 0

[Editor]
DistanceSpacing: 4.4
BeatDivisor: 4
GridSize: 32
TimelineZoom: 1.8

[Metadata]
Title:Shiba Paradise
TitleUnicode:Shiba Paradise
Artist:James Landino
ArtistUnicode:James Landino
Creator:lenpai
Version:Normal
Source:Twin Trials
Tags:maplesyrup- lenfried- electronic instrumental LN long note speed chord stream chordstream community vote winner FA featured artist remix island mg mpg mappers' guild osu! originals
BeatmapID:4092863
BeatmapSetID:1972411

[Difficulty]
HPDrainRate:7
CircleSize:7
OverallDifficulty:7
ApproachRate:5
SliderMultiplier:1.4
SliderTickRate:1

[Events]
//Background and Video events
0,0,"bg.jpg",0,0
//Break Periods
//Storyboard Layer 0 (Background)
//Storyboard Layer 1 (Fail)
//Storyboard Layer 2 (Pass)
//Storyboard Layer 3 (Foreground)
//Storyboard Layer 4 (Overlay)
//Storyboard Sound Samples

[TimingPoints]
190,272.727272727273,4,2,1,60,1,0
44644,272.727272727273,4,2,1,60,1,0

[HitObjects]
109,192,462,5,0,0:0:0:0:
402,192,599,1,0,0:0:0:0:
329,192,871,1,0,0:0:0:0:
182,192,1008,1,0,0:0:0:0:
109,192,1280,1,0,0:0:0:0:
182,192,1417,1,0,0:0:0:0:
329,192,1553,1,0,0:0:0:0:
402,192,1690,1,0,0:0:0:0:
182,192,1826,1,0,0:0:0:0:
329,192,1962,1,0,0:0:0:0:
182,192,2099,1,0,0:0:0:0:
329,192,2235,1,0,0:0:0:0:
256,192,2371,1,0,0:0:0:0:
256,192,2644,1,0,0:0:0:0:
256,192,3053,1,0,0:0:0:0:
402,192,3462,1,0,0:0:0:0:
402,192,3871,1,0,0:0:0:0:
402,192,4144,1,0,0:0:0:0:
256,192,4553,1,0,0:0:0:0:
256,192,4826,1,0,0:0:0:0:
256,192,5235,1,0,0:0:0:0:
109,192,5644,1,0,0:0:0:0:
402,192,5780,1,0,0:0:0:0:
109,192,6053,1,0,0:0:0:0:
109,192,6326,1,0,0:0:0:0:
256,192,6735,1,0,0:0:0:0:
256,192,7008,1,0,0:0:0:0:
256,192,7417,1,0,0:0:0:0:
329,192,7826,1,0,0:0:0:0:
329,192,8235,1,0,0:0:0:0:
329,192,8508,1,0,0:0:0:0:
256,192,8917,1,0,0:0:0:0:
182,192,9190,1,0,0:0:0:0:
182,192,9599,1,0,0:0:0:0:
109,192,10008,1,0,0:0:0:0:
36,192,10008,1,0,0:0:0:0:
256,192,10144,1,0,0:0:0:0:
402,192,10144,1,0,0:0:0:0:
256,192,10417,1,0,0:0:0:0:
402,192,10417,1,0,0:0:0:0:
329,192,10690,1,0,0:0:0:0:
256,192,10826,1,0,0:0:0:0:
182,192,10962,1,0,0:0:0:0:
109,192,11099,1,0,0:0:0:0:
402,192,11099,1,0,0:0:0:0:
256,192,11235,1,0,0:0:0:0:
182,192,11371,1,0,0:0:0:0:
329,192,11508,1,0,0:0:0:0:
182,192,11780,1,0,0:0:0:0:
256,192,11917,1,0,0:0:0:0:
402,192,12053,1,0,0:0:0:0:
182,192,12326,1,0,0:0:0:0:
256,192,12462,1,0,0:0:0:0:
329,192,12599,1,0,0:0:0:0:
402,192,12871,1,0,0:0:0:0:
256,192,13008,1,0,0:0:0:0:
109,192,13280,1,0,0:0:0:0:
256,192,13417,1,0,0:0:0:0:
109,192,13553,1,0,0:0:0:0:
402,192,13690,128,0,13962:0:0:0:0:
182,192,13962,1,0,0:0:0:0:
36,192,14099,1,0,0:0:0:0:
329,192,14235,128,0,14508:0:0:0:0:
182,192,14508,1,0,0:0:0:0:
109,192,14644,1,0,0:0:0:0:
402,192,14780,128,0,15462:0:0:0:0:
256,192,15190,1,0,0:0:0:0:
109,192,15462,1,0,0:0:0:0:
182,192,15599,1,0,0:0:0:0:
329,192,15735,1,0,0:0:0:0:
256,192,15871,1,0,0:0:0:0:
182,192,16144,1,0,0:0:0:0:
256,192,16280,1,0,0:0:0:0:
329,192,16417,1,0,0:0:0:0:
475,192,16690,1,0,0:0:0:0:
329,192,16826,1,0,0:0:0:0:
256,192,16962,1,0,0:0:0:0:
256,192,17235,1,0,0:0:0:0:
109,192,17371,1,0,0:0:0:0:
329,192,17644,1,0,0:0:0:0:
475,192,17644,1,0,0:0:0:0:
182,192,17780,1,0,0:0:0:0:
182,192,18053,1,0,0:0:0:0:
36,192,18053,1,0,0:0:0:0:
256,192,18326,1,0,0:0:0:0:
256,192,18599,1,0,0:0:0:0:
402,192,18735,1,0,0:0:0:0:
109,192,18735,1,0,0:0:0:0:
182,192,18871,1,0,0:0:0:0:
182,192,19144,1,0,0:0:0:0:
329,192,19144,1,0,0:0:0:0:
329,192,19417,1,0,0:0:0:0:
182,192,19553,1,0,0:0:0:0:
329,192,19690,1,0,0:0:0:0:
36,192,19826,1,0,0:0:0:0:
475,192,19826,1,0,0:0:0:0:
182,192,19826,1,0,0:0:0:0:
256,192,19962,1,0,0:0:0:0:
109,192,20099,1,0,0:0:0:0:
256,192,20235,1,0,0:0:0:0:
109,192,20508,1,0,0:0:0:0:
256,192,20644,1,0,0:0:0:0:
402,192,20780,1,0,0:0:0:0:
109,192,21053,1,0,0:0:0:0:
182,192,21190,1,0,0:0:0:0:
256,192,21326,1,0,0:0:0:0:
256,192,21599,1,0,0:0:0:0:
329,192,21735,1,0,0:0:0:0:
109,192,22008,1,0,0:0:0:0:
402,192,22008,1,0,0:0:0:0:
329,192,22144,1,0,0:0:0:0:
182,192,22280,1,0,0:0:0:0:
256,192,22417,128,0,22690:0:0:0:0:
182,192,22690,1,0,0:0:0:0:
36,192,22826,1,0,0:0:0:0:
329,192,22962,128,0,23235:0:0:0:0:
182,192,23235,1,0,0:0:0:0:
109,192,23371,1,0,0:0:0:0:
402,192,23508,128,0,23917:0:0:0:0:
182,192,23644,128,0,23917:0:0:0:0:
256,192,23917,1,0,0:0:0:0:
109,192,24053,1,0,0:0:0:0:
182,192,24190,1,0,0:0:0:0:
329,192,24190,1,0,0:0:0:0:
402,192,24326,1,0,0:0:0:0:
182,192,24462,1,0,0:0:0:0:
256,192,24599,1,0,0:0:0:0:
109,192,24871,1,0,0:0:0:0:
182,192,25008,1,0,0:0:0:0:
329,192,25144,1,0,0:0:0:0:
475,192,25417,1,0,0:0:0:0:
329,192,25553,1,0,0:0:0:0:
256,192,25690,1,0,0:0:0:0:
256,192,25962,1,0,0:0:0:0:
182,192,26099,1,0,0:0:0:0:
402,192,26371,1,0,0:0:0:0:
329,192,26371,1,0,0:0:0:0:
182,192,26508,1,0,0:0:0:0:
182,192,26780,1,0,0:0:0:0:
109,192,26780,1,0,0:0:0:0:
256,192,27053,1,0,0:0:0:0:
256,192,27326,1,0,0:0:0:0:
402,192,27462,1,0,0:0:0:0:
109,192,27462,1,0,0:0:0:0:
329,192,27599,1,0,0:0:0:0:
329,192,27871,128,0,28553:0:0:0:0:
182,192,27871,128,0,28553:0:0:0:0:
256,192,28280,1,0,0:0:0:0:
36,192,28553,1,0,0:0:0:0:
475,192,28553,1,0,0:0:0:0:
329,192,28690,1,0,0:0:0:0:
256,192,28826,1,0,0:0:0:0:
109,192,28962,1,0,0:0:0:0:
182,192,29235,1,0,0:0:0:0:
256,192,29371,1,0,0:0:0:0:
402,192,29508,1,0,0:0:0:0:
182,192,29780,1,0,0:0:0:0:
329,192,29917,1,0,0:0:0:0:
109,192,30053,1,0,0:0:0:0:
256,192,30326,1,0,0:0:0:0:
182,192,30462,1,0,0:0:0:0:
402,192,30735,1,0,0:0:0:0:
109,192,30735,1,0,0:0:0:0:
329,192,30871,1,0,0:0:0:0:
256,192,31008,1,0,0:0:0:0:
182,192,31144,1,0,0:0:0:0:
256,192,31417,1,0,0:0:0:0:
109,192,31553,1,0,0:0:0:0:
329,192,31690,128,0,32371:0:0:0:0:
109,192,32099,1,0,0:0:0:0:
182,192,32235,1,0,0:0:0:0:
109,192,32371,1,0,0:0:0:0:
256,192,32644,1,0,0:0:0:0:
109,192,32917,1,0,0:0:0:0:
402,192,32917,1,0,0:0:0:0:
329,192,33053,1,0,0:0:0:0:
182,192,33190,1,0,0:0:0:0:
36,192,33326,1,0,0:0:0:0:
182,192,33599,1,0,0:0:0:0:
109,192,33735,1,0,0:0:0:0:
329,192,33871,1,0,0:0:0:0:
475,192,34144,1,0,0:0:0:0:
402,192,34280,1,0,0:0:0:0:
256,192,34417,1,0,0:0:0:0:
256,192,34690,1,0,0:0:0:0:
109,192,34826,1,0,0:0:0:0:
182,192,35099,1,0,0:0:0:0:
329,192,35099,1,0,0:0:0:0:
402,192,35235,1,0,0:0:0:0:
109,192,35371,1,0,0:0:0:0:
256,192,35508,1,0,0:0:0:0:
329,192,35780,1,0,0:0:0:0:
256,192,35917,1,0,0:0:0:0:
109,192,36053,128,0,37008:0:0:0:0:
475,192,36599,1,0,0:0:0:0:
329,192,36735,1,0,0:0:0:0:
256,192,37008,1,0,0:0:0:0:
182,192,37280,1,0,0:0:0:0:
475,192,37280,1,0,0:0:0:0:
36,192,37417,1,0,0:0:0:0:
256,192,37553,1,0,0:0:0:0:
109,192,37690,1,0,0:0:0:0:
329,192,37826,1,0,0:0:0:0:
182,192,37962,1,0,0:0:0:0:
402,192,38099,1,0,0:0:0:0:
256,192,38235,1,0,0:0:0:0:
329,192,38508,1,0,0:0:0:0:
256,192,38644,1,0,0:0:0:0:
109,192,38780,128,0,39053:0:0:0:0:
182,192,39053,1,0,0:0:0:0:
256,192,39190,1,0,0:0:0:0:
329,192,39462,1,0,0:0:0:0:
36,192,39462,1,0,0:0:0:0:
109,192,39599,1,0,0:0:0:0:
182,192,39735,1,0,0:0:0:0:
256,192,39871,128,0,40144:0:0:0:0:
329,192,40144,1,0,0:0:0:0:
402,192,40280,1,0,0:0:0:0:
182,192,40417,128,0,41371:0:0:0:0:
475,192,40417,128,0,41371:0:0:0:0:
256,192,40826,1,0,0:0:0:0:
256,192,41371,1,0,0:0:0:0:
36,192,41644,1,0,0:0:0:0:
329,192,41644,1,0,0:0:0:0:
256,192,41780,1,0,0:0:0:0:
109,192,41917,1,0,0:0:0:0:
329,192,42053,1,0,0:0:0:0:
182,192,42190,1,0,0:0:0:0:
402,192,42326,1,0,0:0:0:0:
256,192,42462,1,0,0:0:0:0:
109,192,42599,1,0,0:0:0:0:
329,192,42871,1,0,0:0:0:0:
256,192,43008,1,0,0:0:0:0:
109,192,43144,128,0,43417:0:0:0:0:
182,192,43417,1,0,0:0:0:0:
256,192,43553,1,0,0:0:0:0:
329,192,43826,1,0,0:0:0:0:
36,192,43826,1,0,0:0:0:0:
256,192,44099,1,0,0:0:0:0:
109,192,44235,1,0,0:0:0:0:
402,192,44235,1,0,0:0:0:0:
256,192,44508,1,0,0:0:0:0:
182,192,44644,1,0,0:0:0:0:
475,192,44644,1,0,0:0:0:0:
256,192,44916,1,0,0:0:0:0:
256,192,45053,1,0,0:0:0:0:
109,192,45189,1,0,0:0:0:0:
329,192,45189,1,0,0:0:0:0:
256,192,45462,1,0,0:0:0:0:
182,192,45598,128,0,47371:0:0:0:0:
402,192,45598,128,0,47371:0:0:0:0:
256,192,47916,1,0,0:0:0:0:
256,192,48189,1,0,0:0:0:0:
256,192,48462,1,0,0:0:0:0:
256,192,48734,1,0,0:0:0:0:
256,192,49007,1,0,0:0:0:0:
256,192,49280,1,0,0:0:0:0:
256,192,49553,1,0,0:0:0:0:
256,192,49825,1,0,0:0:0:0:
109,192,50098,1,0,0:0:0:0:
109,192,50371,1,0,0:0:0:0:
109,192,50644,1,0,0:0:0:0:
109,192,50916,1,0,0:0:0:0:
109,192,51189,1,0,0:0:0:0:
109,192,51462,1,0,0:0:0:0:
109,192,51734,1,0,0:0:0:0:
109,192,52007,1,0,0:0:0:0:
402,192,52280,1,0,0:0:0:0:
402,192,52553,1,0,0:0:0:0:
402,192,52825,1,0,0:0:0:0:
402,192,53098,1,0,0:0:0:0:
402,192,53371,1,0,0:0:0:0:
402,192,53644,1,0,0:0:0:0:
402,192,53916,1,0,0:0:0:0:
402,192,54189,1,0,0:0:0:0:
256,192,54462,1,0,0:0:0:0:
36,192,54462,1,0,0:0:0:0:
182,192,54734,1,0,0:0:0:0:
256,192,54871,1,0,0:0:0:0:
475,192,54871,1,0,0:0:0:0:
329,192,55144,1,0,0:0:0:0:
256,192,55280,1,0,0:0:0:0:
109,192,55280,1,0,0:0:0:0:
182,192,55553,1,0,0:0:0:0:
256,192,55689,128,0,56371:0:0:0:0:
402,192,55689,128,0,56371:0:0:0:0:
182,192,56371,1,0,0:0:0:0:
109,192,56644,1,0,0:0:0:0:
402,192,56644,1,0,0:0:0:0:
256,192,56780,1,0,0:0:0:0:
109,192,56916,1,0,0:0:0:0:
36,192,56916,1,0,0:0:0:0:
329,192,57053,1,0,0:0:0:0:
182,192,57325,1,0,0:0:0:0:
329,192,57462,1,0,0:0:0:0:
36,192,57462,1,0,0:0:0:0:
475,192,57598,1,0,0:0:0:0:
329,192,57871,1,0,0:0:0:0:
182,192,58007,1,0,0:0:0:0:
475,192,58007,1,0,0:0:0:0:
36,192,58144,1,0,0:0:0:0:
256,192,58416,1,0,0:0:0:0:
402,192,58553,1,0,0:0:0:0:
256,192,58689,1,0,0:0:0:0:
109,192,58825,1,0,0:0:0:0:
36,192,58825,1,0,0:0:0:0:
402,192,59098,1,0,0:0:0:0:
475,192,59098,1,0,0:0:0:0:
109,192,59234,1,0,0:0:0:0:
329,192,59371,1,0,0:0:0:0:
109,192,59507,1,0,0:0:0:0:
256,192,59644,1,0,0:0:0:0:
475,192,59644,1,0,0:0:0:0:
329,192,59780,1,0,0:0:0:0:
109,192,59916,1,0,0:0:0:0:
402,192,60053,1,0,0:0:0:0:
256,192,60189,1,0,0:0:0:0:
36,192,60189,1,0,0:0:0:0:
182,192,60325,128,0,60598:0:0:0:0:
329,192,60598,128,0,61007:0:0:0:0:
475,192,60598,128,0,61007:0:0:0:0:
109,192,61007,1,0,0:0:0:0:
256,192,61144,1,0,0:0:0:0:
109,192,61280,1,0,0:0:0:0:
36,192,61280,1,0,0:0:0:0:
329,192,61416,1,0,0:0:0:0:
475,192,61553,1,0,0:0:0:0:
182,192,61689,1,0,0:0:0:0:
329,192,61825,1,0,0:0:0:0:
402,192,61825,1,0,0:0:0:0:
182,192,61962,1,0,0:0:0:0:
475,192,62098,1,0,0:0:0:0:
109,192,62234,1,0,0:0:0:0:
329,192,62371,1,0,0:0:0:0:
402,192,62371,1,0,0:0:0:0:
109,192,62507,1,0,0:0:0:0:
329,192,62644,1,0,0:0:0:0:
256,192,62780,1,0,0:0:0:0:
36,192,62916,1,0,0:0:0:0:
182,192,62916,1,0,0:0:0:0:
329,192,63053,1,0,0:0:0:0:
256,192,63189,1,0,0:0:0:0:
475,192,63189,1,0,0:0:0:0:
109,192,63462,1,0,0:0:0:0:
182,192,63598,1,0,0:0:0:0:
402,192,63598,1,0,0:0:0:0:
402,192,63871,1,0,0:0:0:0:
109,192,64007,1,0,0:0:0:0:
329,192,64007,1,0,0:0:0:0:
182,192,64280,1,0,0:0:0:0:
36,192,64416,128,0,65098:0:0:0:0:
256,192,64416,128,0,65098:0:0:0:0:
402,192,65098,1,0,0:0:0:0:
402,192,65371,1,0,0:0:0:0:
36,192,65371,128,0,65644:0:0:0:0:
256,192,65371,1,0,0:0:0:0:
109,192,65644,128,0,65916:0:0:0:0:
329,192,65644,1,0,0:0:0:0:
182,192,65916,128,0,66189:0:0:0:0:
256,192,66189,128,0,66462:0:0:0:0:
402,192,66189,1,0,0:0:0:0:
329,192,66462,128,0,66734:0:0:0:0:
402,192,66734,128,0,67007:0:0:0:0:
36,192,66734,1,0,0:0:0:0:
475,192,67007,128,0,67280:0:0:0:0:
182,192,67280,128,0,67553:0:0:0:0:
36,192,67280,1,0,0:0:0:0:
329,192,67553,128,0,67962:0:0:0:0:
182,192,67825,1,0,0:0:0:0:
109,192,67962,128,0,68371:0:0:0:0:
329,192,68234,1,0,0:0:0:0:
402,192,68371,128,0,68780:0:0:0:0:
256,192,68644,1,0,0:0:0:0:
182,192,68780,128,0,69189:0:0:0:0:
329,192,69053,1,0,0:0:0:0:
402,192,69189,128,0,69462:0:0:0:0:
256,192,69462,128,0,69734:0:0:0:0:
109,192,69734,128,0,70007:0:0:0:0:
475,192,70007,128,0,70280:0:0:0:0:
256,192,70007,1,0,0:0:0:0:
329,192,70280,128,0,70553:0:0:0:0:
182,192,70553,128,0,70825:0:0:0:0:
475,192,70553,1,0,0:0:0:0:
36,192,70825,128,0,71098:0:0:0:0:
182,192,71098,128,0,71371:0:0:0:0:
402,192,71098,1,0,0:0:0:0:
256,192,71371,128,0,71644:0:0:0:0:
329,192,71644,128,0,71916:0:0:0:0:
109,192,71644,1,0,0:0:0:0:
475,192,71916,1,0,0:0:0:0:
182,192,71916,1,0,0:0:0:0:
329,192,72053,1,0,0:0:0:0:
36,192,72189,1,0,0:0:0:0:
182,192,72189,1,0,0:0:0:0:
329,192,72325,1,0,0:0:0:0:
109,192,72598,1,0,0:0:0:0:
256,192,72598,1,0,0:0:0:0:
402,192,72734,1,0,0:0:0:0:
182,192,73007,1,0,0:0:0:0:
329,192,73007,1,0,0:0:0:0:
475,192,73144,1,0,0:0:0:0:
109,192,73416,1,0,0:0:0:0:
256,192,73416,1,0,0:0:0:0:
402,192,73553,1,0,0:0:0:0:
329,192,73825,1,0,0:0:0:0:
475,192,73825,1,0,0:0:0:0:
182,192,73962,1,0,0:0:0:0:
329,192,74098,1,0,0:0:0:0:
36,192,74098,128,0,74371:0:0:0:0:
109,192,74371,128,0,74644:0:0:0:0:
402,192,74371,1,0,0:0:0:0:
256,192,74644,128,0,74780:0:0:0:0:
182,192,74780,128,0,74916:0:0:0:0:
329,192,74916,128,0,75053:0:0:0:0:
475,192,74916,1,0,0:0:0:0:
182,192,75053,128,0,75189:0:0:0:0:
402,192,75189,128,0,75598:0:0:0:0:
182,192,75462,1,0,0:0:0:0:
256,192,75598,128,0,75734:0:0:0:0:
109,192,75734,128,0,76144:0:0:0:0:
329,192,76007,1,0,0:0:0:0:
256,192,76144,128,0,76280:0:0:0:0:
475,192,76280,128,0,76416:0:0:0:0:
329,192,76416,128,0,76553:0:0:0:0:
182,192,76553,128,0,76689:0:0:0:0:
36,192,76689,128,0,76825:0:0:0:0:
402,192,76825,128,0,76962:0:0:0:0:
256,192,76962,128,0,77098:0:0:0:0:
109,192,77098,128,0,77234:0:0:0:0:
329,192,77234,128,0,77371:0:0:0:0:
182,192,77371,128,0,77644:0:0:0:0:
475,192,77507,1,0,0:0:0:0:
329,192,77644,128,0,77916:0:0:0:0:
36,192,77780,1,0,0:0:0:0:
182,192,77916,128,0,78053:0:0:0:0:
256,192,78053,128,0,78189:0:0:0:0:
329,192,78189,128,0,78462:0:0:0:0:
475,192,78189,1,0,0:0:0:0:
182,192,78462,128,0,78598:0:0:0:0:
36,192,78598,128,0,78734:0:0:0:0:
329,192,78734,128,0,78871:0:0:0:0:
475,192,78734,1,0,0:0:0:0:
109,192,78871,128,0,79007:0:0:0:0:
402,192,79007,128,0,79144:0:0:0:0:
182,192,79144,128,0,79280:0:0:0:0:
329,192,79280,128,0,79553:0:0:0:0:
475,192,79280,1,0,0:0:0:0:
182,192,79553,128,0,79689:0:0:0:0:
36,192,79689,128,0,79825:0:0:0:0:
329,192,79825,128,0,79962:0:0:0:0:
475,192,79825,1,0,0:0:0:0:
109,192,79962,128,0,80098:0:0:0:0:
402,192,80098,128,0,80234:0:0:0:0:
182,192,80234,128,0,80371:0:0:0:0:
475,192,80371,128,0,80644:0:0:0:0:
329,192,80371,1,0,0:0:0:0:
109,192,80644,1,0,0:0:0:0:
256,192,80780,1,0,0:0:0:0:
329,192,80916,1,0,0:0:0:0:
182,192,81053,1,0,0:0:0:0:
256,192,81189,1,0,0:0:0:0:
402,192,81325,1,0,0:0:0:0:
256,192,81462,1,0,0:0:0:0:
109,192,81598,1,0,0:0:0:0:
256,192,81734,1,0,0:0:0:0:
182,192,81871,128,0,82553:0:0:0:0:
402,192,82144,1,0,0:0:0:0:
402,192,82416,1,0,0:0:0:0:
329,192,82553,1,0,0:0:0:0:
256,192,82689,1,0,0:0:0:0:
256,192,85007,1,0,0:0:0:0:
36,192,85007,1,0,0:0:0:0:
182,192,85280,1,0,0:0:0:0:
256,192,85689,1,0,0:0:0:0:
475,192,85689,1,0,0:0:0:0:
402,192,85962,1,0,0:0:0:0:
182,192,85962,1,0,0:0:0:0:
329,192,86371,1,0,0:0:0:0:
402,192,86507,1,0,0:0:0:0:
109,192,86507,1,0,0:0:0:0:
256,192,86644,1,0,0:0:0:0:
256,192,86780,1,0,0:0:0:0:
182,192,86916,1,0,0:0:0:0:
475,192,87189,128,0,89098:0:0:0:0:
36,192,87189,1,0,0:0:0:0:
256,192,87325,1,0,0:0:0:0:
36,192,87462,1,0,0:0:0:0:
182,192,87598,1,0,0:0:0:0:
329,192,87734,1,0,0:0:0:0:
109,192,87871,1,0,0:0:0:0:
256,192,88007,1,0,0:0:0:0:
402,192,88144,1,0,0:0:0:0:
109,192,88280,1,0,0:0:0:0:
182,192,88416,1,0,0:0:0:0:
329,192,88553,1,0,0:0:0:0:
182,192,88689,1,0,0:0:0:0:
256,192,88825,1,0,0:0:0:0:
329,192,88962,1,0,0:0:0:0:
109,192,89098,1,0,0:0:0:0:
402,192,89234,1,0,0:0:0:0:
109,192,89371,1,0,0:0:0:0:
256,192,89371,1,0,0:0:0:0:
329,192,89507,1,0,0:0:0:0:
182,192,89644,1,0,0:0:0:0:
329,192,89780,1,0,0:0:0:0:
256,192,90053,1,0,0:0:0:0:
402,192,90053,1,0,0:0:0:0:
256,192,90325,1,0,0:0:0:0:
109,192,90325,1,0,0:0:0:0:
329,192,90598,1,0,0:0:0:0:
182,192,90734,1,0,0:0:0:0:
36,192,90871,1,0,0:0:0:0:
402,192,91007,1,0,0:0:0:0:
256,192,91280,1,0,0:0:0:0:
36,192,91553,128,0,93734:0:0:0:0:
475,192,91553,1,0,0:0:0:0:
256,192,91689,1,0,0:0:0:0:
475,192,91825,1,0,0:0:0:0:
329,192,91962,1,0,0:0:0:0:
182,192,92098,1,0,0:0:0:0:
402,192,92234,1,0,0:0:0:0:
256,192,92371,1,0,0:0:0:0:
109,192,92507,1,0,0:0:0:0:
402,192,92644,1,0,0:0:0:0:
329,192,92780,1,0,0:0:0:0:
182,192,92916,1,0,0:0:0:0:
329,192,93053,1,0,0:0:0:0:
256,192,93189,1,0,0:0:0:0:
109,192,93325,1,0,0:0:0:0:
402,192,93462,1,0,0:0:0:0:
182,192,93598,1,0,0:0:0:0:
256,192,93734,1,0,0:0:0:0:
402,192,93734,1,0,0:0:0:0:
109,192,94007,1,0,0:0:0:0:
256,192,94144,1,0,0:0:0:0:
402,192,94144,1,0,0:0:0:0:
182,192,94416,1,0,0:0:0:0:
329,192,94416,1,0,0:0:0:0:
256,192,94689,1,0,0:0:0:0:
109,192,94689,1,0,0:0:0:0:
402,192,94962,1,0,0:0:0:0:
256,192,95098,1,0,0:0:0:0:
109,192,95234,1,0,0:0:0:0:
329,192,95371,1,0,0:0:0:0:
182,192,95507,1,0,0:0:0:0:
329,192,95644,1,0,0:0:0:0:
256,192,95916,128,0,104644:0:0:0:0:
36,192,95916,1,0,0:0:0:0:
182,192,95916,1,0,0:0:0:0:
402,192,96053,1,0,0:0:0:0:
36,192,96189,1,0,0:0:0:0:
109,192,96189,1,0,0:0:0:0:
329,192,96325,1,0,0:0:0:0:
109,192,96598,1,0,0:0:0:0:
402,192,96734,1,0,0:0:0:0:
475,192,96734,1,0,0:0:0:0:
109,192,96871,1,0,0:0:0:0:
182,192,97007,1,0,0:0:0:0:
475,192,97144,1,0,0:0:0:0:
109,192,97416,1,0,0:0:0:0:
402,192,97553,1,0,0:0:0:0:
182,192,97689,1,0,0:0:0:0:
36,192,97825,1,0,0:0:0:0:
109,192,97825,1,0,0:0:0:0:
329,192,97962,1,0,0:0:0:0:
475,192,98098,1,0,0:0:0:0:
109,192,98234,1,0,0:0:0:0:
475,192,98371,1,0,0:0:0:0:
402,192,98371,1,0,0:0:0:0:
182,192,98507,1,0,0:0:0:0:
402,192,98780,1,0,0:0:0:0:
109,192,98916,1,0,0:0:0:0:
36,192,98916,1,0,0:0:0:0:
402,192,99053,1,0,0:0:0:0:
329,192,99189,1,0,0:0:0:0:
36,192,99325,1,0,0:0:0:0:
402,192,99598,1,0,0:0:0:0:
109,192,99734,1,0,0:0:0:0:
329,192,99871,1,0,0:0:0:0:
475,192,100007,1,0,0:0:0:0:
402,192,100007,1,0,0:0:0:0:
36,192,100144,1,0,0:0:0:0:
182,192,100280,1,0,0:0:0:0:
329,192,100280,1,0,0:0:0:0:
475,192,100416,1,0,0:0:0:0:
109,192,100553,1,0,0:0:0:0:
36,192,100553,1,0,0:0:0:0:
402,192,100689,1,0,0:0:0:0:
109,192,100962,1,0,0:0:0:0:
402,192,101098,1,0,0:0:0:0:
329,192,101098,1,0,0:0:0:0:
109,192,101234,1,0,0:0:0:0:
475,192,101371,1,0,0:0:0:0:
329,192,101507,1,0,0:0:0:0:
402,192,101780,1,0,0:0:0:0:
109,192,101916,1,0,0:0:0:0:
329,192,102053,1,0,0:0:0:0:
109,192,102189,1,0,0:0:0:0:
36,192,102189,1,0,0:0:0:0:
475,192,102325,1,0,0:0:0:0:
329,192,102462,1,0,0:0:0:0:
182,192,102598,1,0,0:0:0:0:
329,192,102734,1,0,0:0:0:0:
36,192,102734,1,0,0:0:0:0:
475,192,102871,1,0,0:0:0:0:
402,192,103144,1,0,0:0:0:0:
109,192,103280,1,0,0:0:0:0:
182,192,103280,1,0,0:0:0:0:
402,192,103416,1,0,0:0:0:0:
36,192,103553,1,0,0:0:0:0:
182,192,103689,1,0,0:0:0:0:
109,192,103962,1,0,0:0:0:0:
402,192,104098,1,0,0:0:0:0:
36,192,104234,1,0,0:0:0:0:
329,192,104371,1,0,0:0:0:0:
182,192,104371,1,0,0:0:0:0:
475,192,104507,1,0,0:0:0:0:
182,192,104644,1,0,0:0:0:0:
36,192,104644,1,0,0:0:0:0:
109,192,104644,1,0,0:0:0:0:
329,192,104916,1,0,0:0:0:0:
402,192,104916,1,0,0:0:0:0:
109,192,105053,1,0,0:0:0:0:
256,192,105189,1,0,0:0:0:0:
109,192,105325,1,0,0:0:0:0:
402,192,105462,1,0,0:0:0:0:
329,192,105462,1,0,0:0:0:0:
256,192,105734,1,0,0:0:0:0:
109,192,105734,1,0,0:0:0:0:
182,192,105734,1,0,0:0:0:0:
402,192,106007,1,0,0:0:0:0:
475,192,106007,1,0,0:0:0:0:
109,192,106144,1,0,0:0:0:0:
256,192,106280,1,0,0:0:0:0:
109,192,106416,1,0,0:0:0:0:
402,192,106553,1,0,0:0:0:0:
475,192,106553,1,0,0:0:0:0:
182,192,106825,1,0,0:0:0:0:
256,192,106825,1,0,0:0:0:0:
329,192,106825,1,0,0:0:0:0:
109,192,107098,1,0,0:0:0:0:
36,192,107098,1,0,0:0:0:0:
329,192,107234,1,0,0:0:0:0:
256,192,107371,1,0,0:0:0:0:
329,192,107507,1,0,0:0:0:0:
109,192,107644,1,0,0:0:0:0:
36,192,107644,1,0,0:0:0:0:
329,192,107916,1,0,0:0:0:0:
256,192,107916,1,0,0:0:0:0:
402,192,107916,1,0,0:0:0:0:
182,192,108189,1,0,0:0:0:0:
109,192,108189,1,0,0:0:0:0:
402,192,108325,1,0,0:0:0:0:
329,192,108462,1,0,0:0:0:0:
402,192,108598,1,0,0:0:0:0:
182,192,108734,1,0,0:0:0:0:
109,192,108734,1,0,0:0:0:0:
475,192,109007,1,0,0:0:0:0:
402,192,109007,1,0,0:0:0:0:
329,192,109007,1,0,0:0:0:0:
475,192,109280,1,0,0:0:0:0:
329,192,109280,1,0,0:0:0:0:
402,192,109280,1,0,0:0:0:0:
182,192,109553,1,0,0:0:0:0:
109,192,109553,1,0,0:0:0:0:
256,192,109553,1,0,0:0:0:0:
182,192,109825,1,0,0:0:0:0:
109,192,109825,1,0,0:0:0:0:
256,192,109825,1,0,0:0:0:0:
329,192,110098,1,0,0:0:0:0:
402,192,110098,1,0,0:0:0:0:
256,192,110098,1,0,0:0:0:0:
329,192,110371,1,0,0:0:0:0:
402,192,110371,1,0,0:0:0:0:
256,192,110371,1,0,0:0:0:0:
182,192,110644,1,0,0:0:0:0:
109,192,110644,1,0,0:0:0:0:
36,192,110644,1,0,0:0:0:0:
36,192,110916,1,0,0:0:0:0:
109,192,110916,1,0,0:0:0:0:
182,192,110916,1,0,0:0:0:0:
109,192,111189,1,0,0:0:0:0:
402,192,111189,1,0,0:0:0:0:
256,192,111325,1,0,0:0:0:0:
182,192,111462,1,0,0:0:0:0:
329,192,111462,1,0,0:0:0:0:
256,192,111598,1,0,0:0:0:0:
402,192,111734,128,0,112280:0:0:0:0:
109,192,111734,128,0,112280:0:0:0:0:
36,192,113371,1,0,0:0:0:0:
475,192,113371,1,0,0:0:0:0:
36,192,113644,1,0,0:0:0:0:
36,192,113916,1,0,0:0:0:0:
36,192,114189,1,0,0:0:0:0:
36,192,114462,1,0,0:0:0:0:
36,192,114734,1,0,0:0:0:0:
36,192,115007,1,0,0:0:0:0:
36,192,115280,1,0,0:0:0:0:
475,192,115553,1,0,0:0:0:0:
475,192,115825,1,0,0:0:0:0:
475,192,116098,1,0,0:0:0:0:
475,192,116371,1,0,0:0:0:0:
475,192,116644,1,0,0:0:0:0:
475,192,116916,1,0,0:0:0:0:
475,192,117189,1,0,0:0:0:0:
475,192,117462,1,0,0:0:0:0:
256,192,117734,1,0,0:0:0:0:
256,192,118007,1,0,0:0:0:0:
256,192,118280,1,0,0:0:0:0:
256,192,118553,1,0,0:0:0:0:
256,192,118825,1,0,0:0:0:0:
256,192,119098,1,0,0:0:0:0:
256,192,119371,1,0,0:0:0:0:
256,192,119644,1,0,0:0:0:0:
109,192,119916,1,0,0:0:0:0:
402,192,119916,1,0,0:0:0:0:
329,192,120053,1,0,0:0:0:0:
182,192,120189,1,0,0:0:0:0:
109,192,120325,1,0,0:0:0:0:
402,192,120325,1,0,0:0:0:0:
256,192,120598,1,0,0:0:0:0:
109,192,120734,1,0,0:0:0:0:
402,192,120734,1,0,0:0:0:0:
182,192,120871,1,0,0:0:0:0:
329,192,121007,1,0,0:0:0:0:
109,192,121144,128,0,121825:0:0:0:0:
402,192,121144,128,0,121825:0:0:0:0:
256,192,121825,1,0,0:0:0:0:
36,192,122098,1,0,0:0:0:0:
256,192,122098,1,0,0:0:0:0:
329,192,122234,1,0,0:0:0:0:
475,192,122371,1,0,0:0:0:0:
182,192,122507,1,0,0:0:0:0:
182,192,122780,1,0,0:0:0:0:
475,192,122916,1,0,0:0:0:0:
256,192,123053,1,0,0:0:0:0:
109,192,123325,1,0,0:0:0:0:
475,192,123462,1,0,0:0:0:0:
329,192,123598,128,0,123871:0:0:0:0:
182,192,123598,128,0,123871:0:0:0:0:
36,192,123871,1,0,0:0:0:0:
475,192,124007,1,0,0:0:0:0:
329,192,124144,1,0,0:0:0:0:
36,192,124280,1,0,0:0:0:0:
182,192,124280,1,0,0:0:0:0:
329,192,124416,1,0,0:0:0:0:
475,192,124553,1,0,0:0:0:0:
182,192,124689,1,0,0:0:0:0:
109,192,124962,1,0,0:0:0:0:
475,192,125098,1,0,0:0:0:0:
256,192,125234,1,0,0:0:0:0:
109,192,125507,1,0,0:0:0:0:
475,192,125644,1,0,0:0:0:0:
36,192,125780,1,0,0:0:0:0:
256,192,125780,1,0,0:0:0:0:
256,192,126053,128,0,126325:0:0:0:0:
475,192,126053,128,0,126325:0:0:0:0:
329,192,126462,128,0,126598:0:0:0:0:
36,192,126462,1,0,0:0:0:0:
182,192,126598,128,0,126734:0:0:0:0:
402,192,126734,128,0,126871:0:0:0:0:
475,192,126734,1,0,0:0:0:0:
256,192,126871,128,0,127007:0:0:0:0:
36,192,127007,1,0,0:0:0:0:
182,192,127144,128,0,127280:0:0:0:0:
329,192,127280,128,0,127416:0:0:0:0:
475,192,127280,1,0,0:0:0:0:
182,192,127416,128,0,127553:0:0:0:0:
402,192,127553,128,0,127689:0:0:0:0:
256,192,127689,128,0,127825:0:0:0:0:
109,192,127825,128,0,127962:0:0:0:0:
36,192,127825,1,0,0:0:0:0:
329,192,127962,128,0,128234:0:0:0:0:
475,192,128234,1,0,0:0:0:0:
182,192,128371,1,0,0:0:0:0:
36,192,128371,1,0,0:0:0:0:
256,192,128507,1,0,0:0:0:0:
329,192,128644,1,0,0:0:0:0:
402,192,128644,1,0,0:0:0:0:
109,192,128780,1,0,0:0:0:0:
182,192,128916,1,0,0:0:0:0:
329,192,129053,1,0,0:0:0:0:
402,192,129053,1,0,0:0:0:0:
256,192,129325,1,0,0:0:0:0:
182,192,129462,1,0,0:0:0:0:
109,192,129462,1,0,0:0:0:0:
402,192,129598,1,0,0:0:0:0:
329,192,129734,1,0,0:0:0:0:
182,192,129871,1,0,0:0:0:0:
109,192,129871,1,0,0:0:0:0:
256,192,130144,1,0,0:0:0:0:
36,192,130280,1,0,0:0:0:0:
475,192,130280,1,0,0:0:0:0:
36,192,130553,1,0,0:0:0:0:
475,192,130553,1,0,0:0:0:0:
109,192,130825,1,0,0:0:0:0:
402,192,130825,1,0,0:0:0:0:
182,192,130962,1,0,0:0:0:0:
329,192,131098,1,0,0:0:0:0:
109,192,131234,1,0,0:0:0:0:
402,192,131234,1,0,0:0:0:0:
256,192,131507,1,0,0:0:0:0:
109,192,131644,1,0,0:0:0:0:
402,192,131644,1,0,0:0:0:0:
329,192,131780,1,0,0:0:0:0:
182,192,131916,1,0,0:0:0:0:
109,192,132053,1,0,0:0:0:0:
402,192,132053,1,0,0:0:0:0:
256,192,132325,1,0,0:0:0:0:
36,192,132462,1,0,0:0:0:0:
475,192,132462,1,0,0:0:0:0:
36,192,132734,1,0,0:0:0:0:
475,192,132734,1,0,0:0:0:0:
109,192,133007,1,0,0:0:0:0:
402,192,133007,1,0,0:0:0:0:
182,192,133144,1,0,0:0:0:0:
329,192,133280,1,0,0:0:0:0:
256,192,133416,1,0,0:0:0:0:
182,192,133689,1,0,0:0:0:0:
329,192,133825,1,0,0:0:0:0:
182,192,133962,1,0,0:0:0:0:
256,192,134098,1,0,0:0:0:0:
329,192,134234,1,0,0:0:0:0:
256,192,134371,1,0,0:0:0:0:
109,192,134507,128,0,135189:0:0:0:0:
402,192,134507,128,0,135189:0:0:0:0:
256,192,134916,1,0,0:0:0:0:
182,192,135189,1,0,0:0:0:0:
329,192,135189,1,0,0:0:0:0:
256,192,135462,1,0,0:0:0:0:
256,192,135871,1,0,0:0:0:0:
256,192,136280,1,0,0:0:0:0:
256,192,136689,1,0,0:0:0:0:
256,192,136962,1,0,0:0:0:0:
256,192,137371,1,0,0:0:0:0:
256,192,137644,1,0,0:0:0:0:
256,192,138053,1,0,0:0:0:0:
256,192,138462,1,0,0:0:0:0:
256,192,138598,1,0,0:0:0:0:
256,192,138871,1,0,0:0:0:0:
256,192,139144,1,0,0:0:0:0:
256,192,139553,1,0,0:0:0:0:
256,192,139825,1,0,0:0:0:0:
256,192,140234,1,0,0:0:0:0:
256,192,140644,1,0,0:0:0:0:
256,192,141053,1,0,0:0:0:0:
256,192,141325,1,0,0:0:0:0:
256,192,141734,1,0,0:0:0:0:
256,192,142007,1,0,0:0:0:0:
256,192,142416,1,0,0:0:0:0:
256,192,142689,1,0,0:0:0:0:
109,192,143371,1,0,0:0:0:0:
402,192,143371,1,0,0:0:0:0:
109,192,143644,1,0,0:0:0:0:
402,192,143644,1,0,0:0:0:0:
