osu file format v14

[General]
AudioFilename: audio.mp3
AudioLeadIn: 0
PreviewTime: 47916
Countdown: 0
SampleSet: Soft
StackLeniency: 0.7
Mode: 3
LetterboxInBreaks: 0
SpecialStyle: 0
WidescreenStoryboard: 1

[Editor]
Bookmarks: 56638,85001,113365
DistanceSpacing: 4.4
BeatDivisor: 4
GridSize: 32
TimelineZoom: 2.1

[Metadata]
Title:Shiba Paradise
TitleUnicode:Shiba Paradise
Artist:James Landino
ArtistUnicode:James Landino
Creator:lenpai
Version:Insane
Source:Twin Trials
Tags:maplesyrup- lenfried- electronic instrumental LN long note speed chord stream chordstream community vote winner FA featured artist remix island mg mpg mappers' guild osu! originals
BeatmapID:4092861
BeatmapSetID:1972411

[Difficulty]
HPDrainRate:7.5
CircleSize:7
OverallDifficulty:7
ApproachRate:5
SliderMultiplier:1.4
SliderTickRate:1

[Events]
//Background and Video events
0,0,"BG.jpg",0,0
//Break Periods
//Storyboard Layer 0 (Background)
//Storyboard Layer 1 (Fail)
//Storyboard Layer 2 (Pass)
//Storyboard Layer 3 (Foreground)
//Storyboard Layer 4 (Overlay)
//Storyboard Sound Samples

[TimingPoints]
190,272.727272727273,4,2,1,40,1,0
44644,272.727272727273,4,2,1,40,1,0

[HitObjects]
256,192,462,5,0,0:0:0:0:
475,192,462,1,0,0:0:0:0:
402,192,530,1,0,0:0:0:0:
329,192,599,1,0,0:0:0:0:
182,192,599,1,0,0:0:0:0:
182,192,735,1,0,0:0:0:0:
329,192,735,1,0,0:0:0:0:
256,192,871,1,0,0:0:0:0:
36,192,871,1,0,0:0:0:0:
109,192,940,1,0,0:0:0:0:
182,192,1008,1,0,0:0:0:0:
329,192,1008,1,0,0:0:0:0:
182,192,1144,1,0,0:0:0:0:
329,192,1144,1,0,0:0:0:0:
36,192,1280,1,0,0:0:0:0:
256,192,1280,1,0,0:0:0:0:
475,192,1280,1,0,0:0:0:0:
402,192,1349,1,0,0:0:0:0:
109,192,1349,1,0,0:0:0:0:
182,192,1417,1,0,0:0:0:0:
329,192,1417,1,0,0:0:0:0:
475,192,1485,1,0,0:0:0:0:
36,192,1485,1,0,0:0:0:0:
182,192,1553,1,0,0:0:0:0:
329,192,1553,1,0,0:0:0:0:
329,192,1690,1,0,0:0:0:0:
182,192,1690,1,0,0:0:0:0:
475,192,1826,1,0,0:0:0:0:
402,192,1826,1,0,0:0:0:0:
182,192,1962,128,0,2099:0:0:0:0:
402,192,1962,1,0,0:0:0:0:
475,192,1962,1,0,0:0:0:0:
109,192,2099,128,0,2235:0:0:0:0:
402,192,2099,1,0,0:0:0:0:
475,192,2099,1,0,0:0:0:0:
36,192,2235,128,0,2371:0:0:0:0:
182,192,2371,1,0,0:0:0:0:
109,192,2371,1,0,0:0:0:0:
475,192,2371,128,0,2508:0:0:0:0:
329,192,2371,128,0,2508:0:0:0:0:
36,192,2644,1,0,0:0:0:0:
329,192,2644,128,0,2917:0:0:0:0:
475,192,2644,128,0,2917:0:0:0:0:
182,192,2780,1,0,0:0:0:0:
182,192,2917,1,0,0:0:0:0:
256,192,2917,128,0,3053:0:0:0:0:
402,192,3053,128,0,3190:0:0:0:0:
36,192,3190,1,0,0:0:0:0:
256,192,3190,128,0,3462:0:0:0:0:
182,192,3326,1,0,0:0:0:0:
182,192,3462,1,0,0:0:0:0:
109,192,3462,1,0,0:0:0:0:
402,192,3462,128,0,3667:0:0:0:0:
475,192,3462,128,0,3667:0:0:0:0:
36,192,3735,1,0,0:0:0:0:
182,192,3871,1,0,0:0:0:0:
402,192,3871,128,0,4008:0:0:0:0:
475,192,3871,128,0,4008:0:0:0:0:
182,192,4008,1,0,0:0:0:0:
402,192,4144,128,0,4417:0:0:0:0:
475,192,4144,128,0,4417:0:0:0:0:
36,192,4280,1,0,0:0:0:0:
182,192,4417,1,0,0:0:0:0:
182,192,4553,1,0,0:0:0:0:
109,192,4553,1,0,0:0:0:0:
329,192,4553,128,0,4690:0:0:0:0:
475,192,4553,128,0,4690:0:0:0:0:
36,192,4826,1,0,0:0:0:0:
329,192,4826,128,0,5099:0:0:0:0:
475,192,4826,128,0,5099:0:0:0:0:
182,192,4962,1,0,0:0:0:0:
182,192,5099,1,0,0:0:0:0:
256,192,5099,128,0,5235:0:0:0:0:
402,192,5235,128,0,5371:0:0:0:0:
36,192,5371,1,0,0:0:0:0:
256,192,5371,128,0,5644:0:0:0:0:
182,192,5508,1,0,0:0:0:0:
182,192,5644,1,0,0:0:0:0:
109,192,5644,1,0,0:0:0:0:
402,192,5644,1,0,0:0:0:0:
475,192,5644,1,0,0:0:0:0:
402,192,5780,128,0,5917:0:0:0:0:
475,192,5780,128,0,5917:0:0:0:0:
36,192,5917,1,0,0:0:0:0:
402,192,6053,128,0,6190:0:0:0:0:
475,192,6053,128,0,6190:0:0:0:0:
182,192,6053,1,0,0:0:0:0:
182,192,6190,1,0,0:0:0:0:
475,192,6326,128,0,6599:0:0:0:0:
402,192,6326,128,0,6599:0:0:0:0:
36,192,6462,1,0,0:0:0:0:
182,192,6599,1,0,0:0:0:0:
36,192,6735,128,0,6871:0:0:0:0:
182,192,6735,128,0,6871:0:0:0:0:
329,192,6735,1,0,0:0:0:0:
402,192,6735,1,0,0:0:0:0:
36,192,7008,128,0,7280:0:0:0:0:
182,192,7008,128,0,7280:0:0:0:0:
475,192,7008,1,0,0:0:0:0:
329,192,7144,1,0,0:0:0:0:
256,192,7280,128,0,7417:0:0:0:0:
329,192,7280,1,0,0:0:0:0:
109,192,7417,128,0,7553:0:0:0:0:
256,192,7553,128,0,7826:0:0:0:0:
475,192,7553,1,0,0:0:0:0:
329,192,7690,1,0,0:0:0:0:
109,192,7826,128,0,8030:0:0:0:0:
36,192,7826,128,0,8030:0:0:0:0:
329,192,7826,1,0,0:0:0:0:
402,192,7826,1,0,0:0:0:0:
475,192,8099,1,0,0:0:0:0:
36,192,8235,128,0,8371:0:0:0:0:
109,192,8235,128,0,8371:0:0:0:0:
329,192,8235,1,0,0:0:0:0:
329,192,8371,1,0,0:0:0:0:
36,192,8508,128,0,8780:0:0:0:0:
109,192,8508,128,0,8780:0:0:0:0:
475,192,8644,1,0,0:0:0:0:
329,192,8780,1,0,0:0:0:0:
182,192,8917,128,0,9053:0:0:0:0:
36,192,8917,128,0,9053:0:0:0:0:
329,192,8917,1,0,0:0:0:0:
402,192,8917,1,0,0:0:0:0:
36,192,9190,128,0,9462:0:0:0:0:
182,192,9190,128,0,9462:0:0:0:0:
475,192,9190,1,0,0:0:0:0:
329,192,9326,1,0,0:0:0:0:
256,192,9462,128,0,9599:0:0:0:0:
329,192,9462,1,0,0:0:0:0:
109,192,9599,128,0,9735:0:0:0:0:
256,192,9735,128,0,10008:0:0:0:0:
475,192,9735,1,0,0:0:0:0:
329,192,9871,1,0,0:0:0:0:
109,192,10008,1,0,0:0:0:0:
36,192,10008,1,0,0:0:0:0:
475,192,10008,1,0,0:0:0:0:
402,192,10008,1,0,0:0:0:0:
36,192,10144,128,0,10280:0:0:0:0:
109,192,10144,128,0,10280:0:0:0:0:
402,192,10144,128,0,10280:0:0:0:0:
475,192,10144,128,0,10280:0:0:0:0:
256,192,10280,1,0,0:0:0:0:
36,192,10417,128,0,10553:0:0:0:0:
109,192,10417,128,0,10553:0:0:0:0:
402,192,10417,128,0,10553:0:0:0:0:
475,192,10417,128,0,10553:0:0:0:0:
402,192,10690,128,0,10826:0:0:0:0:
109,192,10690,1,0,0:0:0:0:
329,192,10826,128,0,10962:0:0:0:0:
109,192,10826,1,0,0:0:0:0:
256,192,10962,128,0,11099:0:0:0:0:
182,192,10962,1,0,0:0:0:0:
36,192,11099,1,0,0:0:0:0:
475,192,11099,1,0,0:0:0:0:
109,192,11099,1,0,0:0:0:0:
402,192,11099,128,0,11235:0:0:0:0:
329,192,11235,128,0,11371:0:0:0:0:
256,192,11371,128,0,11508:0:0:0:0:
109,192,11371,1,0,0:0:0:0:
182,192,11508,128,0,11644:0:0:0:0:
36,192,11508,128,0,11644:0:0:0:0:
402,192,11508,1,0,0:0:0:0:
402,192,11644,1,0,0:0:0:0:
475,192,11644,1,0,0:0:0:0:
256,192,11780,128,0,11917:0:0:0:0:
109,192,11780,128,0,11917:0:0:0:0:
329,192,11917,128,0,12053:0:0:0:0:
475,192,11917,1,0,0:0:0:0:
402,192,12053,128,0,12190:0:0:0:0:
182,192,12053,128,0,12190:0:0:0:0:
36,192,12053,1,0,0:0:0:0:
36,192,12190,1,0,0:0:0:0:
109,192,12190,1,0,0:0:0:0:
475,192,12326,128,0,12462:0:0:0:0:
402,192,12462,128,0,12599:0:0:0:0:
182,192,12462,1,0,0:0:0:0:
329,192,12599,128,0,12871:0:0:0:0:
109,192,12599,128,0,13008:0:0:0:0:
256,192,12599,1,0,0:0:0:0:
256,192,12735,1,0,0:0:0:0:
402,192,12871,128,0,13008:0:0:0:0:
475,192,13008,128,0,13144:0:0:0:0:
256,192,13008,128,0,13280:0:0:0:0:
182,192,13008,128,0,13280:0:0:0:0:
329,192,13144,1,0,0:0:0:0:
329,192,13280,1,0,0:0:0:0:
36,192,13280,128,0,13417:0:0:0:0:
475,192,13280,1,0,0:0:0:0:
109,192,13417,128,0,13553:0:0:0:0:
182,192,13553,128,0,13690:0:0:0:0:
329,192,13553,128,0,13690:0:0:0:0:
256,192,13690,128,0,13962:0:0:0:0:
36,192,13690,1,0,0:0:0:0:
402,192,13690,128,0,13962:0:0:0:0:
475,192,13690,128,0,13962:0:0:0:0:
36,192,13826,1,0,0:0:0:0:
182,192,13962,128,0,14099:0:0:0:0:
329,192,13962,128,0,14099:0:0:0:0:
109,192,14099,128,0,14235:0:0:0:0:
36,192,14235,128,0,14508:0:0:0:0:
402,192,14235,128,0,14508:0:0:0:0:
475,192,14235,128,0,14508:0:0:0:0:
256,192,14235,1,0,0:0:0:0:
256,192,14371,1,0,0:0:0:0:
109,192,14508,128,0,14644:0:0:0:0:
329,192,14508,128,0,14644:0:0:0:0:
182,192,14644,128,0,14780:0:0:0:0:
256,192,14780,128,0,15326:0:0:0:0:
475,192,14780,128,0,15326:0:0:0:0:
36,192,14780,128,0,15326:0:0:0:0:
402,192,14780,1,0,0:0:0:0:
402,192,14917,1,0,0:0:0:0:
182,192,15190,1,0,0:0:0:0:
329,192,15326,1,0,0:0:0:0:
475,192,15462,1,0,0:0:0:0:
36,192,15462,1,0,0:0:0:0:
329,192,15462,1,0,0:0:0:0:
109,192,15462,128,0,15599:0:0:0:0:
182,192,15599,128,0,15735:0:0:0:0:
256,192,15735,128,0,15871:0:0:0:0:
402,192,15735,1,0,0:0:0:0:
329,192,15871,128,0,16008:0:0:0:0:
475,192,15871,128,0,16008:0:0:0:0:
109,192,15871,1,0,0:0:0:0:
109,192,16008,1,0,0:0:0:0:
36,192,16008,1,0,0:0:0:0:
256,192,16144,128,0,16280:0:0:0:0:
402,192,16144,128,0,16280:0:0:0:0:
182,192,16280,128,0,16417:0:0:0:0:
36,192,16280,1,0,0:0:0:0:
109,192,16417,128,0,16553:0:0:0:0:
329,192,16417,128,0,16553:0:0:0:0:
475,192,16417,1,0,0:0:0:0:
475,192,16553,1,0,0:0:0:0:
402,192,16553,1,0,0:0:0:0:
36,192,16690,128,0,16826:0:0:0:0:
109,192,16826,128,0,16962:0:0:0:0:
329,192,16826,1,0,0:0:0:0:
182,192,16962,128,0,17235:0:0:0:0:
256,192,16962,1,0,0:0:0:0:
402,192,16962,128,0,17235:0:0:0:0:
256,192,17099,1,0,0:0:0:0:
109,192,17235,128,0,17371:0:0:0:0:
36,192,17371,128,0,17508:0:0:0:0:
475,192,17371,1,0,0:0:0:0:
329,192,17371,128,0,17508:0:0:0:0:
182,192,17508,1,0,0:0:0:0:
182,192,17644,1,0,0:0:0:0:
402,192,17644,1,0,0:0:0:0:
475,192,17644,1,0,0:0:0:0:
36,192,17644,1,0,0:0:0:0:
256,192,17780,1,0,0:0:0:0:
402,192,17780,128,0,18053:0:0:0:0:
475,192,17780,128,0,18053:0:0:0:0:
256,192,17917,1,0,0:0:0:0:
329,192,18053,1,0,0:0:0:0:
182,192,18053,1,0,0:0:0:0:
109,192,18053,128,0,18326:0:0:0:0:
36,192,18053,128,0,18326:0:0:0:0:
256,192,18326,1,0,0:0:0:0:
402,192,18326,128,0,18462:0:0:0:0:
329,192,18462,128,0,18599:0:0:0:0:
402,192,18599,128,0,18735:0:0:0:0:
182,192,18599,1,0,0:0:0:0:
109,192,18735,1,0,0:0:0:0:
36,192,18735,1,0,0:0:0:0:
329,192,18735,1,0,0:0:0:0:
475,192,18735,1,0,0:0:0:0:
256,192,18871,1,0,0:0:0:0:
109,192,18871,128,0,19690:0:0:0:0:
36,192,18871,128,0,19690:0:0:0:0:
256,192,19008,1,0,0:0:0:0:
182,192,19144,1,0,0:0:0:0:
329,192,19144,1,0,0:0:0:0:
402,192,19144,128,0,19690:0:0:0:0:
475,192,19144,128,0,19690:0:0:0:0:
256,192,19417,1,0,0:0:0:0:
256,192,19553,1,0,0:0:0:0:
256,192,19690,1,0,0:0:0:0:
182,192,19826,128,0,19962:0:0:0:0:
36,192,19826,128,0,19962:0:0:0:0:
402,192,19826,1,0,0:0:0:0:
475,192,19826,1,0,0:0:0:0:
109,192,19962,128,0,20099:0:0:0:0:
256,192,19962,128,0,20099:0:0:0:0:
182,192,20099,128,0,20235:0:0:0:0:
329,192,20099,128,0,20235:0:0:0:0:
475,192,20099,1,0,0:0:0:0:
256,192,20235,128,0,20371:0:0:0:0:
402,192,20235,128,0,20371:0:0:0:0:
36,192,20235,1,0,0:0:0:0:
36,192,20371,1,0,0:0:0:0:
329,192,20508,128,0,20644:0:0:0:0:
182,192,20508,128,0,20644:0:0:0:0:
402,192,20644,128,0,20780:0:0:0:0:
256,192,20644,128,0,20780:0:0:0:0:
36,192,20644,1,0,0:0:0:0:
475,192,20780,128,0,20917:0:0:0:0:
329,192,20780,128,0,20917:0:0:0:0:
109,192,20780,1,0,0:0:0:0:
109,192,20917,1,0,0:0:0:0:
475,192,21053,128,0,21190:0:0:0:0:
329,192,21053,128,0,21190:0:0:0:0:
256,192,21190,128,0,21326:0:0:0:0:
402,192,21190,128,0,21326:0:0:0:0:
109,192,21190,1,0,0:0:0:0:
329,192,21326,128,0,21599:0:0:0:0:
182,192,21326,128,0,21599:0:0:0:0:
36,192,21326,1,0,0:0:0:0:
475,192,21462,1,0,0:0:0:0:
36,192,21462,128,0,21735:0:0:0:0:
256,192,21599,128,0,21735:0:0:0:0:
402,192,21599,128,0,21735:0:0:0:0:
329,192,21735,128,0,21871:0:0:0:0:
475,192,21735,128,0,21871:0:0:0:0:
109,192,21735,1,0,0:0:0:0:
182,192,21871,1,0,0:0:0:0:
182,192,22008,1,0,0:0:0:0:
256,192,22008,128,0,22144:0:0:0:0:
36,192,22008,128,0,22144:0:0:0:0:
475,192,22008,128,0,22144:0:0:0:0:
109,192,22144,128,0,22280:0:0:0:0:
329,192,22144,128,0,22280:0:0:0:0:
402,192,22280,128,0,22417:0:0:0:0:
182,192,22280,128,0,22417:0:0:0:0:
36,192,22280,1,0,0:0:0:0:
256,192,22417,128,0,22690:0:0:0:0:
475,192,22417,128,0,22690:0:0:0:0:
109,192,22417,1,0,0:0:0:0:
109,192,22553,1,0,0:0:0:0:
182,192,22690,128,0,22826:0:0:0:0:
402,192,22690,128,0,22826:0:0:0:0:
329,192,22826,128,0,22962:0:0:0:0:
109,192,22826,128,0,22962:0:0:0:0:
475,192,22826,1,0,0:0:0:0:
256,192,22962,128,0,23235:0:0:0:0:
36,192,22962,128,0,23235:0:0:0:0:
402,192,22962,1,0,0:0:0:0:
402,192,23099,1,0,0:0:0:0:
329,192,23235,128,0,23371:0:0:0:0:
402,192,23371,128,0,23508:0:0:0:0:
109,192,23371,1,0,0:0:0:0:
182,192,23440,1,0,0:0:0:0:
475,192,23508,128,0,23917:0:0:0:0:
256,192,23508,1,0,0:0:0:0:
36,192,23508,1,0,0:0:0:0:
329,192,23576,1,0,0:0:0:0:
36,192,23644,128,0,23917:0:0:0:0:
402,192,23644,1,0,0:0:0:0:
109,192,23712,1,0,0:0:0:0:
256,192,23780,1,0,0:0:0:0:
402,192,23849,1,0,0:0:0:0:
182,192,23917,1,0,0:0:0:0:
329,192,23985,1,0,0:0:0:0:
109,192,24053,1,0,0:0:0:0:
475,192,24053,1,0,0:0:0:0:
256,192,24121,1,0,0:0:0:0:
329,192,24190,128,0,24326:0:0:0:0:
475,192,24190,128,0,24326:0:0:0:0:
182,192,24190,1,0,0:0:0:0:
36,192,24190,1,0,0:0:0:0:
402,192,24326,128,0,24462:0:0:0:0:
256,192,24326,128,0,24462:0:0:0:0:
329,192,24462,128,0,24599:0:0:0:0:
182,192,24462,128,0,24599:0:0:0:0:
36,192,24462,1,0,0:0:0:0:
256,192,24599,128,0,24735:0:0:0:0:
109,192,24599,128,0,24735:0:0:0:0:
475,192,24599,1,0,0:0:0:0:
475,192,24735,1,0,0:0:0:0:
182,192,24871,128,0,25008:0:0:0:0:
329,192,24871,128,0,25008:0:0:0:0:
109,192,25008,128,0,25144:0:0:0:0:
256,192,25008,128,0,25144:0:0:0:0:
475,192,25008,1,0,0:0:0:0:
36,192,25144,128,0,25280:0:0:0:0:
182,192,25144,128,0,25280:0:0:0:0:
402,192,25144,1,0,0:0:0:0:
402,192,25280,1,0,0:0:0:0:
36,192,25417,128,0,25553:0:0:0:0:
182,192,25417,128,0,25553:0:0:0:0:
256,192,25553,128,0,25690:0:0:0:0:
109,192,25553,128,0,25690:0:0:0:0:
402,192,25553,1,0,0:0:0:0:
182,192,25690,128,0,25962:0:0:0:0:
329,192,25690,128,0,25962:0:0:0:0:
475,192,25690,1,0,0:0:0:0:
36,192,25826,1,0,0:0:0:0:
475,192,25826,128,0,26099:0:0:0:0:
256,192,25962,128,0,26099:0:0:0:0:
109,192,25962,128,0,26099:0:0:0:0:
182,192,26099,128,0,26235:0:0:0:0:
36,192,26099,128,0,26235:0:0:0:0:
402,192,26099,1,0,0:0:0:0:
329,192,26235,1,0,0:0:0:0:
329,192,26371,1,0,0:0:0:0:
182,192,26371,1,0,0:0:0:0:
36,192,26371,1,0,0:0:0:0:
475,192,26371,1,0,0:0:0:0:
256,192,26508,1,0,0:0:0:0:
182,192,26508,128,0,26780:0:0:0:0:
36,192,26508,128,0,26780:0:0:0:0:
256,192,26644,1,0,0:0:0:0:
109,192,26780,1,0,0:0:0:0:
402,192,26780,1,0,0:0:0:0:
329,192,26780,128,0,27053:0:0:0:0:
475,192,26780,128,0,27053:0:0:0:0:
256,192,27053,1,0,0:0:0:0:
109,192,27053,128,0,27190:0:0:0:0:
182,192,27190,128,0,27326:0:0:0:0:
109,192,27326,128,0,27462:0:0:0:0:
256,192,27326,1,0,0:0:0:0:
329,192,27462,1,0,0:0:0:0:
475,192,27462,1,0,0:0:0:0:
182,192,27462,1,0,0:0:0:0:
36,192,27462,1,0,0:0:0:0:
256,192,27599,1,0,0:0:0:0:
329,192,27599,128,0,28417:0:0:0:0:
475,192,27599,128,0,28417:0:0:0:0:
256,192,27735,1,0,0:0:0:0:
109,192,27871,1,0,0:0:0:0:
182,192,27871,128,0,28417:0:0:0:0:
36,192,27871,128,0,28417:0:0:0:0:
402,192,27871,1,0,0:0:0:0:
256,192,28144,1,0,0:0:0:0:
256,192,28280,1,0,0:0:0:0:
256,192,28417,1,0,0:0:0:0:
475,192,28553,128,0,28826:0:0:0:0:
36,192,28553,1,0,0:0:0:0:
402,192,28553,1,0,0:0:0:0:
109,192,28553,128,0,28826:0:0:0:0:
329,192,28690,128,0,28962:0:0:0:0:
182,192,28826,128,0,29099:0:0:0:0:
256,192,28826,1,0,0:0:0:0:
36,192,28962,128,0,29099:0:0:0:0:
402,192,28962,1,0,0:0:0:0:
402,192,29099,1,0,0:0:0:0:
256,192,29099,1,0,0:0:0:0:
109,192,29235,128,0,29644:0:0:0:0:
256,192,29371,128,0,29780:0:0:0:0:
475,192,29371,1,0,0:0:0:0:
402,192,29508,128,0,29780:0:0:0:0:
182,192,29508,1,0,0:0:0:0:
182,192,29644,1,0,0:0:0:0:
36,192,29644,1,0,0:0:0:0:
329,192,29780,128,0,30053:0:0:0:0:
182,192,29917,128,0,30190:0:0:0:0:
475,192,29917,1,0,0:0:0:0:
36,192,30053,128,0,30462:0:0:0:0:
402,192,30053,1,0,0:0:0:0:
402,192,30190,1,0,0:0:0:0:
256,192,30190,1,0,0:0:0:0:
109,192,30326,128,0,30599:0:0:0:0:
182,192,30462,128,0,30599:0:0:0:0:
329,192,30462,1,0,0:0:0:0:
402,192,30599,1,0,0:0:0:0:
36,192,30735,128,0,31008:0:0:0:0:
256,192,30735,1,0,0:0:0:0:
402,192,30735,1,0,0:0:0:0:
182,192,30871,128,0,31144:0:0:0:0:
329,192,31008,128,0,31280:0:0:0:0:
109,192,31008,1,0,0:0:0:0:
475,192,31144,128,0,31280:0:0:0:0:
256,192,31144,1,0,0:0:0:0:
256,192,31280,1,0,0:0:0:0:
36,192,31280,1,0,0:0:0:0:
402,192,31417,128,0,31690:0:0:0:0:
329,192,31553,128,0,31826:0:0:0:0:
182,192,31553,1,0,0:0:0:0:
256,192,31690,128,0,32508:0:0:0:0:
109,192,31690,1,0,0:0:0:0:
36,192,31826,1,0,0:0:0:0:
109,192,31826,128,0,32235:0:0:0:0:
329,192,32099,1,0,0:0:0:0:
402,192,32235,1,0,0:0:0:0:
402,192,32371,1,0,0:0:0:0:
475,192,32371,1,0,0:0:0:0:
182,192,32508,128,0,32644:0:0:0:0:
36,192,32644,1,0,0:0:0:0:
402,192,32780,1,0,0:0:0:0:
182,192,32780,128,0,32917:0:0:0:0:
36,192,32917,128,0,33190:0:0:0:0:
475,192,32917,1,0,0:0:0:0:
109,192,32917,1,0,0:0:0:0:
402,192,32917,128,0,33190:0:0:0:0:
182,192,33053,128,0,33326:0:0:0:0:
329,192,33190,128,0,33462:0:0:0:0:
256,192,33190,1,0,0:0:0:0:
475,192,33326,128,0,33462:0:0:0:0:
109,192,33326,1,0,0:0:0:0:
109,192,33462,1,0,0:0:0:0:
256,192,33462,1,0,0:0:0:0:
402,192,33599,128,0,34008:0:0:0:0:
256,192,33735,128,0,34008:0:0:0:0:
36,192,33735,1,0,0:0:0:0:
109,192,33871,128,0,34008:0:0:0:0:
329,192,33871,1,0,0:0:0:0:
329,192,34008,1,0,0:0:0:0:
475,192,34008,1,0,0:0:0:0:
182,192,34144,128,0,34417:0:0:0:0:
329,192,34280,128,0,34553:0:0:0:0:
36,192,34280,1,0,0:0:0:0:
475,192,34417,128,0,34826:0:0:0:0:
109,192,34417,1,0,0:0:0:0:
109,192,34553,1,0,0:0:0:0:
256,192,34553,1,0,0:0:0:0:
402,192,34690,128,0,34962:0:0:0:0:
329,192,34826,128,0,34962:0:0:0:0:
182,192,34826,1,0,0:0:0:0:
109,192,34962,1,0,0:0:0:0:
475,192,35099,128,0,35371:0:0:0:0:
256,192,35099,1,0,0:0:0:0:
109,192,35099,1,0,0:0:0:0:
329,192,35235,128,0,35508:0:0:0:0:
182,192,35371,128,0,35644:0:0:0:0:
402,192,35371,1,0,0:0:0:0:
36,192,35508,128,0,35644:0:0:0:0:
256,192,35508,1,0,0:0:0:0:
256,192,35644,1,0,0:0:0:0:
475,192,35644,1,0,0:0:0:0:
109,192,35780,128,0,36053:0:0:0:0:
182,192,35917,128,0,36190:0:0:0:0:
329,192,35917,1,0,0:0:0:0:
256,192,36053,128,0,36871:0:0:0:0:
402,192,36053,1,0,0:0:0:0:
475,192,36190,1,0,0:0:0:0:
402,192,36190,128,0,36462:0:0:0:0:
109,192,36326,128,0,36462:0:0:0:0:
329,192,36462,1,0,0:0:0:0:
36,192,36599,1,0,0:0:0:0:
36,192,36735,128,0,36871:0:0:0:0:
475,192,36735,1,0,0:0:0:0:
109,192,36871,128,0,37008:0:0:0:0:
182,192,37008,128,0,37144:0:0:0:0:
256,192,37008,1,0,0:0:0:0:
329,192,37144,128,0,37280:0:0:0:0:
475,192,37144,1,0,0:0:0:0:
256,192,37280,128,0,37417:0:0:0:0:
109,192,37280,1,0,0:0:0:0:
36,192,37280,1,0,0:0:0:0:
475,192,37280,128,0,37417:0:0:0:0:
402,192,37417,128,0,37553:0:0:0:0:
182,192,37417,128,0,37553:0:0:0:0:
329,192,37553,128,0,37690:0:0:0:0:
109,192,37553,128,0,37690:0:0:0:0:
256,192,37690,128,0,37826:0:0:0:0:
36,192,37690,128,0,37826:0:0:0:0:
475,192,37690,1,0,0:0:0:0:
182,192,37826,128,0,37962:0:0:0:0:
402,192,37826,128,0,37962:0:0:0:0:
475,192,37826,1,0,0:0:0:0:
329,192,37962,128,0,38099:0:0:0:0:
109,192,37962,128,0,38099:0:0:0:0:
256,192,38099,128,0,38235:0:0:0:0:
475,192,38099,128,0,38235:0:0:0:0:
182,192,38235,128,0,38371:0:0:0:0:
36,192,38235,1,0,0:0:0:0:
402,192,38235,128,0,38371:0:0:0:0:
36,192,38371,1,0,0:0:0:0:
109,192,38508,128,0,38644:0:0:0:0:
329,192,38508,128,0,38644:0:0:0:0:
402,192,38644,128,0,38780:0:0:0:0:
182,192,38644,128,0,38780:0:0:0:0:
475,192,38780,128,0,39053:0:0:0:0:
256,192,38780,128,0,39053:0:0:0:0:
109,192,38780,1,0,0:0:0:0:
109,192,38917,1,0,0:0:0:0:
402,192,39053,128,0,39190:0:0:0:0:
182,192,39053,128,0,39190:0:0:0:0:
109,192,39190,128,0,39326:0:0:0:0:
329,192,39190,128,0,39326:0:0:0:0:
402,192,39326,1,0,0:0:0:0:
402,192,39462,1,0,0:0:0:0:
256,192,39462,128,0,39599:0:0:0:0:
36,192,39462,128,0,39599:0:0:0:0:
329,192,39599,128,0,39735:0:0:0:0:
109,192,39599,128,0,39735:0:0:0:0:
402,192,39735,128,0,39871:0:0:0:0:
182,192,39735,128,0,39871:0:0:0:0:
256,192,39871,128,0,40144:0:0:0:0:
475,192,39871,128,0,40144:0:0:0:0:
36,192,39871,1,0,0:0:0:0:
36,192,40008,1,0,0:0:0:0:
402,192,40144,128,0,40280:0:0:0:0:
182,192,40144,128,0,40280:0:0:0:0:
329,192,40280,128,0,40417:0:0:0:0:
109,192,40280,128,0,40417:0:0:0:0:
256,192,40417,128,0,41371:0:0:0:0:
36,192,40417,128,0,41371:0:0:0:0:
475,192,40417,1,0,0:0:0:0:
402,192,40553,1,0,0:0:0:0:
475,192,40553,128,0,41371:0:0:0:0:
329,192,40690,1,0,0:0:0:0:
182,192,40826,1,0,0:0:0:0:
402,192,40962,1,0,0:0:0:0:
109,192,40962,1,0,0:0:0:0:
402,192,41099,1,0,0:0:0:0:
109,192,41099,1,0,0:0:0:0:
182,192,41235,1,0,0:0:0:0:
329,192,41371,1,0,0:0:0:0:
402,192,41508,1,0,0:0:0:0:
256,192,41644,128,0,41780:0:0:0:0:
402,192,41644,1,0,0:0:0:0:
475,192,41644,1,0,0:0:0:0:
36,192,41644,128,0,41780:0:0:0:0:
109,192,41780,128,0,41917:0:0:0:0:
329,192,41780,128,0,41917:0:0:0:0:
182,192,41917,128,0,42053:0:0:0:0:
402,192,41917,128,0,42053:0:0:0:0:
256,192,42053,128,0,42190:0:0:0:0:
475,192,42053,128,0,42190:0:0:0:0:
36,192,42053,1,0,0:0:0:0:
329,192,42190,128,0,42326:0:0:0:0:
109,192,42190,128,0,42326:0:0:0:0:
36,192,42190,1,0,0:0:0:0:
182,192,42326,128,0,42462:0:0:0:0:
402,192,42326,128,0,42462:0:0:0:0:
256,192,42462,128,0,42599:0:0:0:0:
36,192,42462,128,0,42599:0:0:0:0:
329,192,42599,128,0,42735:0:0:0:0:
475,192,42599,1,0,0:0:0:0:
109,192,42599,128,0,42735:0:0:0:0:
475,192,42735,1,0,0:0:0:0:
402,192,42871,128,0,43008:0:0:0:0:
182,192,42871,128,0,43008:0:0:0:0:
109,192,43008,128,0,43144:0:0:0:0:
329,192,43008,128,0,43144:0:0:0:0:
36,192,43144,128,0,43417:0:0:0:0:
256,192,43144,128,0,43417:0:0:0:0:
402,192,43144,1,0,0:0:0:0:
402,192,43280,1,0,0:0:0:0:
109,192,43417,128,0,43553:0:0:0:0:
329,192,43417,128,0,43553:0:0:0:0:
402,192,43553,128,0,43690:0:0:0:0:
182,192,43553,128,0,43690:0:0:0:0:
109,192,43690,1,0,0:0:0:0:
475,192,43826,1,0,0:0:0:0:
402,192,43826,1,0,0:0:0:0:
36,192,43826,128,0,44099:0:0:0:0:
182,192,43826,1,0,0:0:0:0:
109,192,43826,128,0,44099:0:0:0:0:
329,192,43962,1,0,0:0:0:0:
256,192,44099,1,0,0:0:0:0:
36,192,44235,1,0,0:0:0:0:
256,192,44235,1,0,0:0:0:0:
475,192,44235,128,0,44508:0:0:0:0:
402,192,44235,128,0,44508:0:0:0:0:
329,192,44235,1,0,0:0:0:0:
109,192,44371,1,0,0:0:0:0:
182,192,44508,1,0,0:0:0:0:
256,192,44644,1,0,0:0:0:0:
36,192,44644,128,0,44916:0:0:0:0:
109,192,44644,128,0,44916:0:0:0:0:
182,192,44644,1,0,0:0:0:0:
475,192,44644,1,0,0:0:0:0:
402,192,44780,1,0,0:0:0:0:
329,192,44916,1,0,0:0:0:0:
329,192,45053,1,0,0:0:0:0:
475,192,45189,128,0,45325:0:0:0:0:
36,192,45189,128,0,45325:0:0:0:0:
402,192,45189,128,0,45325:0:0:0:0:
109,192,45189,128,0,45325:0:0:0:0:
256,192,45189,1,0,0:0:0:0:
329,192,45325,1,0,0:0:0:0:
182,192,45325,1,0,0:0:0:0:
182,192,45462,1,0,0:0:0:0:
329,192,45462,1,0,0:0:0:0:
402,192,45598,1,0,0:0:0:0:
475,192,45598,1,0,0:0:0:0:
109,192,45598,1,0,0:0:0:0:
36,192,45598,1,0,0:0:0:0:
256,192,45598,128,0,47371:0:0:0:0:
182,192,45734,1,0,0:0:0:0:
329,192,45871,1,0,0:0:0:0:
182,192,46007,1,0,0:0:0:0:
402,192,46144,1,0,0:0:0:0:
475,192,46144,1,0,0:0:0:0:
402,192,46553,1,0,0:0:0:0:
475,192,46553,1,0,0:0:0:0:
182,192,46689,1,0,0:0:0:0:
329,192,46825,1,0,0:0:0:0:
182,192,46962,1,0,0:0:0:0:
329,192,47098,1,0,0:0:0:0:
109,192,47234,1,0,0:0:0:0:
36,192,47234,1,0,0:0:0:0:
402,192,47507,128,0,47644:0:0:0:0:
36,192,47644,1,0,0:0:0:0:
109,192,47644,1,0,0:0:0:0:
329,192,47644,128,0,47780:0:0:0:0:
256,192,47780,128,0,47916:0:0:0:0:
329,192,47916,1,0,0:0:0:0:
402,192,47916,1,0,0:0:0:0:
475,192,47916,1,0,0:0:0:0:
36,192,47916,128,0,48053:0:0:0:0:
109,192,48053,128,0,48189:0:0:0:0:
182,192,48189,128,0,48325:0:0:0:0:
475,192,48189,1,0,0:0:0:0:
402,192,48189,1,0,0:0:0:0:
256,192,48325,128,0,48462:0:0:0:0:
475,192,48462,1,0,0:0:0:0:
329,192,48598,128,0,48734:0:0:0:0:
182,192,48734,128,0,48871:0:0:0:0:
475,192,48734,1,0,0:0:0:0:
402,192,48734,1,0,0:0:0:0:
36,192,48871,128,0,49007:0:0:0:0:
475,192,49007,1,0,0:0:0:0:
36,192,49144,128,0,49280:0:0:0:0:
109,192,49280,128,0,49416:0:0:0:0:
402,192,49280,1,0,0:0:0:0:
475,192,49280,1,0,0:0:0:0:
182,192,49416,128,0,49689:0:0:0:0:
329,192,49416,128,0,49825:0:0:0:0:
475,192,49553,1,0,0:0:0:0:
109,192,49689,128,0,49825:0:0:0:0:
36,192,49825,128,0,49962:0:0:0:0:
256,192,49825,128,0,50098:0:0:0:0:
402,192,49825,1,0,0:0:0:0:
475,192,49825,1,0,0:0:0:0:
36,192,50098,128,0,50234:0:0:0:0:
475,192,50098,1,0,0:0:0:0:
109,192,50234,128,0,50371:0:0:0:0:
182,192,50371,128,0,50507:0:0:0:0:
402,192,50371,1,0,0:0:0:0:
475,192,50371,1,0,0:0:0:0:
256,192,50507,128,0,50780:0:0:0:0:
475,192,50644,1,0,0:0:0:0:
182,192,50780,128,0,50916:0:0:0:0:
109,192,50916,128,0,51053:0:0:0:0:
475,192,50916,1,0,0:0:0:0:
402,192,50916,1,0,0:0:0:0:
36,192,51053,128,0,51325:0:0:0:0:
475,192,51189,1,0,0:0:0:0:
109,192,51325,128,0,51462:0:0:0:0:
182,192,51462,128,0,51598:0:0:0:0:
402,192,51462,1,0,0:0:0:0:
475,192,51462,1,0,0:0:0:0:
256,192,51598,128,0,52144:0:0:0:0:
36,192,51598,128,0,52144:0:0:0:0:
475,192,51734,1,0,0:0:0:0:
402,192,52007,1,0,0:0:0:0:
475,192,52007,1,0,0:0:0:0:
475,192,52280,128,0,52416:0:0:0:0:
36,192,52280,1,0,0:0:0:0:
182,192,52280,1,0,0:0:0:0:
402,192,52416,128,0,52553:0:0:0:0:
329,192,52553,128,0,52689:0:0:0:0:
36,192,52553,1,0,0:0:0:0:
109,192,52553,1,0,0:0:0:0:
256,192,52689,128,0,52825:0:0:0:0:
36,192,52825,1,0,0:0:0:0:
182,192,52962,128,0,53098:0:0:0:0:
329,192,53098,128,0,53234:0:0:0:0:
36,192,53098,1,0,0:0:0:0:
109,192,53098,1,0,0:0:0:0:
475,192,53234,128,0,53371:0:0:0:0:
36,192,53371,1,0,0:0:0:0:
475,192,53507,128,0,53644:0:0:0:0:
402,192,53644,128,0,53780:0:0:0:0:
109,192,53644,1,0,0:0:0:0:
36,192,53644,1,0,0:0:0:0:
329,192,53780,128,0,54053:0:0:0:0:
182,192,53780,128,0,54189:0:0:0:0:
36,192,53916,1,0,0:0:0:0:
402,192,54053,128,0,54189:0:0:0:0:
475,192,54189,128,0,54325:0:0:0:0:
109,192,54189,1,0,0:0:0:0:
36,192,54189,1,0,0:0:0:0:
256,192,54325,1,0,0:0:0:0:
109,192,54462,1,0,0:0:0:0:
329,192,54462,1,0,0:0:0:0:
475,192,54462,1,0,0:0:0:0:
36,192,54462,1,0,0:0:0:0:
182,192,54598,1,0,0:0:0:0:
329,192,54598,128,0,54871:0:0:0:0:
475,192,54598,128,0,54871:0:0:0:0:
182,192,54734,1,0,0:0:0:0:
402,192,54871,1,0,0:0:0:0:
256,192,54871,1,0,0:0:0:0:
109,192,54871,128,0,55144:0:0:0:0:
36,192,54871,128,0,55144:0:0:0:0:
329,192,55007,1,0,0:0:0:0:
256,192,55144,1,0,0:0:0:0:
402,192,55280,1,0,0:0:0:0:
182,192,55280,1,0,0:0:0:0:
36,192,55280,1,0,0:0:0:0:
475,192,55280,1,0,0:0:0:0:
329,192,55416,1,0,0:0:0:0:
182,192,55416,128,0,55689:0:0:0:0:
36,192,55416,128,0,56234:0:0:0:0:
329,192,55553,1,0,0:0:0:0:
256,192,55689,1,0,0:0:0:0:
109,192,55689,128,0,56234:0:0:0:0:
402,192,55689,128,0,56234:0:0:0:0:
475,192,55689,128,0,56234:0:0:0:0:
329,192,55825,1,0,0:0:0:0:
256,192,55962,1,0,0:0:0:0:
182,192,56098,1,0,0:0:0:0:
256,192,56234,1,0,0:0:0:0:
256,192,56371,1,0,0:0:0:0:
256,192,56507,1,0,0:0:0:0:
329,192,56644,1,0,0:0:0:0:
475,192,56644,1,0,0:0:0:0:
182,192,56644,1,0,0:0:0:0:
36,192,56644,128,0,56780:0:0:0:0:
256,192,56780,1,0,0:0:0:0:
182,192,56848,1,0,0:0:0:0:
109,192,56916,128,0,57053:0:0:0:0:
402,192,56916,1,0,0:0:0:0:
256,192,57053,128,0,57325:0:0:0:0:
475,192,57053,1,0,0:0:0:0:
36,192,57189,1,0,0:0:0:0:
475,192,57189,1,0,0:0:0:0:
109,192,57325,1,0,0:0:0:0:
182,192,57394,1,0,0:0:0:0:
256,192,57462,1,0,0:0:0:0:
475,192,57462,1,0,0:0:0:0:
329,192,57530,1,0,0:0:0:0:
402,192,57598,128,0,57734:0:0:0:0:
36,192,57598,1,0,0:0:0:0:
36,192,57734,1,0,0:0:0:0:
475,192,57734,1,0,0:0:0:0:
329,192,57803,1,0,0:0:0:0:
182,192,57871,128,0,58007:0:0:0:0:
109,192,58007,128,0,58144:0:0:0:0:
402,192,58007,1,0,0:0:0:0:
36,192,58144,128,0,58416:0:0:0:0:
475,192,58144,128,0,58553:0:0:0:0:
256,192,58144,1,0,0:0:0:0:
329,192,58280,1,0,0:0:0:0:
256,192,58280,1,0,0:0:0:0:
109,192,58416,128,0,58553:0:0:0:0:
182,192,58553,128,0,58689:0:0:0:0:
329,192,58553,128,0,58689:0:0:0:0:
402,192,58553,1,0,0:0:0:0:
256,192,58689,1,0,0:0:0:0:
475,192,58825,1,0,0:0:0:0:
36,192,58825,1,0,0:0:0:0:
256,192,58825,1,0,0:0:0:0:
109,192,58894,1,0,0:0:0:0:
182,192,58962,1,0,0:0:0:0:
329,192,59030,1,0,0:0:0:0:
402,192,59098,128,0,59234:0:0:0:0:
36,192,59098,1,0,0:0:0:0:
475,192,59234,128,0,59507:0:0:0:0:
182,192,59234,1,0,0:0:0:0:
182,192,59371,128,0,59644:0:0:0:0:
36,192,59371,128,0,59644:0:0:0:0:
402,192,59507,128,0,59644:0:0:0:0:
329,192,59644,128,0,59780:0:0:0:0:
109,192,59644,1,0,0:0:0:0:
256,192,59780,128,0,60053:0:0:0:0:
182,192,59780,1,0,0:0:0:0:
36,192,59916,128,0,60189:0:0:0:0:
182,192,59916,128,0,60189:0:0:0:0:
329,192,60053,128,0,60189:0:0:0:0:
402,192,60189,128,0,60325:0:0:0:0:
109,192,60189,1,0,0:0:0:0:
182,192,60325,1,0,0:0:0:0:
256,192,60325,1,0,0:0:0:0:
36,192,60325,1,0,0:0:0:0:
475,192,60325,128,0,60871:0:0:0:0:
256,192,60598,128,0,60871:0:0:0:0:
182,192,60598,128,0,60871:0:0:0:0:
36,192,60598,128,0,60871:0:0:0:0:
182,192,61007,1,0,0:0:0:0:
36,192,61007,1,0,0:0:0:0:
329,192,61007,1,0,0:0:0:0:
475,192,61007,128,0,61144:0:0:0:0:
256,192,61144,1,0,0:0:0:0:
329,192,61212,1,0,0:0:0:0:
402,192,61280,128,0,61416:0:0:0:0:
109,192,61280,1,0,0:0:0:0:
256,192,61416,128,0,61689:0:0:0:0:
36,192,61416,1,0,0:0:0:0:
475,192,61553,1,0,0:0:0:0:
36,192,61553,1,0,0:0:0:0:
182,192,61621,1,0,0:0:0:0:
402,192,61689,1,0,0:0:0:0:
329,192,61757,1,0,0:0:0:0:
256,192,61825,1,0,0:0:0:0:
36,192,61825,1,0,0:0:0:0:
182,192,61894,1,0,0:0:0:0:
109,192,61962,128,0,62098:0:0:0:0:
475,192,61962,1,0,0:0:0:0:
475,192,62098,1,0,0:0:0:0:
36,192,62098,1,0,0:0:0:0:
182,192,62166,1,0,0:0:0:0:
329,192,62234,128,0,62371:0:0:0:0:
402,192,62371,128,0,62507:0:0:0:0:
109,192,62371,1,0,0:0:0:0:
475,192,62507,128,0,62780:0:0:0:0:
36,192,62507,128,0,62916:0:0:0:0:
256,192,62507,1,0,0:0:0:0:
182,192,62644,1,0,0:0:0:0:
256,192,62644,1,0,0:0:0:0:
402,192,62780,128,0,62916:0:0:0:0:
329,192,62916,128,0,63053:0:0:0:0:
182,192,62916,128,0,63053:0:0:0:0:
109,192,62916,1,0,0:0:0:0:
256,192,63053,1,0,0:0:0:0:
475,192,63189,1,0,0:0:0:0:
256,192,63189,1,0,0:0:0:0:
109,192,63189,1,0,0:0:0:0:
36,192,63189,128,0,63462:0:0:0:0:
182,192,63325,128,0,63462:0:0:0:0:
475,192,63325,1,0,0:0:0:0:
402,192,63394,1,0,0:0:0:0:
109,192,63462,1,0,0:0:0:0:
329,192,63462,128,0,63598:0:0:0:0:
36,192,63598,1,0,0:0:0:0:
182,192,63598,128,0,63734:0:0:0:0:
402,192,63598,1,0,0:0:0:0:
475,192,63598,1,0,0:0:0:0:
256,192,63734,128,0,63871:0:0:0:0:
182,192,63871,1,0,0:0:0:0:
329,192,63871,128,0,64007:0:0:0:0:
256,192,64007,1,0,0:0:0:0:
36,192,64007,1,0,0:0:0:0:
402,192,64007,1,0,0:0:0:0:
475,192,64007,128,0,64280:0:0:0:0:
329,192,64144,128,0,64280:0:0:0:0:
36,192,64144,1,0,0:0:0:0:
109,192,64212,1,0,0:0:0:0:
182,192,64280,1,0,0:0:0:0:
402,192,64280,1,0,0:0:0:0:
109,192,64416,1,0,0:0:0:0:
36,192,64416,128,0,65098:0:0:0:0:
256,192,64416,128,0,65098:0:0:0:0:
475,192,64416,128,0,65098:0:0:0:0:
329,192,64553,1,0,0:0:0:0:
182,192,64621,1,0,0:0:0:0:
329,192,64689,1,0,0:0:0:0:
402,192,64825,1,0,0:0:0:0:
109,192,64962,1,0,0:0:0:0:
329,192,65098,1,0,0:0:0:0:
256,192,65234,1,0,0:0:0:0:
36,192,65371,1,0,0:0:0:0:
182,192,65371,1,0,0:0:0:0:
109,192,65371,1,0,0:0:0:0:
475,192,65371,128,0,65644:0:0:0:0:
329,192,65507,128,0,65780:0:0:0:0:
182,192,65644,128,0,65916:0:0:0:0:
256,192,65644,1,0,0:0:0:0:
36,192,65780,128,0,66053:0:0:0:0:
402,192,65780,1,0,0:0:0:0:
256,192,65916,128,0,66189:0:0:0:0:
402,192,65916,1,0,0:0:0:0:
475,192,65916,1,0,0:0:0:0:
109,192,66053,128,0,66325:0:0:0:0:
329,192,66189,128,0,66462:0:0:0:0:
402,192,66189,1,0,0:0:0:0:
182,192,66325,128,0,66598:0:0:0:0:
256,192,66325,1,0,0:0:0:0:
402,192,66462,128,0,66734:0:0:0:0:
36,192,66462,1,0,0:0:0:0:
256,192,66462,1,0,0:0:0:0:
109,192,66598,128,0,66871:0:0:0:0:
256,192,66734,128,0,67007:0:0:0:0:
329,192,66734,1,0,0:0:0:0:
475,192,66871,128,0,67144:0:0:0:0:
182,192,66871,1,0,0:0:0:0:
36,192,67007,128,0,67280:0:0:0:0:
182,192,67007,1,0,0:0:0:0:
402,192,67007,1,0,0:0:0:0:
109,192,67144,128,0,67416:0:0:0:0:
182,192,67280,128,0,67553:0:0:0:0:
402,192,67280,1,0,0:0:0:0:
256,192,67416,128,0,67689:0:0:0:0:
475,192,67416,1,0,0:0:0:0:
329,192,67553,128,0,67962:0:0:0:0:
475,192,67553,128,0,67962:0:0:0:0:
36,192,67553,1,0,0:0:0:0:
109,192,67825,1,0,0:0:0:0:
36,192,67825,1,0,0:0:0:0:
182,192,67894,1,0,0:0:0:0:
402,192,67962,128,0,68371:0:0:0:0:
256,192,67962,128,0,68371:0:0:0:0:
36,192,68234,1,0,0:0:0:0:
475,192,68234,1,0,0:0:0:0:
109,192,68303,1,0,0:0:0:0:
329,192,68371,128,0,68780:0:0:0:0:
182,192,68371,128,0,68780:0:0:0:0:
475,192,68644,1,0,0:0:0:0:
36,192,68644,1,0,0:0:0:0:
402,192,68712,1,0,0:0:0:0:
256,192,68780,128,0,69189:0:0:0:0:
109,192,68780,128,0,69189:0:0:0:0:
402,192,69053,1,0,0:0:0:0:
475,192,69053,1,0,0:0:0:0:
329,192,69121,1,0,0:0:0:0:
182,192,69189,128,0,69325:0:0:0:0:
36,192,69189,128,0,69325:0:0:0:0:
256,192,69325,128,0,69462:0:0:0:0:
109,192,69325,128,0,69462:0:0:0:0:
182,192,69462,128,0,69598:0:0:0:0:
329,192,69462,128,0,69598:0:0:0:0:
475,192,69462,1,0,0:0:0:0:
256,192,69598,128,0,69734:0:0:0:0:
36,192,69598,1,0,0:0:0:0:
402,192,69598,128,0,69734:0:0:0:0:
36,192,69734,128,0,70007:0:0:0:0:
475,192,69734,1,0,0:0:0:0:
329,192,69734,1,0,0:0:0:0:
182,192,69871,128,0,70144:0:0:0:0:
329,192,70007,128,0,70280:0:0:0:0:
256,192,70007,1,0,0:0:0:0:
475,192,70144,128,0,70416:0:0:0:0:
109,192,70144,1,0,0:0:0:0:
256,192,70280,128,0,70553:0:0:0:0:
109,192,70280,1,0,0:0:0:0:
36,192,70280,1,0,0:0:0:0:
402,192,70416,128,0,70689:0:0:0:0:
182,192,70553,128,0,70825:0:0:0:0:
109,192,70553,1,0,0:0:0:0:
329,192,70689,128,0,70962:0:0:0:0:
256,192,70689,1,0,0:0:0:0:
109,192,70825,128,0,71098:0:0:0:0:
475,192,70825,1,0,0:0:0:0:
256,192,70825,1,0,0:0:0:0:
402,192,70962,128,0,71234:0:0:0:0:
256,192,71098,128,0,71371:0:0:0:0:
182,192,71098,1,0,0:0:0:0:
36,192,71234,128,0,71507:0:0:0:0:
329,192,71234,1,0,0:0:0:0:
475,192,71371,128,0,71644:0:0:0:0:
329,192,71371,1,0,0:0:0:0:
109,192,71371,1,0,0:0:0:0:
402,192,71507,128,0,71780:0:0:0:0:
329,192,71644,128,0,71916:0:0:0:0:
109,192,71644,1,0,0:0:0:0:
256,192,71780,128,0,72053:0:0:0:0:
36,192,71780,1,0,0:0:0:0:
475,192,71916,1,0,0:0:0:0:
36,192,71916,128,0,72189:0:0:0:0:
109,192,71916,1,0,0:0:0:0:
182,192,72053,128,0,72325:0:0:0:0:
402,192,72053,1,0,0:0:0:0:
329,192,72189,128,0,72462:0:0:0:0:
402,192,72189,1,0,0:0:0:0:
109,192,72325,128,0,72598:0:0:0:0:
475,192,72325,1,0,0:0:0:0:
256,192,72462,128,0,72734:0:0:0:0:
402,192,72598,128,0,72871:0:0:0:0:
36,192,72598,1,0,0:0:0:0:
182,192,72734,128,0,73007:0:0:0:0:
329,192,72871,128,0,73144:0:0:0:0:
36,192,72871,1,0,0:0:0:0:
475,192,73007,128,0,73280:0:0:0:0:
109,192,73007,1,0,0:0:0:0:
256,192,73144,128,0,73416:0:0:0:0:
402,192,73144,1,0,0:0:0:0:
36,192,73280,1,0,0:0:0:0:
402,192,73280,1,0,0:0:0:0:
109,192,73348,1,0,0:0:0:0:
182,192,73416,1,0,0:0:0:0:
475,192,73416,1,0,0:0:0:0:
256,192,73484,1,0,0:0:0:0:
329,192,73553,128,0,73825:0:0:0:0:
182,192,73689,128,0,73962:0:0:0:0:
402,192,73825,128,0,74098:0:0:0:0:
256,192,73962,128,0,74098:0:0:0:0:
475,192,74098,1,0,0:0:0:0:
109,192,74098,1,0,0:0:0:0:
329,192,74098,1,0,0:0:0:0:
36,192,74098,128,0,74507:0:0:0:0:
182,192,74234,128,0,74507:0:0:0:0:
329,192,74371,128,0,74507:0:0:0:0:
256,192,74371,1,0,0:0:0:0:
402,192,74507,1,0,0:0:0:0:
109,192,74507,1,0,0:0:0:0:
182,192,74575,1,0,0:0:0:0:
475,192,74644,1,0,0:0:0:0:
256,192,74644,1,0,0:0:0:0:
329,192,74712,1,0,0:0:0:0:
182,192,74780,1,0,0:0:0:0:
36,192,74848,1,0,0:0:0:0:
256,192,74916,1,0,0:0:0:0:
402,192,74916,1,0,0:0:0:0:
109,192,74984,1,0,0:0:0:0:
329,192,75053,1,0,0:0:0:0:
475,192,75053,1,0,0:0:0:0:
182,192,75121,1,0,0:0:0:0:
109,192,75189,128,0,75734:0:0:0:0:
36,192,75189,128,0,75734:0:0:0:0:
402,192,75189,1,0,0:0:0:0:
329,192,75462,1,0,0:0:0:0:
475,192,75462,1,0,0:0:0:0:
402,192,75598,1,0,0:0:0:0:
182,192,75598,1,0,0:0:0:0:
256,192,75666,1,0,0:0:0:0:
402,192,75734,128,0,76144:0:0:0:0:
475,192,75734,128,0,76144:0:0:0:0:
329,192,75734,1,0,0:0:0:0:
182,192,76007,1,0,0:0:0:0:
36,192,76007,1,0,0:0:0:0:
109,192,76144,1,0,0:0:0:0:
329,192,76144,1,0,0:0:0:0:
256,192,76212,1,0,0:0:0:0:
182,192,76280,1,0,0:0:0:0:
36,192,76280,1,0,0:0:0:0:
475,192,76280,1,0,0:0:0:0:
402,192,76348,1,0,0:0:0:0:
329,192,76416,1,0,0:0:0:0:
182,192,76484,1,0,0:0:0:0:
109,192,76553,1,0,0:0:0:0:
402,192,76553,1,0,0:0:0:0:
329,192,76621,1,0,0:0:0:0:
256,192,76689,1,0,0:0:0:0:
36,192,76689,1,0,0:0:0:0:
475,192,76757,1,0,0:0:0:0:
329,192,76825,1,0,0:0:0:0:
109,192,76825,1,0,0:0:0:0:
182,192,76894,1,0,0:0:0:0:
256,192,76962,1,0,0:0:0:0:
402,192,76962,1,0,0:0:0:0:
36,192,77030,1,0,0:0:0:0:
182,192,77098,1,0,0:0:0:0:
329,192,77098,1,0,0:0:0:0:
475,192,77166,1,0,0:0:0:0:
256,192,77234,1,0,0:0:0:0:
109,192,77234,1,0,0:0:0:0:
402,192,77303,1,0,0:0:0:0:
36,192,77371,1,0,0:0:0:0:
475,192,77371,1,0,0:0:0:0:
182,192,77371,128,0,77644:0:0:0:0:
402,192,77507,1,0,0:0:0:0:
329,192,77575,1,0,0:0:0:0:
256,192,77644,128,0,77916:0:0:0:0:
109,192,77644,1,0,0:0:0:0:
475,192,77780,1,0,0:0:0:0:
182,192,77780,1,0,0:0:0:0:
402,192,77848,1,0,0:0:0:0:
329,192,77916,1,0,0:0:0:0:
36,192,77916,1,0,0:0:0:0:
109,192,77984,1,0,0:0:0:0:
182,192,78053,1,0,0:0:0:0:
256,192,78121,1,0,0:0:0:0:
329,192,78189,1,0,0:0:0:0:
475,192,78189,1,0,0:0:0:0:
256,192,78325,1,0,0:0:0:0:
402,192,78325,1,0,0:0:0:0:
329,192,78462,1,0,0:0:0:0:
182,192,78462,1,0,0:0:0:0:
475,192,78462,1,0,0:0:0:0:
109,192,78530,1,0,0:0:0:0:
36,192,78598,1,0,0:0:0:0:
256,192,78666,1,0,0:0:0:0:
182,192,78734,1,0,0:0:0:0:
402,192,78734,1,0,0:0:0:0:
109,192,78803,1,0,0:0:0:0:
329,192,78871,1,0,0:0:0:0:
475,192,78871,1,0,0:0:0:0:
256,192,78939,1,0,0:0:0:0:
182,192,79007,1,0,0:0:0:0:
36,192,79007,1,0,0:0:0:0:
402,192,79075,1,0,0:0:0:0:
329,192,79144,1,0,0:0:0:0:
256,192,79212,1,0,0:0:0:0:
36,192,79280,128,0,79553:0:0:0:0:
182,192,79280,1,0,0:0:0:0:
256,192,79416,1,0,0:0:0:0:
402,192,79416,1,0,0:0:0:0:
182,192,79553,1,0,0:0:0:0:
109,192,79553,1,0,0:0:0:0:
329,192,79553,1,0,0:0:0:0:
402,192,79621,1,0,0:0:0:0:
475,192,79689,1,0,0:0:0:0:
256,192,79757,1,0,0:0:0:0:
109,192,79825,1,0,0:0:0:0:
329,192,79825,1,0,0:0:0:0:
402,192,79894,1,0,0:0:0:0:
36,192,79962,1,0,0:0:0:0:
182,192,79962,1,0,0:0:0:0:
256,192,80030,1,0,0:0:0:0:
475,192,80098,1,0,0:0:0:0:
329,192,80098,1,0,0:0:0:0:
109,192,80166,1,0,0:0:0:0:
182,192,80234,1,0,0:0:0:0:
256,192,80303,1,0,0:0:0:0:
329,192,80371,1,0,0:0:0:0:
475,192,80371,128,0,80644:0:0:0:0:
256,192,80507,1,0,0:0:0:0:
402,192,80507,1,0,0:0:0:0:
329,192,80644,1,0,0:0:0:0:
182,192,80644,1,0,0:0:0:0:
36,192,80644,128,0,81053:0:0:0:0:
109,192,80780,128,0,81053:0:0:0:0:
256,192,80780,1,0,0:0:0:0:
182,192,80916,128,0,81053:0:0:0:0:
256,192,80916,1,0,0:0:0:0:
329,192,81053,1,0,0:0:0:0:
475,192,81053,128,0,81462:0:0:0:0:
402,192,81189,128,0,81462:0:0:0:0:
329,192,81325,128,0,81462:0:0:0:0:
256,192,81325,1,0,0:0:0:0:
36,192,81462,128,0,82553:0:0:0:0:
182,192,81598,128,0,82553:0:0:0:0:
402,192,81598,1,0,0:0:0:0:
329,192,81734,128,0,82553:0:0:0:0:
475,192,81734,128,0,82553:0:0:0:0:
256,192,81734,1,0,0:0:0:0:
402,192,81871,1,0,0:0:0:0:
109,192,82007,1,0,0:0:0:0:
256,192,82144,1,0,0:0:0:0:
109,192,82280,1,0,0:0:0:0:
256,192,82416,1,0,0:0:0:0:
402,192,82553,1,0,0:0:0:0:
256,192,82689,1,0,0:0:0:0:
256,192,83780,128,0,85007:0:0:0:0:
182,192,85007,1,0,0:0:0:0:
475,192,85007,128,0,85144:0:0:0:0:
36,192,85007,128,0,85144:0:0:0:0:
109,192,85007,128,0,85144:0:0:0:0:
402,192,85144,128,0,85280:0:0:0:0:
329,192,85280,128,0,85416:0:0:0:0:
109,192,85280,1,0,0:0:0:0:
256,192,85416,128,0,85553:0:0:0:0:
182,192,85416,1,0,0:0:0:0:
329,192,85553,1,0,0:0:0:0:
182,192,85553,1,0,0:0:0:0:
109,192,85689,128,0,85825:0:0:0:0:
256,192,85689,1,0,0:0:0:0:
402,192,85689,1,0,0:0:0:0:
182,192,85825,128,0,85962:0:0:0:0:
256,192,85962,128,0,86098:0:0:0:0:
36,192,85962,1,0,0:0:0:0:
109,192,85962,1,0,0:0:0:0:
402,192,85962,128,0,86098:0:0:0:0:
475,192,85962,128,0,86098:0:0:0:0:
402,192,86234,128,0,86371:0:0:0:0:
329,192,86371,128,0,86507:0:0:0:0:
182,192,86371,1,0,0:0:0:0:
256,192,86507,128,0,86644:0:0:0:0:
109,192,86507,1,0,0:0:0:0:
36,192,86507,1,0,0:0:0:0:
329,192,86644,1,0,0:0:0:0:
402,192,86644,1,0,0:0:0:0:
475,192,86644,1,0,0:0:0:0:
182,192,86780,1,0,0:0:0:0:
109,192,86780,1,0,0:0:0:0:
36,192,86780,1,0,0:0:0:0:
402,192,86916,1,0,0:0:0:0:
475,192,86916,1,0,0:0:0:0:
256,192,86916,128,0,87121:0:0:0:0:
36,192,87189,1,0,0:0:0:0:
402,192,87189,1,0,0:0:0:0:
182,192,87189,1,0,0:0:0:0:
475,192,87189,1,0,0:0:0:0:
329,192,87257,1,0,0:0:0:0:
109,192,87325,1,0,0:0:0:0:
256,192,87325,1,0,0:0:0:0:
402,192,87394,1,0,0:0:0:0:
182,192,87462,1,0,0:0:0:0:
329,192,87462,1,0,0:0:0:0:
109,192,87530,1,0,0:0:0:0:
36,192,87598,1,0,0:0:0:0:
256,192,87598,1,0,0:0:0:0:
329,192,87666,1,0,0:0:0:0:
182,192,87734,1,0,0:0:0:0:
402,192,87734,1,0,0:0:0:0:
256,192,87803,1,0,0:0:0:0:
109,192,87871,1,0,0:0:0:0:
329,192,87871,1,0,0:0:0:0:
182,192,87939,1,0,0:0:0:0:
402,192,88007,1,0,0:0:0:0:
256,192,88007,1,0,0:0:0:0:
109,192,88075,1,0,0:0:0:0:
475,192,88144,1,0,0:0:0:0:
329,192,88144,1,0,0:0:0:0:
182,192,88212,1,0,0:0:0:0:
109,192,88280,1,0,0:0:0:0:
402,192,88280,1,0,0:0:0:0:
256,192,88348,1,0,0:0:0:0:
182,192,88416,1,0,0:0:0:0:
36,192,88416,1,0,0:0:0:0:
329,192,88484,1,0,0:0:0:0:
109,192,88553,1,0,0:0:0:0:
402,192,88553,1,0,0:0:0:0:
182,192,88621,1,0,0:0:0:0:
475,192,88689,1,0,0:0:0:0:
256,192,88689,1,0,0:0:0:0:
329,192,88757,1,0,0:0:0:0:
402,192,88825,1,0,0:0:0:0:
36,192,88825,1,0,0:0:0:0:
182,192,88894,1,0,0:0:0:0:
329,192,88962,1,0,0:0:0:0:
475,192,88962,1,0,0:0:0:0:
109,192,89030,1,0,0:0:0:0:
256,192,89098,1,0,0:0:0:0:
402,192,89098,1,0,0:0:0:0:
182,192,89234,1,0,0:0:0:0:
329,192,89234,1,0,0:0:0:0:
402,192,89371,128,0,89507:0:0:0:0:
36,192,89371,128,0,89507:0:0:0:0:
475,192,89371,128,0,89507:0:0:0:0:
256,192,89371,1,0,0:0:0:0:
109,192,89507,128,0,89644:0:0:0:0:
182,192,89644,128,0,89780:0:0:0:0:
402,192,89644,1,0,0:0:0:0:
256,192,89780,128,0,89916:0:0:0:0:
329,192,89780,1,0,0:0:0:0:
182,192,89916,1,0,0:0:0:0:
329,192,89916,1,0,0:0:0:0:
402,192,90053,128,0,90189:0:0:0:0:
109,192,90053,1,0,0:0:0:0:
256,192,90053,1,0,0:0:0:0:
329,192,90189,128,0,90325:0:0:0:0:
36,192,90325,128,0,90462:0:0:0:0:
256,192,90325,128,0,90462:0:0:0:0:
109,192,90325,128,0,90462:0:0:0:0:
475,192,90325,1,0,0:0:0:0:
402,192,90325,1,0,0:0:0:0:
109,192,90598,128,0,90734:0:0:0:0:
329,192,90734,1,0,0:0:0:0:
182,192,90734,128,0,90871:0:0:0:0:
256,192,90871,128,0,91007:0:0:0:0:
475,192,90871,1,0,0:0:0:0:
402,192,90871,1,0,0:0:0:0:
182,192,91007,1,0,0:0:0:0:
36,192,91007,128,0,91144:0:0:0:0:
109,192,91007,128,0,91144:0:0:0:0:
329,192,91280,1,0,0:0:0:0:
182,192,91280,1,0,0:0:0:0:
256,192,91280,128,0,91484:0:0:0:0:
329,192,91553,1,0,0:0:0:0:
36,192,91553,1,0,0:0:0:0:
475,192,91553,1,0,0:0:0:0:
109,192,91553,1,0,0:0:0:0:
182,192,91621,1,0,0:0:0:0:
256,192,91689,1,0,0:0:0:0:
402,192,91689,1,0,0:0:0:0:
109,192,91757,1,0,0:0:0:0:
182,192,91825,1,0,0:0:0:0:
329,192,91825,1,0,0:0:0:0:
402,192,91894,1,0,0:0:0:0:
256,192,91962,1,0,0:0:0:0:
475,192,91962,1,0,0:0:0:0:
182,192,92030,1,0,0:0:0:0:
109,192,92098,1,0,0:0:0:0:
329,192,92098,1,0,0:0:0:0:
256,192,92166,1,0,0:0:0:0:
182,192,92234,1,0,0:0:0:0:
402,192,92234,1,0,0:0:0:0:
329,192,92303,1,0,0:0:0:0:
256,192,92371,1,0,0:0:0:0:
109,192,92371,1,0,0:0:0:0:
402,192,92439,1,0,0:0:0:0:
36,192,92507,1,0,0:0:0:0:
182,192,92507,1,0,0:0:0:0:
329,192,92575,1,0,0:0:0:0:
109,192,92644,1,0,0:0:0:0:
402,192,92644,1,0,0:0:0:0:
256,192,92712,1,0,0:0:0:0:
475,192,92780,1,0,0:0:0:0:
329,192,92780,1,0,0:0:0:0:
182,192,92848,1,0,0:0:0:0:
109,192,92916,1,0,0:0:0:0:
402,192,92916,1,0,0:0:0:0:
329,192,92984,1,0,0:0:0:0:
256,192,93053,1,0,0:0:0:0:
36,192,93053,1,0,0:0:0:0:
182,192,93121,1,0,0:0:0:0:
475,192,93189,1,0,0:0:0:0:
109,192,93189,1,0,0:0:0:0:
329,192,93257,1,0,0:0:0:0:
36,192,93325,1,0,0:0:0:0:
182,192,93325,1,0,0:0:0:0:
402,192,93394,1,0,0:0:0:0:
109,192,93462,1,0,0:0:0:0:
256,192,93462,1,0,0:0:0:0:
475,192,93530,1,0,0:0:0:0:
182,192,93598,1,0,0:0:0:0:
329,192,93598,1,0,0:0:0:0:
256,192,93666,1,0,0:0:0:0:
36,192,93734,128,0,93871:0:0:0:0:
475,192,93734,128,0,93871:0:0:0:0:
109,192,93734,128,0,93871:0:0:0:0:
402,192,93734,128,0,93871:0:0:0:0:
256,192,94007,1,0,0:0:0:0:
329,192,94144,128,0,94280:0:0:0:0:
402,192,94144,128,0,94280:0:0:0:0:
182,192,94144,128,0,94280:0:0:0:0:
109,192,94144,128,0,94280:0:0:0:0:
109,192,94416,128,0,94553:0:0:0:0:
36,192,94416,128,0,94553:0:0:0:0:
402,192,94416,128,0,94553:0:0:0:0:
475,192,94416,128,0,94553:0:0:0:0:
256,192,94689,128,0,94825:0:0:0:0:
182,192,94689,128,0,94825:0:0:0:0:
36,192,94689,128,0,94825:0:0:0:0:
329,192,94689,128,0,94825:0:0:0:0:
475,192,94689,128,0,94825:0:0:0:0:
329,192,94962,128,0,95098:0:0:0:0:
182,192,95098,128,0,95234:0:0:0:0:
256,192,95098,1,0,0:0:0:0:
109,192,95234,1,0,0:0:0:0:
36,192,95234,1,0,0:0:0:0:
402,192,95234,1,0,0:0:0:0:
475,192,95234,1,0,0:0:0:0:
329,192,95371,1,0,0:0:0:0:
256,192,95371,1,0,0:0:0:0:
182,192,95371,1,0,0:0:0:0:
109,192,95507,1,0,0:0:0:0:
36,192,95507,1,0,0:0:0:0:
402,192,95507,1,0,0:0:0:0:
475,192,95507,1,0,0:0:0:0:
256,192,95644,1,0,0:0:0:0:
182,192,95644,128,0,95848:0:0:0:0:
329,192,95644,128,0,95848:0:0:0:0:
182,192,95916,1,0,0:0:0:0:
475,192,95916,1,0,0:0:0:0:
36,192,95916,1,0,0:0:0:0:
402,192,95916,1,0,0:0:0:0:
329,192,95984,1,0,0:0:0:0:
109,192,96053,1,0,0:0:0:0:
256,192,96121,1,0,0:0:0:0:
36,192,96189,1,0,0:0:0:0:
182,192,96257,1,0,0:0:0:0:
329,192,96325,1,0,0:0:0:0:
475,192,96325,1,0,0:0:0:0:
109,192,96394,1,0,0:0:0:0:
402,192,96462,1,0,0:0:0:0:
182,192,96530,1,0,0:0:0:0:
475,192,96598,1,0,0:0:0:0:
256,192,96666,1,0,0:0:0:0:
109,192,96734,1,0,0:0:0:0:
36,192,96734,1,0,0:0:0:0:
329,192,96803,1,0,0:0:0:0:
475,192,96871,1,0,0:0:0:0:
256,192,96939,1,0,0:0:0:0:
402,192,97007,1,0,0:0:0:0:
182,192,97075,1,0,0:0:0:0:
329,192,97144,1,0,0:0:0:0:
475,192,97144,1,0,0:0:0:0:
109,192,97212,1,0,0:0:0:0:
402,192,97280,1,0,0:0:0:0:
182,192,97348,1,0,0:0:0:0:
475,192,97416,1,0,0:0:0:0:
256,192,97484,1,0,0:0:0:0:
36,192,97553,1,0,0:0:0:0:
182,192,97553,1,0,0:0:0:0:
329,192,97621,1,0,0:0:0:0:
109,192,97689,1,0,0:0:0:0:
256,192,97757,1,0,0:0:0:0:
36,192,97825,1,0,0:0:0:0:
182,192,97894,1,0,0:0:0:0:
402,192,97962,1,0,0:0:0:0:
109,192,98030,1,0,0:0:0:0:
329,192,98098,1,0,0:0:0:0:
475,192,98098,1,0,0:0:0:0:
182,192,98166,1,0,0:0:0:0:
402,192,98234,1,0,0:0:0:0:
256,192,98303,1,0,0:0:0:0:
475,192,98371,1,0,0:0:0:0:
329,192,98439,1,0,0:0:0:0:
182,192,98507,1,0,0:0:0:0:
36,192,98507,1,0,0:0:0:0:
402,192,98575,1,0,0:0:0:0:
109,192,98644,1,0,0:0:0:0:
329,192,98712,1,0,0:0:0:0:
36,192,98780,1,0,0:0:0:0:
256,192,98848,1,0,0:0:0:0:
402,192,98916,1,0,0:0:0:0:
475,192,98916,1,0,0:0:0:0:
182,192,98984,1,0,0:0:0:0:
36,192,99053,1,0,0:0:0:0:
256,192,99121,1,0,0:0:0:0:
109,192,99189,1,0,0:0:0:0:
329,192,99257,1,0,0:0:0:0:
182,192,99325,1,0,0:0:0:0:
36,192,99325,1,0,0:0:0:0:
402,192,99394,1,0,0:0:0:0:
109,192,99462,1,0,0:0:0:0:
329,192,99530,1,0,0:0:0:0:
36,192,99598,1,0,0:0:0:0:
256,192,99666,1,0,0:0:0:0:
475,192,99734,1,0,0:0:0:0:
329,192,99734,1,0,0:0:0:0:
182,192,99803,1,0,0:0:0:0:
402,192,99871,1,0,0:0:0:0:
256,192,99939,1,0,0:0:0:0:
475,192,100007,1,0,0:0:0:0:
329,192,100075,1,0,0:0:0:0:
109,192,100144,1,0,0:0:0:0:
402,192,100212,1,0,0:0:0:0:
182,192,100280,1,0,0:0:0:0:
36,192,100280,1,0,0:0:0:0:
256,192,100280,1,0,0:0:0:0:
329,192,100348,1,0,0:0:0:0:
475,192,100416,1,0,0:0:0:0:
109,192,100484,1,0,0:0:0:0:
256,192,100553,1,0,0:0:0:0:
402,192,100621,1,0,0:0:0:0:
36,192,100689,1,0,0:0:0:0:
182,192,100689,1,0,0:0:0:0:
475,192,100757,1,0,0:0:0:0:
402,192,100825,1,0,0:0:0:0:
329,192,100894,1,0,0:0:0:0:
256,192,100962,1,0,0:0:0:0:
182,192,101030,1,0,0:0:0:0:
402,192,101098,1,0,0:0:0:0:
475,192,101098,1,0,0:0:0:0:
36,192,101166,1,0,0:0:0:0:
109,192,101234,1,0,0:0:0:0:
182,192,101303,1,0,0:0:0:0:
256,192,101371,1,0,0:0:0:0:
329,192,101439,1,0,0:0:0:0:
109,192,101507,1,0,0:0:0:0:
36,192,101507,1,0,0:0:0:0:
475,192,101575,1,0,0:0:0:0:
329,192,101644,1,0,0:0:0:0:
256,192,101712,1,0,0:0:0:0:
182,192,101780,1,0,0:0:0:0:
36,192,101848,1,0,0:0:0:0:
329,192,101916,1,0,0:0:0:0:
475,192,101916,1,0,0:0:0:0:
109,192,101984,1,0,0:0:0:0:
182,192,102053,1,0,0:0:0:0:
256,192,102121,1,0,0:0:0:0:
329,192,102189,1,0,0:0:0:0:
402,192,102257,1,0,0:0:0:0:
109,192,102325,1,0,0:0:0:0:
256,192,102394,1,0,0:0:0:0:
475,192,102462,1,0,0:0:0:0:
329,192,102462,1,0,0:0:0:0:
182,192,102530,1,0,0:0:0:0:
36,192,102598,1,0,0:0:0:0:
402,192,102666,1,0,0:0:0:0:
256,192,102734,1,0,0:0:0:0:
109,192,102803,1,0,0:0:0:0:
329,192,102871,1,0,0:0:0:0:
475,192,102871,1,0,0:0:0:0:
36,192,102939,1,0,0:0:0:0:
109,192,103007,1,0,0:0:0:0:
182,192,103075,1,0,0:0:0:0:
256,192,103144,1,0,0:0:0:0:
329,192,103212,1,0,0:0:0:0:
36,192,103280,1,0,0:0:0:0:
109,192,103280,1,0,0:0:0:0:
475,192,103348,1,0,0:0:0:0:
402,192,103416,1,0,0:0:0:0:
329,192,103484,1,0,0:0:0:0:
256,192,103553,1,0,0:0:0:0:
182,192,103621,1,0,0:0:0:0:
475,192,103689,1,0,0:0:0:0:
402,192,103689,1,0,0:0:0:0:
36,192,103757,1,0,0:0:0:0:
182,192,103825,1,0,0:0:0:0:
256,192,103894,1,0,0:0:0:0:
329,192,103962,1,0,0:0:0:0:
475,192,104030,1,0,0:0:0:0:
36,192,104098,1,0,0:0:0:0:
182,192,104098,1,0,0:0:0:0:
402,192,104166,1,0,0:0:0:0:
329,192,104234,1,0,0:0:0:0:
256,192,104303,1,0,0:0:0:0:
182,192,104371,1,0,0:0:0:0:
109,192,104439,1,0,0:0:0:0:
402,192,104507,1,0,0:0:0:0:
256,192,104575,1,0,0:0:0:0:
182,192,104644,1,0,0:0:0:0:
36,192,104644,1,0,0:0:0:0:
475,192,104644,1,0,0:0:0:0:
329,192,104712,1,0,0:0:0:0:
402,192,104780,1,0,0:0:0:0:
109,192,104848,1,0,0:0:0:0:
182,192,104916,1,0,0:0:0:0:
256,192,104984,1,0,0:0:0:0:
329,192,105053,1,0,0:0:0:0:
475,192,105053,1,0,0:0:0:0:
182,192,105121,1,0,0:0:0:0:
109,192,105189,1,0,0:0:0:0:
402,192,105257,1,0,0:0:0:0:
329,192,105325,1,0,0:0:0:0:
256,192,105394,1,0,0:0:0:0:
109,192,105462,1,0,0:0:0:0:
36,192,105462,1,0,0:0:0:0:
182,192,105530,1,0,0:0:0:0:
256,192,105598,1,0,0:0:0:0:
329,192,105666,1,0,0:0:0:0:
402,192,105734,1,0,0:0:0:0:
475,192,105734,1,0,0:0:0:0:
109,192,105734,1,0,0:0:0:0:
182,192,105803,1,0,0:0:0:0:
256,192,105871,1,0,0:0:0:0:
36,192,105871,1,0,0:0:0:0:
329,192,105939,1,0,0:0:0:0:
109,192,106007,1,0,0:0:0:0:
402,192,106075,1,0,0:0:0:0:
182,192,106144,1,0,0:0:0:0:
109,192,106212,1,0,0:0:0:0:
329,192,106280,1,0,0:0:0:0:
36,192,106280,1,0,0:0:0:0:
475,192,106348,1,0,0:0:0:0:
256,192,106416,1,0,0:0:0:0:
402,192,106484,1,0,0:0:0:0:
182,192,106553,1,0,0:0:0:0:
329,192,106621,1,0,0:0:0:0:
109,192,106689,1,0,0:0:0:0:
256,192,106757,1,0,0:0:0:0:
329,192,106825,1,0,0:0:0:0:
475,192,106825,1,0,0:0:0:0:
36,192,106825,1,0,0:0:0:0:
182,192,106894,1,0,0:0:0:0:
109,192,106962,1,0,0:0:0:0:
402,192,107030,1,0,0:0:0:0:
329,192,107098,1,0,0:0:0:0:
256,192,107166,1,0,0:0:0:0:
182,192,107234,1,0,0:0:0:0:
36,192,107234,1,0,0:0:0:0:
329,192,107303,1,0,0:0:0:0:
402,192,107371,1,0,0:0:0:0:
109,192,107439,1,0,0:0:0:0:
182,192,107507,1,0,0:0:0:0:
256,192,107575,1,0,0:0:0:0:
402,192,107644,1,0,0:0:0:0:
475,192,107644,1,0,0:0:0:0:
329,192,107712,1,0,0:0:0:0:
256,192,107780,1,0,0:0:0:0:
182,192,107848,1,0,0:0:0:0:
109,192,107916,1,0,0:0:0:0:
36,192,107916,1,0,0:0:0:0:
402,192,107916,1,0,0:0:0:0:
329,192,107984,1,0,0:0:0:0:
256,192,108053,1,0,0:0:0:0:
475,192,108053,1,0,0:0:0:0:
182,192,108121,1,0,0:0:0:0:
402,192,108189,1,0,0:0:0:0:
109,192,108257,1,0,0:0:0:0:
329,192,108325,1,0,0:0:0:0:
402,192,108394,1,0,0:0:0:0:
182,192,108462,1,0,0:0:0:0:
475,192,108462,1,0,0:0:0:0:
36,192,108530,1,0,0:0:0:0:
256,192,108598,1,0,0:0:0:0:
109,192,108666,1,0,0:0:0:0:
329,192,108734,1,0,0:0:0:0:
182,192,108803,1,0,0:0:0:0:
402,192,108871,1,0,0:0:0:0:
256,192,108939,1,0,0:0:0:0:
475,192,109007,1,0,0:0:0:0:
109,192,109007,1,0,0:0:0:0:
36,192,109007,1,0,0:0:0:0:
182,192,109075,1,0,0:0:0:0:
256,192,109144,1,0,0:0:0:0:
329,192,109212,1,0,0:0:0:0:
36,192,109280,1,0,0:0:0:0:
402,192,109280,1,0,0:0:0:0:
475,192,109280,1,0,0:0:0:0:
329,192,109348,1,0,0:0:0:0:
256,192,109416,1,0,0:0:0:0:
182,192,109484,1,0,0:0:0:0:
475,192,109553,1,0,0:0:0:0:
36,192,109553,1,0,0:0:0:0:
109,192,109553,1,0,0:0:0:0:
182,192,109621,1,0,0:0:0:0:
256,192,109689,1,0,0:0:0:0:
329,192,109757,1,0,0:0:0:0:
402,192,109825,1,0,0:0:0:0:
475,192,109825,1,0,0:0:0:0:
36,192,109825,1,0,0:0:0:0:
329,192,109894,1,0,0:0:0:0:
256,192,109962,1,0,0:0:0:0:
182,192,110030,1,0,0:0:0:0:
475,192,110098,1,0,0:0:0:0:
109,192,110098,1,0,0:0:0:0:
36,192,110098,1,0,0:0:0:0:
402,192,110166,1,0,0:0:0:0:
329,192,110234,1,0,0:0:0:0:
402,192,110303,1,0,0:0:0:0:
475,192,110371,1,0,0:0:0:0:
36,192,110371,1,0,0:0:0:0:
256,192,110371,1,0,0:0:0:0:
109,192,110439,1,0,0:0:0:0:
182,192,110507,1,0,0:0:0:0:
109,192,110575,1,0,0:0:0:0:
36,192,110644,1,0,0:0:0:0:
256,192,110644,1,0,0:0:0:0:
475,192,110644,1,0,0:0:0:0:
402,192,110712,1,0,0:0:0:0:
329,192,110780,1,0,0:0:0:0:
402,192,110848,1,0,0:0:0:0:
475,192,110916,1,0,0:0:0:0:
256,192,110916,1,0,0:0:0:0:
36,192,110916,1,0,0:0:0:0:
109,192,110984,1,0,0:0:0:0:
182,192,111053,1,0,0:0:0:0:
109,192,111121,1,0,0:0:0:0:
36,192,111189,1,0,0:0:0:0:
475,192,111189,1,0,0:0:0:0:
256,192,111189,1,0,0:0:0:0:
475,192,111325,1,0,0:0:0:0:
36,192,111325,1,0,0:0:0:0:
256,192,111325,1,0,0:0:0:0:
256,192,111462,1,0,0:0:0:0:
109,192,111462,1,0,0:0:0:0:
402,192,111462,1,0,0:0:0:0:
402,192,111598,1,0,0:0:0:0:
256,192,111598,1,0,0:0:0:0:
109,192,111598,1,0,0:0:0:0:
329,192,111734,1,0,0:0:0:0:
475,192,111734,1,0,0:0:0:0:
182,192,111803,1,0,0:0:0:0:
36,192,111803,1,0,0:0:0:0:
329,192,111871,1,0,0:0:0:0:
475,192,111871,1,0,0:0:0:0:
182,192,111939,1,0,0:0:0:0:
36,192,111939,1,0,0:0:0:0:
402,192,112007,1,0,0:0:0:0:
475,192,112007,1,0,0:0:0:0:
109,192,112075,1,0,0:0:0:0:
36,192,112075,1,0,0:0:0:0:
402,192,112144,1,0,0:0:0:0:
475,192,112144,1,0,0:0:0:0:
109,192,112212,5,0,0:0:0:0:
36,192,112212,1,0,0:0:0:0:
329,192,112280,128,0,112416:0:0:0:0:
256,192,112416,128,0,112553:0:0:0:0:
182,192,112553,128,0,112689:0:0:0:0:
109,192,112689,128,0,112825:0:0:0:0:
182,192,112825,128,0,112962:0:0:0:0:
256,192,112962,128,0,113098:0:0:0:0:
329,192,113098,128,0,113234:0:0:0:0:
402,192,113234,128,0,113371:0:0:0:0:
475,192,113371,128,0,113507:0:0:0:0:
36,192,113371,1,0,0:0:0:0:
109,192,113371,1,0,0:0:0:0:
256,192,113371,1,0,0:0:0:0:
402,192,113507,128,0,113644:0:0:0:0:
329,192,113644,128,0,113780:0:0:0:0:
36,192,113644,1,0,0:0:0:0:
256,192,113780,128,0,113916:0:0:0:0:
36,192,113916,1,0,0:0:0:0:
182,192,114053,128,0,114189:0:0:0:0:
329,192,114189,128,0,114325:0:0:0:0:
36,192,114189,1,0,0:0:0:0:
475,192,114325,128,0,114462:0:0:0:0:
36,192,114462,1,0,0:0:0:0:
475,192,114598,128,0,114734:0:0:0:0:
402,192,114734,128,0,114871:0:0:0:0:
36,192,114734,1,0,0:0:0:0:
329,192,114871,128,0,115144:0:0:0:0:
182,192,114871,128,0,115280:0:0:0:0:
36,192,115007,1,0,0:0:0:0:
402,192,115144,128,0,115280:0:0:0:0:
475,192,115280,128,0,115416:0:0:0:0:
256,192,115280,128,0,115553:0:0:0:0:
36,192,115280,1,0,0:0:0:0:
475,192,115553,128,0,115689:0:0:0:0:
36,192,115553,1,0,0:0:0:0:
402,192,115689,128,0,115825:0:0:0:0:
329,192,115825,128,0,115962:0:0:0:0:
36,192,115825,1,0,0:0:0:0:
256,192,115962,128,0,116234:0:0:0:0:
36,192,116098,1,0,0:0:0:0:
329,192,116234,128,0,116371:0:0:0:0:
402,192,116371,128,0,116507:0:0:0:0:
36,192,116371,1,0,0:0:0:0:
475,192,116507,128,0,116780:0:0:0:0:
36,192,116644,1,0,0:0:0:0:
402,192,116780,128,0,116916:0:0:0:0:
329,192,116916,128,0,117053:0:0:0:0:
36,192,116916,1,0,0:0:0:0:
256,192,117053,128,0,117598:0:0:0:0:
475,192,117053,128,0,117598:0:0:0:0:
36,192,117189,1,0,0:0:0:0:
36,192,117462,1,0,0:0:0:0:
36,192,117734,128,0,117871:0:0:0:0:
475,192,117734,1,0,0:0:0:0:
329,192,117734,1,0,0:0:0:0:
109,192,117871,128,0,118007:0:0:0:0:
182,192,118007,128,0,118144:0:0:0:0:
475,192,118007,1,0,0:0:0:0:
256,192,118144,128,0,118280:0:0:0:0:
475,192,118280,1,0,0:0:0:0:
329,192,118416,128,0,118553:0:0:0:0:
182,192,118553,128,0,118689:0:0:0:0:
475,192,118553,1,0,0:0:0:0:
36,192,118689,128,0,118825:0:0:0:0:
475,192,118825,1,0,0:0:0:0:
36,192,118962,128,0,119098:0:0:0:0:
109,192,119098,128,0,119234:0:0:0:0:
475,192,119098,1,0,0:0:0:0:
182,192,119234,128,0,119507:0:0:0:0:
329,192,119234,128,0,119644:0:0:0:0:
475,192,119371,1,0,0:0:0:0:
109,192,119507,128,0,119644:0:0:0:0:
36,192,119644,128,0,119780:0:0:0:0:
475,192,119644,1,0,0:0:0:0:
402,192,119916,1,0,0:0:0:0:
182,192,119916,1,0,0:0:0:0:
36,192,119916,1,0,0:0:0:0:
475,192,119916,1,0,0:0:0:0:
329,192,120053,1,0,0:0:0:0:
182,192,120053,128,0,120325:0:0:0:0:
36,192,120053,128,0,120325:0:0:0:0:
329,192,120189,1,0,0:0:0:0:
109,192,120325,1,0,0:0:0:0:
256,192,120325,1,0,0:0:0:0:
402,192,120325,128,0,120598:0:0:0:0:
475,192,120325,128,0,120598:0:0:0:0:
182,192,120462,1,0,0:0:0:0:
256,192,120598,1,0,0:0:0:0:
109,192,120734,1,0,0:0:0:0:
329,192,120734,1,0,0:0:0:0:
475,192,120734,1,0,0:0:0:0:
36,192,120734,1,0,0:0:0:0:
182,192,120871,1,0,0:0:0:0:
329,192,120871,128,0,121144:0:0:0:0:
475,192,120871,128,0,121689:0:0:0:0:
182,192,121007,1,0,0:0:0:0:
256,192,121144,1,0,0:0:0:0:
402,192,121144,128,0,121689:0:0:0:0:
109,192,121144,128,0,121689:0:0:0:0:
36,192,121144,128,0,121689:0:0:0:0:
182,192,121280,1,0,0:0:0:0:
256,192,121416,1,0,0:0:0:0:
329,192,121553,1,0,0:0:0:0:
256,192,121689,1,0,0:0:0:0:
256,192,121825,1,0,0:0:0:0:
402,192,121825,1,0,0:0:0:0:
109,192,121825,1,0,0:0:0:0:
256,192,121962,1,0,0:0:0:0:
329,192,122098,128,0,122234:0:0:0:0:
475,192,122098,128,0,122234:0:0:0:0:
109,192,122098,1,0,0:0:0:0:
36,192,122098,1,0,0:0:0:0:
402,192,122234,128,0,122371:0:0:0:0:
256,192,122234,128,0,122371:0:0:0:0:
329,192,122371,128,0,122507:0:0:0:0:
182,192,122371,128,0,122507:0:0:0:0:
36,192,122371,1,0,0:0:0:0:
256,192,122507,128,0,122644:0:0:0:0:
109,192,122507,128,0,122644:0:0:0:0:
475,192,122507,1,0,0:0:0:0:
475,192,122644,1,0,0:0:0:0:
182,192,122780,128,0,122916:0:0:0:0:
329,192,122780,128,0,122916:0:0:0:0:
109,192,122916,128,0,123053:0:0:0:0:
256,192,122916,128,0,123053:0:0:0:0:
475,192,122916,1,0,0:0:0:0:
36,192,123053,128,0,123189:0:0:0:0:
182,192,123053,128,0,123189:0:0:0:0:
402,192,123053,1,0,0:0:0:0:
402,192,123189,1,0,0:0:0:0:
36,192,123325,128,0,123462:0:0:0:0:
182,192,123325,128,0,123462:0:0:0:0:
256,192,123462,128,0,123598:0:0:0:0:
109,192,123462,128,0,123598:0:0:0:0:
402,192,123462,1,0,0:0:0:0:
182,192,123598,128,0,123871:0:0:0:0:
329,192,123598,128,0,123871:0:0:0:0:
475,192,123598,1,0,0:0:0:0:
36,192,123734,1,0,0:0:0:0:
475,192,123734,128,0,124007:0:0:0:0:
256,192,123871,128,0,124007:0:0:0:0:
109,192,123871,128,0,124007:0:0:0:0:
182,192,124007,128,0,124144:0:0:0:0:
36,192,124007,128,0,124144:0:0:0:0:
402,192,124007,1,0,0:0:0:0:
329,192,124144,1,0,0:0:0:0:
329,192,124280,1,0,0:0:0:0:
256,192,124280,128,0,124416:0:0:0:0:
475,192,124280,128,0,124416:0:0:0:0:
36,192,124280,128,0,124416:0:0:0:0:
402,192,124416,128,0,124553:0:0:0:0:
182,192,124416,128,0,124553:0:0:0:0:
109,192,124553,128,0,124689:0:0:0:0:
329,192,124553,128,0,124689:0:0:0:0:
475,192,124553,1,0,0:0:0:0:
256,192,124689,128,0,124962:0:0:0:0:
36,192,124689,128,0,124962:0:0:0:0:
402,192,124689,1,0,0:0:0:0:
402,192,124825,1,0,0:0:0:0:
329,192,124962,128,0,125098:0:0:0:0:
109,192,124962,128,0,125098:0:0:0:0:
182,192,125098,128,0,125234:0:0:0:0:
402,192,125098,128,0,125234:0:0:0:0:
36,192,125098,1,0,0:0:0:0:
256,192,125234,128,0,125507:0:0:0:0:
475,192,125234,128,0,125507:0:0:0:0:
109,192,125234,1,0,0:0:0:0:
109,192,125371,1,0,0:0:0:0:
182,192,125507,128,0,125644:0:0:0:0:
402,192,125507,128,0,125644:0:0:0:0:
109,192,125644,128,0,125780:0:0:0:0:
329,192,125644,128,0,125780:0:0:0:0:
475,192,125644,1,0,0:0:0:0:
36,192,125780,128,0,126325:0:0:0:0:
475,192,125780,1,0,0:0:0:0:
256,192,125780,1,0,0:0:0:0:
402,192,125780,1,0,0:0:0:0:
256,192,126053,128,0,126325:0:0:0:0:
402,192,126053,128,0,126325:0:0:0:0:
475,192,126053,128,0,126325:0:0:0:0:
329,192,126325,1,0,0:0:0:0:
329,192,126462,1,0,0:0:0:0:
475,192,126462,1,0,0:0:0:0:
182,192,126462,1,0,0:0:0:0:
36,192,126462,128,0,126598:0:0:0:0:
256,192,126598,1,0,0:0:0:0:
182,192,126666,1,0,0:0:0:0:
109,192,126734,128,0,126871:0:0:0:0:
402,192,126734,1,0,0:0:0:0:
256,192,126871,128,0,127144:0:0:0:0:
475,192,126871,1,0,0:0:0:0:
36,192,127007,1,0,0:0:0:0:
475,192,127007,1,0,0:0:0:0:
329,192,127075,1,0,0:0:0:0:
109,192,127144,1,0,0:0:0:0:
182,192,127212,1,0,0:0:0:0:
256,192,127280,1,0,0:0:0:0:
475,192,127280,1,0,0:0:0:0:
329,192,127348,1,0,0:0:0:0:
402,192,127416,128,0,127553:0:0:0:0:
36,192,127416,1,0,0:0:0:0:
36,192,127553,1,0,0:0:0:0:
475,192,127553,1,0,0:0:0:0:
329,192,127621,1,0,0:0:0:0:
182,192,127689,128,0,127825:0:0:0:0:
109,192,127825,128,0,127962:0:0:0:0:
402,192,127825,1,0,0:0:0:0:
36,192,127962,128,0,128234:0:0:0:0:
475,192,127962,128,0,128371:0:0:0:0:
256,192,127962,1,0,0:0:0:0:
329,192,128098,1,0,0:0:0:0:
256,192,128098,1,0,0:0:0:0:
109,192,128234,128,0,128371:0:0:0:0:
182,192,128371,128,0,128507:0:0:0:0:
329,192,128371,128,0,128507:0:0:0:0:
402,192,128371,1,0,0:0:0:0:
256,192,128507,1,0,0:0:0:0:
36,192,128644,1,0,0:0:0:0:
256,192,128644,1,0,0:0:0:0:
402,192,128644,1,0,0:0:0:0:
475,192,128644,128,0,128916:0:0:0:0:
329,192,128780,128,0,128916:0:0:0:0:
36,192,128780,1,0,0:0:0:0:
109,192,128848,1,0,0:0:0:0:
402,192,128916,1,0,0:0:0:0:
182,192,128916,128,0,129053:0:0:0:0:
475,192,129053,1,0,0:0:0:0:
329,192,129053,128,0,129189:0:0:0:0:
109,192,129053,1,0,0:0:0:0:
36,192,129053,1,0,0:0:0:0:
256,192,129189,128,0,129325:0:0:0:0:
329,192,129325,1,0,0:0:0:0:
182,192,129325,128,0,129462:0:0:0:0:
256,192,129462,1,0,0:0:0:0:
475,192,129462,1,0,0:0:0:0:
109,192,129462,1,0,0:0:0:0:
36,192,129462,128,0,129734:0:0:0:0:
182,192,129598,128,0,129734:0:0:0:0:
475,192,129598,1,0,0:0:0:0:
402,192,129666,1,0,0:0:0:0:
329,192,129734,1,0,0:0:0:0:
109,192,129734,1,0,0:0:0:0:
402,192,129871,1,0,0:0:0:0:
475,192,129871,1,0,0:0:0:0:
36,192,129871,1,0,0:0:0:0:
182,192,129871,128,0,130007:0:0:0:0:
256,192,130007,128,0,130144:0:0:0:0:
329,192,130144,128,0,130280:0:0:0:0:
109,192,130144,1,0,0:0:0:0:
36,192,130280,1,0,0:0:0:0:
475,192,130280,1,0,0:0:0:0:
402,192,130280,1,0,0:0:0:0:
182,192,130280,1,0,0:0:0:0:
182,192,130416,1,0,0:0:0:0:
256,192,130416,1,0,0:0:0:0:
36,192,130553,1,0,0:0:0:0:
329,192,130553,1,0,0:0:0:0:
109,192,130553,1,0,0:0:0:0:
475,192,130553,1,0,0:0:0:0:
329,192,130689,1,0,0:0:0:0:
182,192,130689,1,0,0:0:0:0:
36,192,130825,1,0,0:0:0:0:
109,192,130825,1,0,0:0:0:0:
256,192,130825,1,0,0:0:0:0:
475,192,130825,128,0,131098:0:0:0:0:
109,192,130962,1,0,0:0:0:0:
329,192,130962,128,0,131098:0:0:0:0:
182,192,131030,1,0,0:0:0:0:
256,192,131098,1,0,0:0:0:0:
402,192,131098,1,0,0:0:0:0:
329,192,131234,128,0,131371:0:0:0:0:
109,192,131234,1,0,0:0:0:0:
36,192,131234,1,0,0:0:0:0:
475,192,131234,1,0,0:0:0:0:
256,192,131371,128,0,131507:0:0:0:0:
182,192,131507,128,0,131644:0:0:0:0:
329,192,131507,1,0,0:0:0:0:
475,192,131644,1,0,0:0:0:0:
402,192,131644,1,0,0:0:0:0:
256,192,131644,1,0,0:0:0:0:
36,192,131644,128,0,131916:0:0:0:0:
402,192,131780,1,0,0:0:0:0:
182,192,131780,128,0,131916:0:0:0:0:
329,192,131848,1,0,0:0:0:0:
256,192,131916,1,0,0:0:0:0:
109,192,131916,1,0,0:0:0:0:
182,192,132053,128,0,132189:0:0:0:0:
402,192,132053,1,0,0:0:0:0:
475,192,132053,1,0,0:0:0:0:
36,192,132053,1,0,0:0:0:0:
256,192,132189,128,0,132325:0:0:0:0:
329,192,132325,128,0,132462:0:0:0:0:
182,192,132325,1,0,0:0:0:0:
109,192,132462,1,0,0:0:0:0:
36,192,132462,1,0,0:0:0:0:
256,192,132462,1,0,0:0:0:0:
475,192,132462,1,0,0:0:0:0:
109,192,132598,1,0,0:0:0:0:
329,192,132598,1,0,0:0:0:0:
402,192,132734,1,0,0:0:0:0:
256,192,132734,1,0,0:0:0:0:
475,192,132734,1,0,0:0:0:0:
36,192,132734,1,0,0:0:0:0:
402,192,132871,1,0,0:0:0:0:
182,192,132871,1,0,0:0:0:0:
109,192,133007,1,0,0:0:0:0:
36,192,133007,1,0,0:0:0:0:
329,192,133007,1,0,0:0:0:0:
475,192,133007,1,0,0:0:0:0:
256,192,133007,1,0,0:0:0:0:
182,192,133144,1,0,0:0:0:0:
402,192,133144,1,0,0:0:0:0:
182,192,133280,1,0,0:0:0:0:
256,192,133416,1,0,0:0:0:0:
36,192,133416,1,0,0:0:0:0:
329,192,133553,1,0,0:0:0:0:
256,192,133689,1,0,0:0:0:0:
475,192,133689,1,0,0:0:0:0:
182,192,133825,1,0,0:0:0:0:
402,192,133962,1,0,0:0:0:0:
256,192,133962,1,0,0:0:0:0:
329,192,134098,1,0,0:0:0:0:
109,192,134098,1,0,0:0:0:0:
329,192,134234,1,0,0:0:0:0:
256,192,134371,1,0,0:0:0:0:
182,192,134371,1,0,0:0:0:0:
109,192,134507,128,0,135053:0:0:0:0:
36,192,134507,128,0,135053:0:0:0:0:
402,192,134507,128,0,135053:0:0:0:0:
475,192,134507,128,0,135053:0:0:0:0:
329,192,134644,1,0,0:0:0:0:
256,192,134712,1,0,0:0:0:0:
182,192,134780,1,0,0:0:0:0:
329,192,134916,1,0,0:0:0:0:
182,192,135053,1,0,0:0:0:0:
109,192,135189,1,0,0:0:0:0:
36,192,135189,1,0,0:0:0:0:
475,192,135189,1,0,0:0:0:0:
256,192,135189,1,0,0:0:0:0:
402,192,135189,1,0,0:0:0:0:
256,192,135462,128,0,135734:0:0:0:0:
182,192,135734,1,0,0:0:0:0:
256,192,135871,1,0,0:0:0:0:
182,192,136007,128,0,136280:0:0:0:0:
329,192,136280,128,0,136553:0:0:0:0:
329,192,136689,1,0,0:0:0:0:
329,192,136962,128,0,137371:0:0:0:0:
182,192,137098,128,0,137371:0:0:0:0:
256,192,137371,1,0,0:0:0:0:
256,192,137644,128,0,137916:0:0:0:0:
182,192,137916,1,0,0:0:0:0:
256,192,138053,1,0,0:0:0:0:
182,192,138189,128,0,138462:0:0:0:0:
329,192,138462,1,0,0:0:0:0:
329,192,138598,128,0,138734:0:0:0:0:
329,192,138871,1,0,0:0:0:0:
329,192,139144,128,0,139553:0:0:0:0:
182,192,139280,128,0,139553:0:0:0:0:
256,192,139553,1,0,0:0:0:0:
256,192,139825,128,0,140098:0:0:0:0:
329,192,140098,1,0,0:0:0:0:
256,192,140234,1,0,0:0:0:0:
329,192,140371,128,0,140644:0:0:0:0:
182,192,140644,128,0,140916:0:0:0:0:
182,192,141053,1,0,0:0:0:0:
182,192,141325,128,0,141734:0:0:0:0:
329,192,141462,128,0,141734:0:0:0:0:
256,192,141734,1,0,0:0:0:0:
256,192,142007,128,0,142280:0:0:0:0:
182,192,142280,1,0,0:0:0:0:
329,192,142416,1,0,0:0:0:0:
182,192,142553,128,0,142825:0:0:0:0:
329,192,142689,128,0,142825:0:0:0:0:
402,192,143371,128,0,143507:0:0:0:0:
109,192,143371,128,0,143507:0:0:0:0:
109,192,143644,128,0,143780:0:0:0:0:
402,192,143644,128,0,143780:0:0:0:0:
