osu file format v14

[General]
AudioFilename: audio.mp3
AudioLeadIn: 0
PreviewTime: 48497
Countdown: 0
SampleSet: Soft
StackLeniency: 0.4
Mode: 0
LetterboxInBreaks: 0
WidescreenStoryboard: 0

[Editor]
DistanceSpacing: 1.4
BeatDivisor: 4
GridSize: 8
TimelineZoom: 3.999998

[Metadata]
Title:Shiba Island
TitleUnicode:Shiba Island
Artist:James Landino
ArtistUnicode:James Landino
Creator:Nimagan
Version:Insane
Source:osu!
Tags:Akareh featured artist fa video game vgm electronic Collection
BeatmapID:2070251
BeatmapSetID:989686

[Difficulty]
HPDrainRate:6
CircleSize:4
OverallDifficulty:7
ApproachRate:9
SliderMultiplier:1.5
SliderTickRate:1

[Events]
//Background and Video events
0,0,"stretched-1920-1080-528017.jpg",0,0
//Break Periods
//Storyboard Layer 0 (Background)
//Storyboard Layer 1 (Fail)
//Storyboard Layer 2 (Pass)
//Storyboard Layer 3 (Foreground)
//Storyboard Layer 4 (Overlay)
//Storyboard Sound Samples

[TimingPoints]
1646,370.37037037037,4,2,1,60,1,0
4238,-83.3333333333333,4,2,1,60,0,0
4608,-100,4,2,1,60,0,0
7201,-76.9230769230769,4,2,1,60,0,0
7571,-100,4,2,1,60,0,0
13497,-125,4,2,1,40,0,0
24979,-83.3333333333333,4,2,1,55,0,0
25349,-71.4285714285714,4,2,1,55,0,0
30905,-100,4,2,1,55,0,0
31275,-71.4285714285714,4,2,1,55,0,0
36460,-62.5,4,2,1,55,0,0
37201,-83.3333333333333,4,2,1,40,0,0
43127,-83.3333333333333,4,2,1,55,0,0
43868,-76.9230769230769,4,2,1,55,0,0
44608,-71.4285714285714,4,2,1,60,0,0
45349,-66.6666666666667,4,2,1,60,0,0
46090,-83.3333333333333,4,2,1,70,0,0
47571,-100,4,2,1,30,0,0
47942,-100,4,2,1,30,0,0
48312,-100,4,2,1,30,0,0
48683,-166.666666666667,4,2,1,50,0,0
49053,-62.5,4,2,1,75,0,1
49423,-83.3333333333333,4,2,1,75,0,1
49794,-66.6666666666667,4,2,1,75,0,1
50534,-83.3333333333333,4,2,1,75,0,1
50905,-66.6666666666667,4,2,1,75,0,1
51275,-83.3333333333333,4,2,1,75,0,1
51645,-100,4,2,1,75,0,1
53127,-100,4,2,1,75,0,1
55349,-83.3333333333333,4,2,1,75,0,1
55720,-66.6666666666667,4,2,1,75,0,1
56460,-83.3333333333333,4,2,1,75,0,1
56831,-66.6666666666667,4,2,1,75,0,1
57201,-83.3333333333333,4,2,1,75,0,1
57571,-100,4,2,1,75,0,1
57942,-66.6666666666667,4,2,1,60,0,0
58312,-66.6666666666667,4,2,1,60,0,0
58497,-66.6666666666667,4,2,1,60,0,0
59423,-71.4285714285714,4,2,1,60,0,0
60164,-83.3333333333333,4,2,1,60,0,0
60534,-125,4,2,1,60,0,0
60905,-52.6315789473684,4,2,1,80,0,1
61275,-83.3333333333333,4,2,1,80,0,1
61645,-62.5,4,2,1,80,0,1
63497,-83.3333333333333,4,2,1,80,0,1
65349,-62.5,4,2,1,80,0,1
66831,-83.3333333333333,4,2,1,80,0,1
67571,-76.9230769230769,4,2,1,80,0,1
67942,-71.4285714285714,4,2,1,80,0,1
68312,-66.6666666666667,4,2,1,80,0,1
68683,-62.5,4,2,1,80,0,1
69053,-58.8235294117647,4,2,1,80,0,1
69423,-83.3333333333333,4,2,1,80,0,1
69979,-71.4285714285714,4,2,1,80,0,1
72757,-66.6666666666667,4,2,1,65,0,0
83127,-83.3333333333333,4,2,1,50,0,0
83868,-66.6666666666667,4,2,1,50,0,0
84238,-45.4545454545455,4,2,1,50,0,0
84608,-66.6666666666667,4,2,1,60,0,0
96460,-62.5,4,2,1,50,0,0
105349,-66.6666666666667,4,2,1,50,0,0
108312,-99.9999999999999,4,2,1,50,0,0

[Colours]
Combo1 : 201,171,54
Combo2 : 128,64,64
Combo3 : 202,136,70
Combo4 : 206,63,60

[HitObjects]
324,176,1646,5,0,1:0:0:0:
239,206,1831,1,0,0:0:0:0:
392,234,2016,1,0,1:0:0:0:
409,146,2201,1,0,0:0:0:0:
255,118,2386,1,0,1:0:0:0:
324,176,2571,1,2,0:0:0:0:
273,30,2757,2,0,L|202:54,1,75,0|0,1:0|1:0,0:0:0:0:
105,109,3127,5,0,1:0:0:0:
147,240,3312,1,0,0:0:0:0:
186,138,3497,1,0,1:0:0:0:
239,206,3683,1,0,0:0:0:0:
92,183,3868,2,0,L|6:171,1,75,0|0,1:0|0:0,0:0:0:0:
149,284,4238,6,0,L|146:239,1,44.999998626709,8|0,0:1|0:0,0:0:0:0:
63,274,4423,2,0,L|61:318,1,44.999998626709,8|0,0:1|0:0,0:0:0:0:
127,357,4608,5,0,1:0:0:0:
222,310,4794,1,0,0:0:0:0:
186,138,4979,1,0,1:0:0:0:
146,239,5164,1,0,0:0:0:0:
318,203,5349,1,0,1:0:0:0:
278,102,5534,1,2,0:0:0:0:
229,235,5720,2,0,L|221:315,1,75,0|0,1:0|1:0,0:0:0:0:
399,206,6090,5,0,1:0:0:0:
378,343,6275,1,0,0:0:0:0:
462,261,6460,1,0,1:0:0:0:
462,338,6645,1,0,0:0:0:0:
319,273,6831,2,0,P|283:282|257:309,1,75,0|0,1:0|0:0,0:0:0:0:
156,343,7201,6,0,B|128:336|100:351|100:351|116:302|84:255,1,146.249993305207,8|0,0:0|0:0,0:0:0:0:
79,237,7571,1,0,1:0:0:0:
27,316,7757,1,0,0:0:0:0:
165,207,7942,1,0,1:0:0:0:
86,155,8128,1,0,0:0:0:0:
196,281,8312,1,0,1:0:0:0:
248,202,8498,1,0,0:0:0:0:
79,237,8683,2,0,P|29:214|7:176,1,75,0|0,1:0|1:0,0:0:0:0:
177,104,9053,5,0,1:0:0:0:
248,202,9238,1,0,0:0:0:0:
112,159,9423,1,0,1:0:0:0:
259,128,9608,1,0,0:0:0:0:
117,234,9794,2,0,L|112:142,1,75,0|0,1:0|0:0,0:0:0:0:
13,124,10164,2,0,L|18:216,1,75,0|0,1:0|0:0,0:0:0:0:
27,299,10534,6,0,L|19:353,3,37.5,0|0|0|0,1:0|0:0|0:0|0:0,0:0:0:0:
104,303,10905,6,8,L|134:307,2,18.75,8|8|8,0:1|0:1|0:1,0:1:0:0:
100,375,11090,2,8,L|130:379,2,18.75,8|8|8,0:1|0:1|0:1,0:1:0:0:
188,349,11275,6,0,L|193:311,3,37.5,0|0|0|0,1:0|0:0|0:0|0:0,0:0:0:0:
266,335,11645,6,8,L|296:330,2,18.75,8|8|8,0:1|0:1|0:1,0:1:0:0:
262,263,11830,2,8,L|292:258,2,18.75,8|8|8,0:1|0:1|0:1,0:1:0:0:
195,229,12016,6,0,L|189:191,3,37.5,0|0|0|0,1:0|0:0|0:0|0:0,0:0:0:0:
264,174,12386,2,0,L|269:136,3,37.5,0|0|0|0,1:0|0:0|0:0|0:0,0:0:0:0:
196,115,12757,6,0,L|190:77,1,37.5,0|0,1:0|0:0,0:0:0:0:
174,102,12942,2,0,L|168:64,1,37.5,0|0,1:0|0:0,0:0:0:0:
283,63,13127,2,0,L|289:25,1,37.5,0|0,1:0|0:0,0:0:0:0:
305,50,13312,2,0,L|311:12,1,37.5,0|0,1:0|0:0,0:0:0:0:
199,0,13497,5,2,0:0:0:0:
118,24,13683,1,2,0:0:0:0:
118,24,13868,1,2,0:0:0:0:
63,112,14053,2,0,P|51:84|45:55,1,60,2|0,0:0|0:0,0:0:0:0:
159,118,14423,1,2,0:0:0:0:
103,184,14608,1,2,0:0:0:0:
184,195,14794,2,0,P|213:200|240:212,1,60,2|0,0:0|0:0,0:0:0:0:
289,288,15164,1,2,0:0:0:0:
202,283,15349,1,2,0:0:0:0:
272,212,15534,2,0,P|283:184|289:155,1,60,2|0,0:0|0:0,0:0:0:0:
256,70,15905,1,2,0:0:0:0:
256,70,16090,2,0,P|283:58|312:52,1,60,2|0,0:0|0:0,0:0:0:0:
401,67,16460,5,2,0:0:0:0:
480,24,16645,1,2,0:0:0:0:
488,132,16831,1,2,0:0:0:0:
488,132,17016,2,0,P|482:161|469:188,1,60,2|0,0:0|0:0,0:0:0:0:
361,260,17386,1,2,0:0:0:0:
450,265,17571,1,2,0:0:0:0:
362,176,17757,2,0,P|332:181|305:194,1,60,2|0,0:0|0:0,0:0:0:0:
251,266,18127,1,2,0:0:0:0:
327,312,18312,1,2,0:0:0:0:
277,180,18497,2,0,P|270:133|288:45,1,120,2|0,0:0|0:0,0:0:0:0:
360,20,19053,2,0,L|436:26,1,60,8|0,0:0|0:0,0:0:0:0:
488,132,19423,5,2,0:0:0:0:
403,161,19608,1,2,0:0:0:0:
377,256,19794,1,2,0:0:0:0:
377,256,19979,2,0,P|347:250|320:237,1,60,2|0,0:0|0:0,0:0:0:0:
251,173,20349,1,2,0:0:0:0:
229,260,20534,1,2,0:0:0:0:
325,162,20720,2,0,P|337:134|343:105,1,60,2|0,0:0|0:0,0:0:0:0:
293,13,21090,1,2,0:0:0:0:
403,42,21275,1,2,0:0:0:0:
247,96,21460,2,2,P|217:90|190:77,1,60,0|0,0:0|0:0,0:0:0:0:
100,17,21831,1,2,0:0:0:0:
100,17,22016,2,0,L|94:93,1,60,2|0,0:0|0:0,0:0:0:0:
78,197,22386,5,2,0:0:0:0:
78,197,22571,2,0,P|128:187|150:186,1,60,2|0,0:0|0:0,0:0:0:0:
213,204,22942,2,0,P|263:214|285:215,1,60,2|0,0:0|0:0,0:0:0:0:
181,116,23312,1,0,0:0:0:0:
213,204,23497,1,0,0:0:0:0:
275,104,23683,1,0,0:0:0:0:
208,34,23868,5,2,0:0:0:0:
208,34,24053,2,0,P|178:35|148:41,1,60,2|0,0:0|0:0,0:0:0:0:
65,141,24423,2,0,P|57:170|88:254,1,120,2|0,0:0|0:0,0:0:0:0:
232,334,24979,6,0,L|337:329,1,89.9999972534181,8|0,0:0|0:0,0:0:0:0:
439,284,25349,1,0,1:0:0:0:
321,329,25534,1,2,0:0:0:0:
429,363,25720,1,0,1:0:0:0:
324,253,25905,2,0,P|302:205|294:153,1,104.999996795654,2|0,0:0|1:0,0:0:0:0:
382,48,26275,1,2,0:0:0:0:
294,153,26460,1,0,1:0:0:0:
412,148,26645,2,0,P|403:96|382:48,1,104.999996795654,2|0,0:0|1:0,0:0:0:0:
274,28,27016,1,2,0:0:0:0:
382,48,27201,1,0,1:0:0:0:
266,138,27386,2,0,P|214:129|166:108,1,104.999996795654,2|0,0:0|1:0,0:0:0:0:
67,54,27757,1,2,0:0:0:0:
67,54,27942,2,0,P|85:102|90:154,1,104.999996795654,0|0,1:0|0:0,0:0:0:0:
40,270,28312,5,0,1:0:0:0:
149,208,28497,1,2,0:0:0:0:
40,270,28683,1,0,1:0:0:0:
144,341,28868,2,0,P|196:336|244:317,1,104.999996795654,2|0,0:0|1:0,0:0:0:0:
285,198,29238,1,0,0:0:0:0:
357,301,29423,1,0,1:0:0:0:
436,203,29608,2,0,P|454:154|459:102,1,104.999996795654,2|0,0:0|1:0,0:0:0:0:
342,138,29979,1,2,0:0:0:0:
458,101,30164,1,0,1:0:0:0:
303,36,30349,2,0,B|256:32|218:54|218:54|177:47|177:47|142:68|99:56,1,209.999993591309,8|0,0:0|0:0,0:0:0:0:
34,128,30905,6,0,P|32:168|45:204,1,75,8|0,0:1|0:0,0:0:0:0:
138,139,31275,5,0,1:0:0:0:
106,261,31460,1,2,0:0:0:0:
242,121,31645,1,0,1:0:0:0:
274,243,31831,2,0,P|222:243|176:221,1,104.999996795654,2|0,0:0|1:0,0:0:0:0:
183,78,32201,1,2,0:0:0:0:
175,220,32386,1,0,1:0:0:0:
56,142,32571,2,0,P|39:92|46:41,1,104.999996795654,2|0,0:0|1:0,0:0:0:0:
183,78,32942,1,2,0:0:0:0:
45,41,33127,1,0,1:0:0:0:
256,35,33312,2,0,P|263:86|247:136,1,104.999996795654,2|0,0:0|1:0,0:0:0:0:
77,159,33683,1,2,0:0:0:0:
177,168,33868,2,0,L|165:272,1,104.999996795654,0|2,1:0|0:0,0:0:0:0:
302,336,34238,5,0,1:0:0:0:
302,336,34423,2,0,P|389:335|421:323,1,104.999996795654,2|0,0:0|1:0,0:0:0:0:
396,171,34794,2,0,P|353:246|347:280,1,104.999996795654,2|0,0:0|1:0,0:0:0:0:
491,334,35164,1,2,0:0:0:0:
349,263,35349,1,8,0:1:0:0:
405,329,35534,1,2,0:0:0:0:
503,237,35720,5,0,1:0:0:0:
396,171,35905,2,0,P|309:172|277:184,1,104.999996795654,2|0,0:0|1:0,0:0:0:0:
405,329,36275,1,2,0:0:0:0:
349,263,36460,6,0,L|222:280,1,120,8|0,0:0|0:0,0:0:0:0:
292,177,36831,2,0,L|165:194,1,120,8|0,0:0|0:0,0:0:0:0:
62,164,37201,5,0,1:0:0:0:
62,164,37386,1,0,1:0:0:0:
177,139,37571,2,0,P|170:94|149:55,1,89.9999972534181,0|0,1:0|0:0,0:0:0:0:
62,164,37942,2,0,P|68:208|89:247,1,89.9999972534181,0|0,1:0|0:0,0:0:0:0:
173,129,38312,2,0,P|159:86|131:51,1,89.9999972534181,0|0,1:0|0:0,0:0:0:0:
65,173,38683,6,0,P|79:216|107:251,1,89.9999972534181,0|0,1:0|0:0,0:0:0:0:
169,120,39053,2,0,P|147:80|114:50,1,89.9999972534181,0|0,1:0|0:0,0:0:0:0:
69,182,39424,6,0,P|91:222|124:252,1,89.9999972534181,0|0,1:0|0:0,0:0:0:0:
163,111,39794,2,0,P|135:76|97:53,1,89.9999972534181,0|0,1:0|0:0,0:0:0:0:
75,191,40165,6,0,P|103:226|141:249,1,89.9999972534181,0|0,1:0|0:0,0:0:0:0:
155,104,40534,2,0,P|121:75|80:58,1,89.9999972534181,0|0,1:0|0:0,0:0:0:0:
83,198,40905,6,0,P|117:227|158:244,1,89.9999972534181,0|0,1:0|0:0,0:0:0:0:
146,99,41275,2,0,P|108:76|64:66,1,89.9999972534181,0|0,1:0|0:0,0:0:0:0:
92,203,41646,6,0,P|130:226|174:236,1,89.9999972534181,0|0,1:0|0:0,0:0:0:0:
137,95,42016,2,0,P|95:79|50:77,1,89.9999972534181,0|0,1:0|0:0,0:0:0:0:
101,207,42387,6,0,P|143:223|188:225,1,89.9999972534181,0|0,1:0|0:0,0:0:0:0:
127,93,42757,1,8,0:1:0:0:
127,93,42942,1,8,0:1:0:0:
225,139,43127,6,0,P|245:147|268:148,1,44.999998626709,0|0,1:0|0:0,0:0:0:0:
249,68,43312,2,0,P|228:60|205:59,1,44.999998626709,0|0,1:0|0:0,0:0:0:0:
127,93,43497,1,8,0:1:0:0:
127,93,43683,1,8,0:1:0:0:
223,147,43868,6,0,P|245:151|267:148,1,44.999998626709,0|0,1:0|0:0,0:0:0:0:
249,61,44053,2,0,P|226:56|204:59,1,44.999998626709,0|0,1:0|0:0,0:0:0:0:
125,104,44238,1,8,0:1:0:0:
125,104,44423,1,8,0:1:0:0:
216,156,44608,6,0,P|241:156|266:147,1,52.4999983978272,0|0,1:0|0:0,0:0:0:0:
255,52,44794,2,0,P|228:50|203:59,1,52.4999983978272,0|0,1:0|0:0,0:0:0:0:
124,113,44979,1,8,0:1:0:0:
124,113,45164,1,8,0:1:0:0:
214,165,45349,6,0,P|241:160|266:147,1,56.2500021457673,0|0,1:0|0:0,0:0:0:0:
256,42,45534,2,0,P|228:45|203:57,1,56.2500021457673,0|0,1:0|0:0,0:0:0:0:
123,122,45720,1,8,0:1:0:0:
123,122,45905,1,8,0:1:0:0:
41,233,46090,6,0,L|100:214,3,44.999998626709,0|0|0|0,1:0|0:0|0:0|0:0,0:0:0:0:
171,264,46460,2,0,L|230:283,3,44.999998626709,0|0|0|0,1:0|0:0|0:0|0:0,0:0:0:0:
282,213,46831,2,0,L|341:194,3,44.999998626709,0|0|0|0,1:0|0:0|0:0|0:0,0:0:0:0:
412,244,47201,2,0,L|471:263,3,44.999998626709,0|0|0|0,1:0|0:0|0:0|0:0,0:0:0:0:
396,157,47571,5,0,3:0:0:0:
282,213,47942,5,0,3:0:0:0:
226,275,48312,5,0,3:0:0:0:
210,353,48683,6,0,L|288:339,1,67.4999979400635,0|0,1:0|0:0,0:0:0:0:
299,322,49053,5,0,1:0:0:0:
439,354,49238,1,0,1:0:0:0:
406,240,49423,2,0,P|378:294|374:334,1,89.9999972534181,8|0,0:0|0:0,0:0:0:0:
495,243,49794,6,0,B|496:186|496:186|478:128,1,112.500004291535,0|0,1:0|0:0,0:0:0:0:
392,52,50164,2,0,L|315:48,1,56.2500021457673,0|0,1:0|0:0,0:0:0:0:
352,125,50349,2,0,L|275:121,1,56.2500021457673,0|0,1:0|0:0,0:0:0:0:
273,198,50534,6,0,P|230:163|220:115,1,89.9999972534181,0|0,1:1|0:0,0:0:0:0:
70,23,50905,6,0,L|66:100,1,56.2500021457673,0|0,1:0|0:0,0:0:0:0:
143,63,51090,2,0,L|139:140,1,56.2500021457673,0|0,1:0|0:0,0:0:0:0:
167,198,51275,6,0,P|209:163|219:115,1,89.9999972534181,0|0,1:0|0:0,0:0:0:0:
208,26,51645,6,0,L|142:63,1,75,8|0,0:1|0:0,0:0:0:0:
289,81,52016,2,0,L|288:5,1,75,8|0,0:0|0:0,0:0:0:0:
219,131,52386,5,0,1:0:0:0:
332,197,52571,1,2,0:0:0:0:
289,81,52757,5,0,1:0:0:0:
402,147,52942,1,2,0:0:0:0:
332,197,53127,6,0,L|334:286,1,75,0|0,1:0|0:0,0:0:0:0:
225,302,53497,5,0,1:0:0:0:
112,236,53682,1,2,0:0:0:0:
155,352,53868,5,0,1:0:0:0:
42,286,54053,1,2,0:0:0:0:
112,236,54238,5,0,3:0:0:0:
74,359,54423,1,0,3:0:0:0:
112,236,54608,1,0,3:0:0:0:
74,359,54794,1,0,3:0:0:0:
15,213,54979,5,0,1:0:0:0:
198,236,55164,1,0,1:0:0:0:
104,147,55349,2,0,P|100:191|111:235,1,89.9999972534181,8|0,0:0|0:0,0:0:0:0:
223,141,55720,6,0,B|194:90|194:90|143:52,1,112.500004291535,0|0,1:0|0:0,0:0:0:0:
12,116,56090,2,0,L|5:48,1,56.2500021457673,0|0,1:0|0:0,0:0:0:0:
79,58,56275,2,0,L|72:-10,1,56.2500021457673,0|0,1:0|0:0,0:0:0:0:
150,57,56460,6,0,L|266:42,1,89.9999972534181,0|0,1:0|0:0,0:0:0:0:
391,143,56831,2,0,L|398:75,1,56.2500021457673,0|0,1:0|0:0,0:0:0:0:
324,85,57016,2,0,L|331:17,1,56.2500021457673,0|0,1:0|0:0,0:0:0:0:
256,128,57201,6,0,L|241:244,1,89.9999972534181,0|0,1:0|0:0,0:0:0:0:
267,304,57571,6,0,P|317:265|329:205,1,112.5,0|0,1:0|0:0,0:0:0:0:
329,219,57942,6,0,L|397:226,1,56.2500021457673,8|0,0:0|0:0,0:0:0:0:
481,188,58127,2,0,P|489:135|476:66,1,112.500004291535,2|0,0:0|1:0,0:0:0:0:
481,298,58497,2,0,P|472:242|480:187,1,112.500004291535,2|0,0:0|1:0,0:0:0:0:
379,152,58868,1,0,0:0:0:0:
222,215,59053,1,0,1:0:0:0:
317,218,59238,1,0,1:0:0:0:
251,316,59423,5,0,1:0:0:0:
251,316,59608,2,0,L|222:215,1,104.999996795654,2|0,0:0|1:0,0:0:0:0:
346,289,59979,1,2,0:0:0:0:
198,379,60164,5,0,1:0:0:0:
222,215,60349,1,0,1:0:0:0:
161,319,60534,6,0,L|64:345,1,90,8|0,0:1|0:0,0:0:0:0:
42,278,60905,5,0,1:0:0:0:
222,215,61090,1,0,1:0:0:0:
120,163,61275,2,0,P|127:226|143:269,1,89.9999972534181,8|0,0:0|0:0,0:0:0:0:
206,140,61645,6,2,L|193:79,1,60,0|0,1:0|0:0,0:1:0:0:
284,153,61831,2,2,L|271:92,1,60,0|0,0:0|0:0,0:1:0:0:
349,201,62016,2,2,L|336:262,1,60,0|0,1:0|0:0,0:1:0:0:
421,238,62201,1,0,0:0:0:0:
409,334,62386,5,0,1:0:0:0:
495,277,62571,1,8,0:1:0:0:
336,259,62757,2,2,L|275:246,1,60,0|0,1:0|0:0,0:1:0:0:
335,334,62943,2,2,L|274:321,1,60,0|0,0:0|0:0,0:1:0:0:
206,305,63127,1,0,1:0:0:0:
264,173,63312,1,0,1:0:0:0:
160,143,63497,6,0,P|95:144|51:166,1,89.9999972534181,2|0,0:0|0:0,0:0:0:0:
132,300,63868,2,0,P|131:235|109:191,1,89.9999972534181,8|0,0:0|0:0,0:0:0:0:
14,201,64238,5,0,1:0:0:0:
122,212,64423,1,2,0:0:0:0:
37,278,64608,5,0,1:0:0:0:
72,152,64794,1,2,0:0:0:0:
72,152,64979,2,0,P|115:140|160:143,1,89.9999972534181,0|0,1:0|0:0,0:0:0:0:
249,193,65349,1,0,1:0:0:0:
249,193,65442,1,0,0:0:0:0:
249,193,65534,2,0,L|254:113,1,60,2|0,0:0|0:0,0:0:0:0:
335,172,65720,1,0,1:0:0:0:
335,172,65813,1,0,0:0:0:0:
335,172,65905,2,0,L|340:92,1,60,2|0,0:0|0:0,0:0:0:0:
278,41,66090,5,0,3:0:0:0:
435,59,66275,1,0,3:0:0:0:
278,41,66460,1,0,3:0:0:0:
435,59,66645,1,0,3:0:0:0:
335,172,66831,5,0,1:0:0:0:
353,35,67016,1,0,1:0:0:0:
468,124,67201,2,0,P|424:128|384:110,1,89.9999972534181,8|0,0:0|0:0,0:0:0:0:
278,41,67571,6,0,P|204:48|143:88,1,146.249993305207,8|0,0:1|0:0,0:0:0:0:
128,92,67942,6,0,P|110:168|131:243,1,157.499995193482,8|0,0:1|0:0,0:0:0:0:
128,261,68312,6,0,P|205:306|293:310,1,168.750006437302,8|0,0:1|0:0,0:0:0:0:
296,322,68683,6,0,P|363:262|394:180,1,180,8|0,0:1|0:0,0:0:0:0:
408,170,69053,6,0,P|370:82|297:24,1,191.250003647804,8|0,0:1|0:0,0:0:0:0:
278,41,69423,6,0,B|210:45|210:45|144:32,1,134.999995880127,8|0,0:0|0:0,0:0:0:0:
118,13,69794,5,0,1:0:0:0:
151,134,69979,2,0,P|155:202|146:248,1,104.999996795654,2|0,0:0|1:0,0:0:0:0:
57,288,70349,2,0,P|113:250|158:235,1,104.999996795654,2|0,0:0|1:0,0:0:0:0:
229,335,70720,1,2,0:0:0:0:
263,214,70905,1,0,1:0:0:0:
148,237,71090,1,2,0:0:0:0:
307,292,71275,5,0,1:0:0:0:
307,292,71460,2,0,P|336:248|354:199,1,104.999996795654,2|0,0:0|1:0,0:0:0:0:
322,76,71831,1,2,0:0:0:0:
322,76,72016,1,0,1:0:0:0:
407,104,72201,1,0,1:0:0:0:
273,137,72386,2,0,B|230:147|200:142|200:142|196:135|196:135|155:125|112:138,1,157.499995193482,8|0,0:0|0:0,0:0:0:0:
110,145,72757,5,0,1:0:0:0:
29,221,72942,1,0,0:0:0:0:
98,54,73127,1,0,1:0:0:0:
187,216,73312,1,0,0:0:0:0:
29,123,73497,1,0,1:0:0:0:
193,48,73683,1,0,0:0:0:0:
110,145,73868,2,0,P|100:190|112:256,1,112.500004291535
266,189,74238,5,0,1:0:0:0:
110,145,74423,1,0,0:0:0:0:
187,216,74608,1,0,1:0:0:0:
111,254,74794,1,0,0:0:0:0:
180,304,74979,2,0,P|234:315|289:306,1,112.500004291535,0|0,1:0|0:0,1:0:0:0:
437,259,75349,6,0,L|429:204,1,56.2500021457673,8|0,0:1|0:0,0:0:0:0:
346,184,75534,2,0,L|355:240,1,56.2500021457673,8|0,0:1|0:0,0:0:0:0:
378,319,75720,5,8,0:0:0:0:
428,203,75905,1,0,0:0:0:0:
270,139,76090,1,0,1:0:0:0:
346,184,76275,1,0,0:0:0:0:
288,58,76460,1,0,1:0:0:0:
269,220,76645,1,0,0:0:0:0:
405,130,76831,2,0,P|416:75|407:20,1,112.500004291535,0|0,1:0|1:0,1:0:0:0:
288,58,77201,5,0,1:0:0:0:
269,220,77386,1,0,0:0:0:0:
204,90,77571,1,0,1:0:0:0:
194,187,77756,1,0,0:0:0:0:
118,126,77942,2,0,P|98:192|119:248,1,112.500004291535,0|0,1:0|0:0,0:0:0:0:
260,326,78312,2,0,P|280:260|259:204,1,112.500004291535,0|0,1:0|0:0,0:0:0:0:
204,90,78683,5,0,1:0:0:0:
268,219,78868,1,0,1:0:0:0:
376,154,79053,2,0,P|393:101|400:45,1,112.500004291535,8|0,0:1|0:0,0:0:0:0:
296,108,79423,1,0,1:0:0:0:
400,44,79608,1,0,1:0:0:0:
252,17,79794,2,0,P|197:24|143:42,1,112.500004291535,8|0,0:1|0:0,0:0:0:0:
229,160,80164,5,0,1:0:0:0:
143,41,80349,1,0,1:0:0:0:
95,162,80534,2,0,P|102:217|119:270,1,112.500004291535,8|0,0:1|0:0,0:0:0:0:
229,160,80905,1,0,1:0:0:0:
119,270,81090,1,0,1:0:0:0:
254,336,81275,2,0,P|310:330|364:312,1,112.500004291535,8|0,0:1|0:0,0:0:0:0:
374,210,81645,6,0,L|310:199,3,56.2500021457673,8|0|0|0,0:1|0:0|0:0|0:0,0:0:0:0:
211,149,82016,2,0,L|275:138,3,56.2500021457673,8|0|0|0,0:1|0:0|0:0|0:0,0:0:0:0:
379,92,82386,2,0,L|315:81,3,56.2500021457673,8|0|0|0,0:1|0:0|0:0|0:0,0:0:0:0:
211,35,82757,2,0,L|275:24,3,56.2500021457673,8|0|0|0,0:1|0:0|0:0|0:0,0:0:0:0:
191,126,83127,6,0,B|144:114|144:114|92:115,2,89.9999972534181,0|0|0,3:0|0:0|0:0,0:0:0:0:
182,214,83683,1,0,3:0:0:0:
182,214,83868,6,8,P|247:201|304:212,1,112.500004291535,8|0,0:0|0:0,0:0:0:0:
472,273,84238,6,0,P|449:200|399:244,1,165.000005035401,0|0,1:0|0:0,0:0:0:0:
293,208,84608,6,0,P|282:122|284:83,1,112.500004291535,0|0,1:0|0:0,0:0:0:0:
347,33,84979,1,0,0:0:0:0:
282,96,85164,1,0,0:0:0:0:
379,125,85349,1,0,0:0:0:0:
264,19,85534,1,0,0:0:0:0:
447,52,85720,1,0,0:0:0:0:
282,96,85905,2,0,P|283:152|293:208,1,112.500004291535,0|0,1:0|0:0,0:0:0:0:
332,276,86275,1,0,0:0:0:0:
472,256,86460,2,0,P|423:228|370:209,1,112.500004291535,0|0,1:0|0:0,0:0:0:0:
332,276,86831,5,8,0:1:0:0:
335,296,87016,1,8,0:1:0:0:
338,316,87201,1,8,0:1:0:0:
341,336,87386,1,8,0:1:0:0:
307,196,87571,6,0,P|250:196|195:206,1,112.500004291535,0|0,1:0|0:0,0:0:0:0:
127,265,87942,1,0,0:0:0:0:
195,206,88127,1,0,0:0:0:0:
189,322,88312,1,0,0:0:0:0:
65,208,88497,1,0,0:0:0:0:
130,145,88683,1,0,0:0:0:0:
53,319,88868,6,0,P|54:262|64:207,1,112.500004291535,0|0,1:0|0:0,0:0:0:0:
130,145,89238,1,0,0:0:0:0:
296,159,89423,2,0,P|246:186|194:205,1,112.500004291535,0|0,1:0|0:0,0:0:0:0:
130,145,89794,5,8,0:1:0:0:
127,125,89979,1,8,0:1:0:0:
198,90,90164,1,0,0:0:0:0:
194,205,90349,1,0,0:0:0:0:
50,128,90534,6,0,P|51:71|61:16,1,112.500004291535,8|0,0:0|0:0,0:0:0:0:
198,90,90905,1,0,0:0:0:0:
127,125,91090,1,0,0:0:0:0:
171,24,91275,1,0,0:0:0:0:
194,205,91460,1,0,0:0:0:0:
50,128,91645,1,0,0:0:0:0:
198,90,91831,2,0,P|254:90|309:99,1,112.500004291535,0|0,1:0|0:0,0:0:0:0:
386,123,92201,1,0,0:0:0:0:
378,283,92386,2,0,P|350:233|330:181,1,112.500004291535,0|0,1:0|0:0,0:0:0:0:
386,123,92757,5,8,0:1:0:0:
389,103,92942,1,8,0:1:0:0:
392,83,93127,1,8,0:1:0:0:
395,63,93312,1,8,0:1:0:0:
330,181,93497,6,0,P|350:233|378:283,1,112.500004291535,0|0,1:0|0:0,0:0:0:0:
451,306,93868,1,2,0:0:0:0:
291,297,94053,2,0,P|235:287|179:287,1,112.500004291535,0|0,1:0|0:0,0:0:0:0:
122,338,94423,1,2,0:0:0:0:
210,204,94608,2,0,P|245:160|274:112,1,112.500004291535,0|0,1:0|0:0,0:0:0:0:
258,37,94979,5,2,0:0:0:0:
191,94,95164,1,0,0:0:0:0:
335,56,95349,1,2,0:0:0:0:
188,17,95534,1,0,0:0:0:0:
339,168,95720,2,0,L|335:56,1,112.500004291535,8|0,0:0|0:0,0:0:0:0:
252,155,96090,2,0,L|255:267,1,112.500004291535,8|0,0:0|0:0,0:0:0:0:
324,363,96460,6,0,P|263:339|194:337,1,120,0|0,1:0|0:0,0:0:0:0:
99,358,96831,1,0,0:0:0:0:
106,240,97016,1,0,0:0:0:0:
209,335,97201,1,0,0:0:0:0:
43,296,97386,1,0,0:0:0:0:
197,248,97571,1,0,0:0:0:0:
24,193,97757,2,0,P|28:133|51:78,1,120,0|0,1:0|0:0,0:0:0:0:
120,40,98127,1,0,0:0:0:0:
243,80,98312,2,0,P|188:105|129:113,1,120,0|0,1:0|0:0,0:0:0:0:
120,40,98683,1,8,0:1:0:0:
124,76,98868,1,8,0:1:0:0:
129,113,99053,1,8,0:1:0:0:
134,150,99238,1,8,0:1:0:0:
158,271,99423,6,0,P|212:296|271:304,1,120,0|0,1:0|0:0,0:0:0:0:
345,196,99794,1,0,0:0:0:0:
268,224,99979,1,0,0:0:0:0:
381,300,100164,1,0,0:0:0:0:
414,174,100349,1,0,0:0:0:0:
268,224,100534,1,0,0:0:0:0:
466,250,100720,2,0,P|488:194|492:135,1,120,0|0,1:0|0:0,0:0:0:0:
445,75,101090,1,0,0:0:0:0:
292,25,101275,2,0,P|328:72|377:105,1,120,0|0,1:0|0:0,0:0:0:0:
445,75,101645,1,8,0:1:0:0:
449,39,101830,1,8,0:1:0:0:
377,105,102016,1,0,1:0:0:0:
492,135,102201,1,0,1:0:0:0:
374,222,102386,6,0,P|318:245|259:250,1,120,8|0,0:0|0:0,0:0:0:0:
174,184,102757,1,0,0:0:0:0:
248,154,102942,1,0,0:0:0:0:
172,273,103127,1,0,0:0:0:0:
104,146,103312,1,0,0:0:0:0:
259,250,103497,1,0,0:0:0:0:
47,229,103683,2,0,P|23:173|18:114,1,120,0|0,1:0|0:0,0:0:0:0:
77,63,104053,1,2,0:0:0:0:
235,6,104238,2,0,P|198:53|149:87,1,120,0|0,1:0|0:0,0:0:0:0:
77,63,104608,1,8,0:1:0:0:
125,197,104793,1,8,0:1:0:0:
148,87,104979,1,0,0:0:0:0:
17,114,105164,1,0,0:0:0:0:
125,197,105349,6,0,P|180:221|239:226,1,112.500004291535,0|0,1:0|0:0,0:0:0:0:
306,196,105719,1,2,0:0:0:0:
396,39,105905,2,0,P|347:74|313:123,1,112.500004291535,0|0,1:0|0:0,0:0:0:0:
306,196,106275,1,2,0:0:0:0:
397,352,106460,2,0,P|390:292|365:238,1,112.500004291535,0|0,1:0|0:0,0:0:0:0:
306,196,106831,5,2,0:0:0:0:
231,226,107016,1,0,0:0:0:0:
298,288,107201,1,0,0:0:0:0:
244,148,107386,1,2,0:0:0:0:
129,241,107571,2,0,L|33:323,1,112.500004291535
29,181,107942,2,0,L|125:99,1,112.500004291535
192,45,108312,5,0,0:0:0:0:
274,51,108497,1,0,0:0:0:0:
274,51,108683,1,0,0:0:0:0:
336,105,108868,2,0,L|388:161,1,75
404,258,109238,1,0,0:0:0:0:
323,232,109423,1,0,0:0:0:0:
452,203,109608,2,0,P|476:247|467:292,1,75
428,344,109979,1,0,0:0:0:0:
346,318,110164,1,0,0:0:0:0:
262,335,110349,2,0,L|187:328,1,75
121,277,110720,1,0,0:0:0:0:
56,225,110905,2,0,P|39:271|42:301,1,75
107,353,111275,5,0,0:0:0:0:
187,328,111460,1,0,0:0:0:0:
209,248,111645,1,0,0:0:0:0:
209,248,111831,2,0,L|215:174,1,75
247,88,112201,1,0,0:0:0:0:
215,173,112386,1,0,0:0:0:0:
307,164,112571,2,0,L|381:157,1,75
471,152,112942,1,0,0:0:0:0:
417,222,113127,1,0,0:0:0:0:
423,89,113312,2,0,B|407:52|358:47|358:47|321:64|292:54,1,150
214,27,113868,2,0,B|176:26|176:26|140:36,1,75
91,103,114238,5,0,0:0:0:0:
118,180,114423,1,0,0:0:0:0:
188,223,114608,1,0,0:0:0:0:
188,223,114794,2,0,L|265:227,1,75
395,245,115164,1,0,0:0:0:0:
339,186,115349,1,0,0:0:0:0:
370,327,115534,2,0,P|408:327|444:317,1,75
458,184,115905,1,0,0:0:0:0:
319,259,116090,1,0,0:0:0:0:
458,184,116275,2,0,P|468:148|467:110,1,75
398,50,116645,1,0,0:0:0:0:
338,112,116831,2,0,P|297:120|245:117,1,75
259,38,117201,5,0,0:0:0:0:
259,38,117386,2,0,L|175:41,1,75
178,113,117757,2,0,L|94:116,1,75
24,123,118127,1,0,0:0:0:0:
95,212,118312,1,0,0:0:0:0:
103,115,118497,1,0,0:0:0:0:
4,216,118683,6,0,P|24:273|46:305,2,75
95,212,119238,2,0,P|164:226|148:168,1,150
24,123,119794,1,2,0:0:0:0:
