osu file format v14

[General]
AudioFilename: audio.mp3
AudioLeadIn: 0
PreviewTime: 48497
Countdown: 0
SampleSet: Soft
StackLeniency: 0.3
Mode: 0
LetterboxInBreaks: 0
WidescreenStoryboard: 0

[Editor]
Bookmarks: 13312,105905
DistanceSpacing: 1
BeatDivisor: 4
GridSize: 8
TimelineZoom: 2.3

[Metadata]
Title:Shiba Island
TitleUnicode:Shiba Island
Artist:James Landino
ArtistUnicode:James Landino
Creator:Nimagan
Version:EX
Source:osu!
Tags:Akareh featured artist fa video game vgm electronic Collection
BeatmapID:2070250
BeatmapSetID:989686

[Difficulty]
HPDrainRate:6
CircleSize:4
OverallDifficulty:8
ApproachRate:9.3
SliderMultiplier:1.5
SliderTickRate:1

[Events]
//Background and Video events
0,0,"stretched-1920-1080-528017.jpg",0,0
//Break Periods
//Storyboard Layer 0 (Background)
//Storyboard Layer 1 (Fail)
//Storyboard Layer 2 (Pass)
//Storyboard Layer 3 (Foreground)
//Storyboard Layer 4 (Overlay)
//Storyboard Sound Samples

[TimingPoints]
1646,370.37037037037,4,2,1,50,1,0
4238,-66.6666666666667,4,2,1,50,0,0
4608,-100,4,2,1,50,0,0
7201,-62.5,4,2,1,50,0,0
7942,-100,4,2,1,50,0,0
10534,-100,4,2,1,45,0,0
13497,-125,4,2,1,40,0,0
24979,-66.6666666666667,4,2,1,70,0,0
25349,-71.4285714285714,4,2,1,60,0,0
30905,-100,4,2,1,60,0,0
31275,-71.4285714285714,4,2,1,60,0,0
36460,-55.5555555555556,4,2,1,64,0,0
37201,-76.9230769230769,4,2,1,50,0,0
40164,-66.6666666666667,4,2,1,50,0,0
40905,-62.5,4,2,1,50,0,0
41645,-58.8235294117647,4,2,1,50,0,0
44608,-76.9230769230769,4,2,1,60,0,0
46090,-76.9230769230769,4,2,1,65,0,0
47571,-25,4,2,1,30,0,0
47942,-33.3333333333333,4,2,1,30,0,0
48312,-50,4,2,1,30,0,0
48683,-333.333333333333,4,2,1,30,0,0
49053,-52.6315789473684,4,2,1,80,0,1
49423,-100,4,2,1,80,0,1
49794,-66.6666666666667,4,2,1,80,0,1
50164,-40,4,2,1,80,0,1
50534,-66.6666666666667,4,2,1,80,0,1
50905,-40,4,2,1,80,0,1
51275,-66.6666666666667,4,2,1,80,0,1
51645,-66.6666666666667,4,2,1,80,0,1
52386,-50,4,2,1,80,0,1
52571,-58.8235294117647,4,2,1,80,0,1
52757,-50,4,2,1,80,0,1
52942,-58.8235294117647,4,2,1,80,0,1
53127,-100,4,2,1,80,0,1
53497,-50,4,2,1,80,0,1
53683,-58.8235294117647,4,2,1,80,0,1
53868,-50,4,2,1,80,0,1
54053,-58.8235294117647,4,2,1,80,0,1
54979,-52.6315789473684,4,2,1,80,0,1
55349,-100,4,2,1,80,0,1
55720,-66.6666666666667,4,2,1,80,0,1
56090,-40,4,2,1,80,0,1
56460,-66.6666666666667,4,2,1,80,0,1
56831,-40,4,2,1,80,0,1
57201,-66.6666666666667,4,2,1,80,0,1
57571,-100,4,2,1,80,0,1
57942,-71.4285714285714,4,2,1,80,0,0
58312,-71.4285714285714,4,2,1,60,0,0
58497,-66.6666666666667,4,2,1,60,0,0
59423,-71.4285714285714,4,2,1,60,0,0
60164,-83.3333333333333,4,2,1,60,0,0
60534,-333.333333333333,4,2,1,60,0,0
60905,-52.6315789473684,4,2,1,60,0,1
61275,-100,4,2,1,80,0,1
61645,-29.4117647058824,4,2,1,85,0,1
63497,-100,4,2,1,85,0,1
64238,-33.3333333333333,4,2,1,85,0,1
64979,-100,4,2,1,75,0,1
65349,-52.6315789473684,4,2,1,80,0,1
65534,-33.3333333333333,4,2,1,80,0,1
65720,-52.6315789473684,4,2,1,80,0,1
65905,-33.3333333333333,4,2,1,80,0,1
66090,-58.8235294117647,4,2,1,70,0,1
66831,-52.6315789473684,4,2,1,80,0,1
67201,-100,4,2,1,80,0,1
67571,-50,4,2,1,80,0,1
67942,-44.4444444444445,4,2,1,80,0,1
68312,-40,4,2,1,80,0,1
68683,-36.3636363636364,4,2,1,80,0,1
69053,-32.258064516129,4,2,1,80,0,1
69423,-100,4,2,1,80,0,1
69979,-52.6315789473684,4,2,1,80,0,1
72757,-52.6315789473684,4,2,1,65,0,0
83127,-100,4,2,1,65,0,0
83868,-58.8235294117647,4,2,1,65,0,0
84238,-40,4,2,1,65,0,0
84608,-50,4,2,1,60,0,0
84979,-100,4,2,1,60,0,0
85905,-50,4,2,1,60,0,0
87201,-100,4,2,1,60,0,0
87571,-50,4,2,1,60,0,0
87942,-100,4,2,1,60,0,0
88868,-50,4,2,1,60,0,0
89794,-100,4,2,1,60,0,0
90534,-50,4,2,1,60,0,0
90905,-100,4,2,1,60,0,0
91831,-50,4,2,1,60,0,0
92757,-100,4,2,1,60,0,0
93497,-50,4,2,1,60,0,0
94979,-100,4,2,1,60,0,0
95720,-66.6666666666667,4,2,1,65,0,0
96460,-43.4782608695652,4,2,1,65,0,0
104979,-66.6666666666667,4,2,1,65,0,0
105349,-43.4782608695652,4,2,1,65,0,0
107201,-52.6315789473684,4,2,1,65,0,0
108312,-111.111111111111,4,2,1,40,0,0
119794,-66.6666666666667,4,2,1,40,0,0

[Colours]
Combo1 : 201,171,54
Combo2 : 128,64,64
Combo3 : 202,136,70
Combo4 : 206,63,60

[HitObjects]
281,154,1646,5,0,1:0:0:0:
194,255,1831,1,0,0:0:0:0:
402,216,2016,1,0,1:0:0:0:
196,177,2201,1,0,0:0:0:0:
297,264,2386,1,0,1:0:0:0:
302,68,2571,1,0,0:0:0:0:
196,177,2757,2,0,P|180:145|169:86,1,75,0|0,1:0|1:0,0:0:0:0:
220,12,3127,5,0,1:0:0:0:
92,122,3312,1,0,0:0:0:0:
281,154,3497,1,0,1:0:0:0:
126,30,3683,1,0,0:0:0:0:
171,247,3868,2,0,P|179:210|195:176,1,75,0|0,1:0|0:0,0:0:0:0:
385,137,4238,6,0,L|370:74,1,56.2500021457673,8|0,0:1|0:0,0:0:0:0:
281,154,4423,2,0,L|296:217,1,56.2500021457673,8|0,0:1|0:0,0:0:0:0:
452,263,4608,5,0,1:0:0:0:
294,208,4794,1,0,0:0:0:0:
465,108,4979,1,0,1:0:0:0:
378,227,5164,1,0,0:0:0:0:
371,82,5350,1,0,1:0:0:0:
452,263,5535,1,0,1:0:0:0:
294,208,5720,2,0,P|292:245|299:282,1,75,0|0,1:0|1:0,0:0:0:0:
378,227,6090,5,0,1:0:0:0:
254,353,6275,1,0,0:0:0:0:
431,334,6460,1,0,1:0:0:0:
179,246,6645,1,0,0:0:0:0:
342,364,6831,2,0,P|343:326|336:289,1,75,0|0,1:0|0:0,0:0:0:0:
281,154,7201,6,0,B|220:154|220:154|191:134|191:134|160:153|160:153|112:153,1,180,8|0,0:0|0:0,0:0:0:0:
93,134,7571,5,0,1:0:0:0:
7,212,7757,1,0,0:0:0:0:
170,237,7942,1,0,1:0:0:0:
74,115,8127,1,0,0:0:0:0:
72,302,8312,1,0,1:0:0:0:
258,241,8497,1,0,0:0:0:0:
77,227,8683,2,0,P|70:263|71:301,1,75,0|0,1:0|1:0,0:0:0:0:
208,328,9053,5,0,1:0:0:0:
107,381,9238,1,0,0:0:0:0:
170,237,9423,1,0,1:0:0:0:
287,318,9608,1,0,0:0:0:0:
77,227,9794,2,0,P|75:189|82:152,1,75,0|0,1:0|0:0,0:0:0:0:
246,116,10164,2,0,P|247:153|240:190,1,75,0|0,1:0|0:0,0:0:0:0:
71,54,10534,5,0,1:0:0:0:
91,32,10627,1,0,0:0:0:0:
117,17,10720,1,0,0:0:0:0:
145,9,10812,1,0,0:0:0:0:
174,4,10905,2,8,L|208:2,2,18.75,8|8|8,0:1|0:1|0:1,0:1:0:0:
263,39,11090,2,8,L|297:37,2,18.75,8|8|8,0:1|0:1|0:1,0:1:0:0:
348,110,11275,5,0,1:0:0:0:
360,101,11368,1,0,0:0:0:0:
366,87,11460,1,0,0:0:0:0:
373,74,11553,1,0,0:0:0:0:
379,60,11645,2,8,L|413:58,2,18.75,8|8|8,0:1|0:1|0:1,0:1:0:0:
474,86,11830,2,8,L|508:84,2,18.75,8|8|8,0:1|0:1|0:1,0:1:0:0:
477,160,12016,5,0,1:0:0:0:
475,178,12108,1,0,0:0:0:0:
473,196,12201,1,0,0:0:0:0:
471,214,12294,1,0,0:0:0:0:
470,232,12386,1,0,1:0:0:0:
469,250,12479,1,0,0:0:0:0:
468,268,12571,1,0,0:0:0:0:
467,286,12664,1,0,0:0:0:0:
466,304,12757,6,0,L|463:359,1,37.5,0|0,1:0|0:0,0:0:0:0:
354,256,12942,2,0,L|357:201,1,37.5,0|0,1:0|0:0,0:0:0:0:
389,336,13127,2,0,L|351:333,1,37.5,0|0,1:0|0:0,0:0:0:0:
431,247,13312,2,0,L|468:249,1,37.5,0|0,1:0|0:0,0:0:0:0:
354,256,13497,6,0,P|324:253|294:255,1,60,2|0,0:0|0:0,0:0:0:0:
190,323,13868,1,0,0:0:0:0:
190,323,14053,2,0,P|160:325|130:322,1,60,2|0,0:0|0:0,0:0:0:0:
86,252,14423,1,0,0:0:0:0:
163,141,14608,1,0,0:0:0:0:
163,141,14794,2,0,P|166:111|164:81,1,60,2|0,0:0|0:0,0:0:0:0:
85,50,15164,1,0,0:0:0:0:
13,159,15349,1,0,0:0:0:0:
13,159,15534,2,0,P|11:189|13:219,1,60,2|0,0:0|0:0,0:0:0:0:
90,323,15905,1,0,0:0:0:0:
90,323,16090,2,0,P|119:321|149:323,1,60,2|0,0:0|0:0,0:0:0:0:
235,356,16460,6,0,P|238:326|236:296,1,60,2|0,0:0|0:0,0:0:0:0:
164,200,16831,1,0,0:0:0:0:
164,200,17016,2,0,P|161:170|163:140,1,60,2|0,0:0|0:0,0:0:0:0:
223,81,17386,1,0,0:0:0:0:
309,179,17571,1,0,0:0:0:0:
309,179,17757,2,0,P|311:208|309:238,1,60,2|0,0:0|0:0,0:0:0:0:
277,315,18127,1,0,0:0:0:0:
167,252,18312,1,0,0:0:0:0:
167,252,18497,2,0,P|146:307|163:364,1,120,2|0,0:0|0:0,0:0:0:0:
277,315,19053,2,0,P|234:306|198:319,1,60,4|0,0:0|0:0,0:0:0:0:
78,345,19423,6,0,P|75:315|77:285,1,60,2|0,0:0|0:0,0:0:0:0:
131,173,19794,1,0,0:0:0:0:
131,173,19979,2,0,P|134:143|132:113,1,60,2|0,0:0|0:0,0:0:0:0:
63,68,20349,1,0,0:0:0:0:
1,212,20534,1,0,0:0:0:0:
1,212,20720,2,0,P|31:215|61:213,1,60,2|0,0:0|0:0,0:0:0:0:
208,140,21090,1,0,0:0:0:0:
63,68,21275,1,0,0:0:0:0:
129,248,21460,2,0,P|158:249|188:246,1,60,2|0,0:0|0:0,0:0:0:0:
339,194,21831,1,0,0:0:0:0:
339,194,22016,2,0,P|309:191|279:193,1,60,2|0,0:0|0:0,0:0:0:0:
247,330,22386,5,2,0:0:0:0:
188,246,22571,1,2,0:0:0:0:
180,234,22942,5,2,0:0:0:0:
172,222,23312,5,2,0:0:0:0:
162,328,23497,1,2,0:0:0:0:
242,202,23683,1,2,0:0:0:0:
104,272,23868,5,2,0:0:0:0:
255,309,24053,1,2,0:0:0:0:
93,193,24238,1,0,0:0:0:0:
93,193,24423,2,0,P|85:133|97:75,1,120,2|0,0:0|0:0,0:0:0:0:
349,177,24979,6,0,P|294:199|230:200,1,112.500004291535,8|0,0:0|0:0,0:0:0:0:
296,108,25349,6,0,P|354:88|400:98,1,104.999996795654,0|0,1:0|0:0,0:0:0:0:
458,190,25720,1,0,0:0:0:0:
360,276,25905,2,0,P|340:217|351:171,1,104.999996795654,0|0,0:0|1:0,0:0:0:0:
443,56,26275,1,0,0:0:0:0:
348,176,26460,1,0,1:0:0:0:
271,50,26645,2,0,P|219:42|171:61,1,104.999996795654,0|0,0:0|1:0,0:0:0:0:
95,172,27016,1,0,0:0:0:0:
231,131,27201,1,0,1:0:0:0:
83,72,27386,2,0,P|75:123|94:171,1,104.999996795654,0|0,0:0|1:0,0:0:0:0:
205,228,27757,1,0,0:0:0:0:
205,228,27942,2,0,P|213:279|194:327,1,104.999996795654,0|0,1:0|0:0,0:0:0:0:
30,256,28312,6,0,P|81:249|129:268,1,104.999996795654,0|0,1:0|0:0,0:0:0:0:
44,345,28683,1,0,1:0:0:0:
14,172,28868,2,0,P|7:121|26:73,1,104.999996795654,0|0,0:0|1:0,0:0:0:0:
132,144,29238,1,0,0:0:0:0:
26,72,29423,1,0,1:0:0:0:
182,30,29608,2,0,P|234:22|282:41,1,104.999996795654,0|0,0:0|1:0,0:0:0:0:
329,176,29979,1,0,0:0:0:0:
359,88,30164,1,0,1:0:0:0:
240,184,30349,2,0,P|175:157|262:128,1,209.999993591309,2|0,0:0|0:0,0:0:0:0:
337,248,30905,6,0,P|336:194|320:163,1,75,8|0,0:0|0:0,0:0:0:0:
209,259,31275,6,0,P|157:245|121:208,1,104.999996795654,0|0,1:0|0:0,0:0:0:0:
58,82,31645,1,0,1:0:0:0:
190,77,31831,2,0,P|209:125|201:176,1,104.999996795654,0|0,0:0|1:0,0:0:0:0:
34,219,32201,1,0,0:0:0:0:
200,176,32386,1,0,1:0:0:0:
134,308,32571,2,0,P|114:259|122:208,1,104.999996795654,0|0,0:0|1:0,0:0:0:0:
242,283,32942,1,0,0:0:0:0:
121,208,33127,1,0,1:0:0:0:
190,77,33312,2,0,P|238:58|289:66,1,104.999996795654,0|0,0:0|1:0,0:0:0:0:
334,244,33683,1,0,0:0:0:0:
253,183,33868,2,0,P|233:231|241:282,1,104.999996795654,0|0,1:0|0:0,0:0:0:0:
336,351,34238,5,2,0:0:0:0:
401,228,34423,1,2,0:0:0:0:
409,211,34794,5,2,0:0:0:0:
417,194,35164,5,2,0:0:0:0:
453,348,35349,1,8,0:1:0:0:
334,244,35534,1,0,1:0:0:0:
482,245,35720,5,0,0:0:0:0:
482,245,35905,2,0,P|502:197|494:146,1,104.999996795654,0|0,0:0|1:0,0:0:0:0:
357,134,36275,1,0,1:0:0:0:
390,29,36460,6,0,L|256:49,1,134.999995880127,8|0,0:0|0:0,0:0:0:0:
220,197,36831,2,0,L|86:176,1,134.999995880127,8|0,0:0|0:0,0:0:0:0:
285,271,37201,5,8,0:1:0:0:
285,271,37386,1,8,0:1:0:0:
220,197,37571,2,0,P|193:237|178:283,1,97.4999955368044,8|0,0:1|0:0,0:0:0:0:
317,177,37942,2,0,P|295:133|262:97,1,97.4999955368044,8|0,0:1|0:0,0:0:0:0:
285,271,38312,2,0,P|333:273|381:263,1,97.4999955368044,8|0,0:1|0:0,0:0:0:0:
471,252,38683,1,0,0:0:0:0:
471,252,38868,1,0,0:0:0:0:
317,177,39053,2,0,P|332:130|358:89,1,97.4999955368044,8|0,0:1|0:0,0:0:0:0:
381,262,39423,2,0,P|333:272|285:271,1,97.4999955368044,8|0,0:1|0:0,0:0:0:0:
416,173,39794,2,0,P|448:209|471:252,1,97.4999955368044,8|0,0:1|0:0,0:0:0:0:
460,331,40164,6,0,P|404:336|353:357,1,112.500004291535,8|0,0:1|0:0,0:0:0:0:
255,342,40534,2,0,P|200:335|149:314,1,112.500004291535,8|0,0:1|0:0,0:0:0:0:
83,242,40905,2,0,P|55:295|45:354,1,120,8|0,0:1|0:0,0:0:0:0:
147,313,41275,2,0,P|173:272|179:250,1,60
285,212,41460,2,0,P|259:253|253:275,1,60
376,239,41645,2,0,P|358:177|326:124,1,127.50000243187,8|0,0:1|0:0,0:0:0:0:
243,95,42016,2,0,P|183:115|130:148,1,127.50000243187,8|0,0:1|0:0,0:0:0:0:
83,242,42386,2,0,P|106:302|143:352,1,127.50000243187,8|0,0:1|0:0,0:0:0:0:
258,326,42757,5,8,0:1:0:0:
258,326,42942,1,8,0:1:0:0:
291,199,43127,5,0,1:0:0:0:
216,261,43312,1,8,0:1:0:0:
346,259,43497,5,0,1:0:0:0:
200,174,43683,1,8,0:1:0:0:
366,134,43868,5,0,1:0:0:0:
216,261,44053,1,8,0:1:0:0:
417,209,44238,5,0,1:0:0:0:
235,97,44424,1,8,0:1:0:0:
442,135,44608,5,0,1:0:0:0:
200,174,44793,1,8,0:1:0:0:
493,198,44979,5,0,1:0:0:0:
235,97,45165,1,8,0:1:0:0:
434,58,45349,5,0,1:0:0:0:
200,174,45534,1,8,0:1:0:0:
468,265,45720,5,0,1:0:0:0:
159,110,45905,1,8,0:1:0:0:
360,141,46090,5,0,1:0:0:0:
327,120,46183,1,0,0:0:0:0:
313,83,46275,1,0,0:0:0:0:
330,47,46368,1,0,0:0:0:0:
363,27,46460,1,0,1:0:0:0:
402,28,46553,1,0,0:0:0:0:
429,55,46645,1,0,0:0:0:0:
440,92,46738,1,0,0:0:0:0:
414,133,46831,1,0,1:0:0:0:
380,167,46923,1,0,0:0:0:0:
377,215,47016,1,0,1:0:0:0:
408,251,47108,1,0,0:0:0:0:
452,271,47201,1,0,1:0:0:0:
473,315,47294,1,0,0:0:0:0:
454,359,47386,1,0,1:0:0:0:
406,368,47479,1,0,0:0:0:0:
361,342,47571,6,0,L|280:342,1,75
351,265,47942,2,0,L|294:265,1,56.2500021457673
341,188,48312,2,0,L|303:188,1,37.5
331,112,48683,6,0,B|324:112|324:112|319:108|319:108|314:112|314:112|297:112,1,33.7499989700318,8|0,0:1|0:0,0:0:0:0:
211,90,49053,6,0,P|176:56|159:17,1,71.2499980974198,0|0,1:0|0:0,0:0:0:0:
146,157,49238,2,0,P|181:191|198:230,1,71.2499980974198,0|0,1:0|0:0,0:0:0:0:
79,88,49423,6,0,P|54:137|54:209,1,112.5,8|0,0:0|0:0,0:0:0:0:
3,262,49794,6,0,P|75:261|50:193,1,168.750006437302,0|0,1:0|0:0,0:0:0:0:
85,296,50164,6,0,L|179:287,1,93.75,0|0,1:0|0:0,0:0:0:0:
239,147,50349,2,0,L|130:158,1,93.75,0|0,1:0|0:0,0:0:0:0:
343,284,50534,6,0,P|270:282|296:214,1,168.750006437302,0|0,1:0|0:0,0:0:0:0:
332,137,50905,2,0,L|223:148,1,93.75,0|0,1:0|0:0,0:0:0:0:
405,228,51090,2,0,L|503:218,1,93.75,0|0,1:0|0:0,0:0:0:0:
294,214,51275,2,0,P|263:264|321:301,1,112.500004291535,0|0,1:0|0:0,0:0:0:0:
434,145,51645,6,0,P|420:83|505:107,1,168.750006437302,8|0,0:1|0:0,0:0:0:0:
434,145,52016,2,0,P|400:104|372:11,1,112.500004291535,8|0,0:0|0:0,0:0:0:0:
278,239,52386,6,0,L|278:317,1,75,0|0,1:0|0:0,0:0:0:0:
174,183,52571,2,0,L|110:183,1,63.7500012159348,8|0,0:1|0:0,0:0:0:0:
286,247,52757,2,0,L|286:325,1,75,0|0,1:0|0:0,0:0:0:0:
166,175,52942,2,0,L|102:175,1,63.7500012159348,8|0,0:1|0:0,0:0:0:0:
250,123,53127,6,0,P|263:68|256:13,1,112.5,0|0,1:0|0:0,0:0:0:0:
363,33,53497,6,0,L|441:33,1,75,0|0,1:0|0:0,0:0:0:0:
362,148,53683,2,0,L|362:211,1,63.7500012159348,8|0,0:1|0:0,0:0:0:0:
371,25,53868,2,0,L|449:25,1,75,0|0,1:0|0:0,0:0:0:0:
354,156,54053,2,0,L|354:219,1,63.7500012159348,8|0,0:1|0:0,0:0:0:0:
239,119,54238,6,0,L|179:114,1,31.8750006079674,0|0,3:0|0:0,0:0:0:0:
354,219,54423,2,0,L|414:224,1,31.8750006079674,0|0,3:0|0:0,0:0:0:0:
239,119,54608,2,0,L|179:114,1,31.8750006079674,0|0,3:0|0:0,0:0:0:0:
354,219,54793,2,0,L|414:224,1,31.8750006079674,0|0,3:0|0:0,0:0:0:0:
118,91,54979,6,0,P|104:137|77:171,1,71.2499980974198,0|0,1:0|0:0,0:0:0:0:
207,116,55164,2,0,P|220:69|247:35,1,71.2499980974198,0|0,1:0|0:0,0:0:0:0:
365,83,55349,6,0,P|325:107|318:184,1,112.5,8|0,0:0|0:0,0:0:0:0:
358,237,55720,6,0,P|286:236|311:168,1,168.750006437302,0|0,1:0|0:0,0:0:0:0:
418,177,56090,2,0,P|437:208|453:261,1,93.75,0|0,1:0|0:0,0:0:0:0:
311,167,56275,2,0,P|291:135|275:82,1,93.75,0|0,1:0|0:0,0:0:0:0:
365,83,56460,6,0,P|425:43|368:0,1,168.750006437302,0|0,1:0|0:0,0:0:0:0:
275,81,56831,2,0,P|237:85|183:77,1,93.75,0|0,1:0|0:0,0:0:0:0:
311,167,57016,2,0,P|348:162|402:170,1,93.75,0|0,1:0|0:0,0:0:0:0:
371,322,57201,2,0,P|343:308|361:236,1,112.500004291535,0|0,1:0|0:0,0:0:0:0:
208,312,57571,6,0,P|132:296|90:308,1,112.5,8|0,0:1|0:0,0:0:0:0:
34,345,57942,6,0,P|23:322|21:296,1,52.4999983978272,8|0,0:0|0:0,0:0:0:0:
34,150,58127,2,0,P|22:173|20:199,1,52.4999983978272,2|0,0:0|0:0,0:0:0:0:
193,192,58312,1,0,1:0:0:0:
193,193,58497,2,0,P|171:145|210:110,1,112.500004291535
349,259,58868,1,2,0:0:0:0:
300,105,59053,1,2,0:0:0:0:
249,318,59238,1,2,0:0:0:0:
432,87,59423,6,0,P|443:63|445:37,1,52.4999983978272,0|0,1:0|0:0,0:0:0:0:
313,55,59608,2,0,P|301:78|299:104,1,52.4999983978272,0|0,1:0|0:0,0:0:0:0:
423,204,59794,1,2,0:0:0:0:
373,128,59979,1,2,0:0:0:0:
349,259,60164,2,0,P|294:240|246:238,1,89.9999972534181,0|0,1:0|1:0,0:0:0:0:
163,283,60534,6,0,L|128:283,1,33.7499989700318,8|0,0:0|0:0,0:0:0:0:
56,308,60905,6,0,L|35:217,1,71.2499980974198,0|0,1:0|0:0,0:0:0:0:
138,142,61090,2,0,L|117:233,1,71.2499980974198,0|0,1:0|0:0,0:0:0:0:
38,127,61275,6,0,P|64:71|128:39,1,112.5,8|0,0:0|0:0,0:0:0:0:
195,87,61645,6,2,B|232:104|232:104|326:89,1,127.50000243187,0|0,1:0|0:0,0:1:0:0:
394,40,61831,2,2,B|389:80|389:80|432:165,1,127.50000243187,0|0,1:0|0:0,0:1:0:0:
500,214,62016,2,2,B|460:221|460:221|392:289,1,127.50000243187,0|0,1:0|0:0,0:1:0:0:
367,368,62201,2,2,B|347:332|347:332|262:289,1,127.50000243187,0|0,1:0|0:0,0:1:0:0:
179,289,62386,6,2,B|206:259|206:259|221:165,1,127.50000243187,0|0,1:0|0:0,0:1:0:0:
99,102,62571,1,8,0:1:0:0:
99,102,62664,1,0,0:0:0:0:
99,102,62757,2,2,P|171:122|195:82,1,127.50000243187,0|0,1:0|0:0,0:1:0:0:
289,71,62942,2,2,P|217:51|193:91,1,127.50000243187,8|0,0:1|0:0,0:1:0:0:
220,173,63127,2,2,B|249:200|249:200|343:215,1,127.50000243187,0|0,1:0|0:0,0:1:0:0:
352,292,63312,2,2,B|389:274|389:274|474:288,1,127.50000243187,0|0,1:0|0:0,0:1:0:0:
475,289,63497,6,0,P|490:231|487:173,1,112.5,0|0,1:0|0:0,0:0:0:0:
424,133,63868,2,0,P|436:183|487:179,1,112.5,8|0,0:0|0:0,0:0:0:0:
409,21,64238,6,0,L|427:150,1,112.500004291535,0|0,1:0|0:0,0:0:0:0:
325,177,64423,2,0,L|343:48,1,112.500004291535,2|0,0:0|0:0,0:0:0:0:
228,97,64608,2,0,L|246:226,1,112.500004291535,0|0,1:0|0:0,0:0:0:0:
144,253,64793,2,0,L|162:124,1,112.500004291535,2|0,0:0|0:0,0:0:0:0:
243,208,64979,6,0,L|243:295,1,75,0|0,1:0|0:0,0:0:0:0:
463,80,65349,5,0,0:0:0:0:
434,93,65442,1,0,0:0:0:0:
407,105,65534,2,0,L|423:216,1,112.500004291535,2|0,0:0|0:0,0:0:0:0:
269,152,65720,1,0,0:0:0:0:
298,165,65812,1,0,0:0:0:0:
325,177,65905,2,0,L|309:288,1,112.500004291535,2|0,0:0|0:0,0:0:0:0:
218,317,66090,6,0,L|216:285,1,31.8750006079674,0|0,3:0|0:0,0:0:0:0:
438,260,66275,2,0,L|436:228,1,31.8750006079674,0|0,3:0|0:0,0:0:0:0:
218,317,66460,2,0,L|217:285,1,31.8750006079674,0|0,3:0|0:0,0:0:0:0:
438,260,66645,2,0,L|437:228,1,31.8750006079674,0|0,3:0|0:0,0:0:0:0:
237,30,66831,6,0,P|287:22|318:11,1,71.2499980974198,0|0,1:0|0:0,0:0:0:0:
332,115,67016,2,0,P|382:123|413:134,1,71.2499980974198,0|0,1:0|0:0,0:0:0:0:
443,42,67201,6,0,P|400:75|401:129,1,112.5,8|0,0:0|0:0,0:0:0:0:
437,229,67571,6,0,P|325:214|221:175,1,225,2|0,0:0|0:0,0:0:0:0:
117,155,67942,6,0,P|242:151|347:219,1,253.125009655953,2|0,0:0|0:0,0:0:0:0:
387,359,68312,6,0,P|351:224|396:93,1,281.25,2|0,0:0|0:0,0:0:0:0:
438,228,68683,6,0,P|309:312|156:318,1,309.37500295043,2|0,0:0|0:0,0:0:0:0:
155,124,69053,6,0,P|306:205|386:358,1,348.750002660751,2|0,0:0|0:0,0:0:0:0:
157,319,69423,6,0,P|126:273|114:205,1,112.5,8|0,0:0|0:0,0:0:0:0:
155,124,69794,5,0,1:0:0:0:
155,124,69979,2,0,P|104:126|18:188,1,142.49999619484,2|0,0:0|1:0,0:0:0:0:
184,214,70349,2,0,L|112:218,1,71.2499980974198
48,298,70534,1,8,0:0:0:0:
259,191,70720,1,2,0:0:0:0:
113,218,70905,1,0,1:0:0:0:
189,303,71090,1,2,0:0:0:0:
277,72,71275,5,0,1:0:0:0:
277,72,71460,2,0,P|203:51|132:66,1,142.49999619484,2|0,0:0|1:0,0:0:0:0:
259,191,71831,2,0,L|255:262,1,71.2499980974198,8|0,0:1|0:0,0:0:0:0:
121,243,72016,5,0,1:0:0:0:
352,153,72201,1,0,1:0:0:0:
169,349,72386,5,2,0:0:0:0:
277,72,72571,1,8,0:1:0:0:
76,165,72757,5,0,1:0:0:0:
259,191,72942,1,0,0:0:0:0:
121,243,73127,1,0,1:0:0:0:
277,72,73312,1,0,0:0:0:0:
244,267,73497,1,0,1:0:0:0:
156,174,73682,1,0,0:0:0:0:
387,197,73868,2,0,P|444:180|492:108,1,142.49999619484,8|0,1:0|0:0,0:0:0:0:
277,72,74238,5,0,1:0:0:0:
361,278,74423,1,0,0:0:0:0:
382,88,74608,1,0,1:0:0:0:
257,183,74794,1,0,0:0:0:0:
490,114,74979,2,0,P|490:200|477:261,1,142.49999619484,0|0,1:0|1:0,0:0:0:0:
257,183,75349,2,0,P|296:173|352:169,1,71.2499980974198,8|0,0:1|0:0,0:0:0:0:
295,308,75534,2,0,P|256:318|200:322,1,71.2499980974198,8|0,0:1|0:0,0:0:0:0:
110,219,75720,5,0,1:0:0:0:
34,357,75905,1,0,0:0:0:0:
234,250,76090,1,0,1:0:0:0:
24,275,76275,1,0,0:0:0:0:
163,348,76460,1,0,1:0:0:0:
55,151,76645,1,0,0:0:0:0:
34,357,76831,2,0,P|105:328|171:355,1,142.49999619484,0|0,1:0|1:0,0:0:0:0:
293,179,77201,5,0,1:0:0:0:
110,219,77386,1,0,0:0:0:0:
260,325,77571,1,0,1:0:0:0:
186,147,77757,1,0,0:0:0:0:
163,348,77942,2,0,P|168:271|221:223,1,142.49999619484,0|0,1:0|0:0,0:0:0:0:
479,325,78312,2,0,P|410:358|342:336,1,142.49999619484,0|0,1:0|0:0,0:0:0:0:
293,179,78683,5,0,1:0:0:0:
261,357,78868,1,8,0:1:0:0:
134,134,79053,1,0,1:0:0:0:
336,271,79238,1,8,0:1:0:0:
336,271,79331,1,0,0:0:0:0:
336,271,79423,1,0,1:0:0:0:
91,279,79608,1,8,0:1:0:0:
317,115,79794,1,0,1:0:0:0:
261,357,79979,1,8,0:1:0:0:
134,134,80164,5,0,1:0:0:0:
419,191,80349,1,8,0:1:0:0:
183,285,80534,1,0,1:0:0:0:
404,111,80720,1,8,0:1:0:0:
404,111,80812,1,8,0:1:0:0:
404,111,80905,1,0,1:0:0:0:
371,350,81090,1,8,0:1:0:0:
134,134,81275,1,8,0:1:0:0:
497,273,81460,1,0,1:0:0:0:
154,323,81645,5,0,1:0:0:0:
123,294,81738,1,0,0:0:0:0:
105,255,81831,1,0,0:0:0:0:
107,213,81923,1,0,0:0:0:0:
125,175,82016,1,0,1:0:0:0:
134,134,82108,1,0,0:0:0:0:
134,92,82201,1,0,0:0:0:0:
120,52,82294,1,0,0:0:0:0:
93,19,82386,1,0,1:0:0:0:
148,32,82479,1,0,0:0:0:0:
204,40,82571,1,0,1:0:0:0:
258,20,82664,1,0,0:0:0:0:
315,16,82757,1,0,1:0:0:0:
369,32,82849,1,0,0:0:0:0:
408,73,82942,1,0,1:0:0:0:
426,126,83034,1,0,0:0:0:0:
429,177,83127,6,0,P|425:214|407:246,1,75,0|0,3:0|0:0,0:0:0:0:
336,325,83497,1,2,0:0:0:0:
324,221,83683,1,2,0:0:0:0:
178,326,83868,6,0,P|146:272|137:209,1,127.50000243187,8|0,0:0|0:0,0:0:0:0:
245,142,84238,6,0,P|221:225|137:209,1,187.5,0|0,1:0|0:0,0:0:0:0:
180,48,84608,6,0,L|330:45,1,150,0|0,1:0|0:0,0:0:0:0:
386,123,84979,1,2,0:0:0:0:
329,45,85164,1,2,0:0:0:0:
317,196,85349,1,2,0:0:0:0:
453,48,85534,1,2,0:0:0:0:
280,119,85720,1,2,0:0:0:0:
466,206,85905,6,0,L|470:356,1,150,0|0,1:0|0:0,0:0:0:0:
389,272,86275,1,2,0:0:0:0:
386,123,86460,2,0,L|390:273,1,150,0|0,1:0|0:0,0:0:0:0:
320,327,86831,5,2,0:0:0:0:
251,268,87016,1,2,0:0:0:0:
183,333,87201,2,0,P|162:283|158:247,1,75,2|0,0:0|0:0,0:0:0:0:
15,45,87571,6,0,L|19:195,1,150,0|0,1:0|0:0,0:0:0:0:
73,267,87942,1,2,0:0:0:0:
123,179,88127,1,2,0:0:0:0:
18,195,88312,1,2,0:0:0:0:
158,262,88497,1,2,0:0:0:0:
95,79,88683,1,2,0:0:0:0:
239,163,88868,6,0,L|243:13,1,150,0|0,1:0|0:0,0:0:0:0:
335,94,89238,1,2,0:0:0:0:
332,244,89423,2,0,L|336:94,1,150,0|0,1:0|0:0,0:0:0:0:
390,23,89794,5,2,0:0:0:0:
390,23,89979,1,2,0:0:0:0:
414,122,90164,1,0,1:0:0:0:
335,94,90349,1,0,1:0:0:0:
486,56,90534,6,0,B|487:122|487:122|481:157|481:157|482:206,1,150,0|0,1:0|0:0,0:0:0:0:
472,330,90905,5,2,0:0:0:0:
345,266,91090,1,2,0:0:0:0:
391,340,91275,1,2,0:0:0:0:
392,198,91460,1,2,0:0:0:0:
296,334,91645,1,2,0:0:0:0:
482,205,91831,6,0,L|486:55,1,150,0|0,1:0|0:0,0:0:0:0:
395,49,92201,1,2,0:0:0:0:
392,198,92386,2,0,L|396:48,1,150,0|0,1:0|0:0,0:0:0:0:
306,29,92757,5,2,0:0:0:0:
225,72,92942,1,2,0:0:0:0:
150,40,93127,2,0,P|129:90|125:126,1,75,2|0,0:0|0:0,0:0:0:0:
221,221,93497,6,0,L|225:71,1,150,0|0,1:0|0:0,0:0:0:0:
224,71,93868,1,2,0:0:0:0:
325,201,94053,2,0,P|298:292|226:322,1,150,0|0,1:0|0:0,0:0:0:0:
254,317,94423,1,2,0:0:0:0:
120,147,94608,2,0,L|116:297,1,150,0|0,1:0|0:0,0:0:0:0:
186,372,94979,5,0,1:0:0:0:
221,221,95164,1,0,0:0:0:0:
254,317,95349,1,0,1:0:0:0:
186,284,95534,1,0,0:0:0:0:
325,201,95720,6,0,P|399:200|450:246,1,112.500004291535,8|0,0:0|0:0,0:0:0:0:
221,221,96090,2,0,P|183:157|197:90,1,112.500004291535,8|0,0:0|0:0,0:0:0:0:
425,39,96460,6,0,B|374:14|374:14|231:17,1,172.500003290176,0|0,1:0|0:0,0:0:0:0:
87,67,96831,1,2,0:0:0:0:
213,92,97016,1,2,0:0:0:0:
163,28,97201,1,2,0:0:0:0:
102,188,97386,1,2,0:0:0:0:
263,156,97571,1,2,0:0:0:0:
29,122,97757,2,0,B|4:173|4:173|7:316,1,172.500003290176,0|0,1:0|0:0,0:0:0:0:
102,188,98127,1,2,0:0:0:0:
131,354,98312,2,0,B|104:303|104:303|102:160,1,172.500003290176,0|0,1:0|0:0,0:0:0:0:
233,82,98683,1,2,0:0:0:0:
181,229,98868,1,2,0:0:0:0:
263,156,99053,1,2,0:0:0:0:
169,146,99238,1,2,0:0:0:0:
206,315,99423,6,0,B|256:341|256:341|399:343,1,172.500003290176,0|0,1:0|0:0,0:0:0:0:
482,232,99794,1,2,0:0:0:0:
372,251,99979,1,2,0:0:0:0:
456,309,100164,1,2,0:0:0:0:
300,202,100349,1,2,0:0:0:0:
372,342,100534,1,2,0:0:0:0:
462,144,100720,2,0,B|431:96|431:96|308:23,1,172.500003290176,0|0,1:0|0:0,0:0:0:0:
169,95,101090,1,2,0:0:0:0:
300,202,101275,2,0,B|269:154|269:154|146:81,1,172.500003290176,0|0,1:0|0:0,0:0:0:0:
58,68,101645,1,2,0:0:0:0:
58,68,101831,1,2,0:0:0:0:
9,191,102016,1,0,1:0:0:0:
78,143,102202,1,0,1:0:0:0:
36,357,102386,6,0,B|10:307|10:307|8:164,1,172.500003290176,0|0,1:0|0:0,0:0:0:0:
154,106,102757,1,2,0:0:0:0:
78,143,102942,1,2,0:0:0:0:
202,176,103127,1,2,0:0:0:0:
58,68,103312,1,2,0:0:0:0:
120,245,103497,1,2,0:0:0:0:
241,90,103683,2,0,B|297:85|297:85|429:139,1,172.500003290176,0|0,1:0|0:0,0:0:0:0:
451,249,104053,1,2,0:0:0:0:
288,209,104238,2,0,B|344:205|344:205|476:259,1,172.500003290176,0|0,1:0|0:0,0:0:0:0:
335,328,104608,1,2,0:0:0:0:
488,178,104794,1,2,0:0:0:0:
447,360,104979,6,0,P|441:304|450:248,1,112.500004291535,2|0,0:0|0:0,0:0:0:0:
347,87,105349,6,0,B|298:61|298:61|155:59,1,172.500003290176,0|0,1:0|0:0,0:0:0:0:
149,147,105720,1,2,0:0:0:0:
316,175,105905,2,0,B|267:149|267:149|124:147,1,172.500003290176,0|0,1:0|0:0,0:0:0:0:
118,235,106275,1,2,0:0:0:0:
285,263,106460,2,0,B|335:288|335:288|478:290,1,172.500003290176,0|0,1:0|0:0,0:0:0:0:
315,174,106831,5,8,0:1:0:0:
483,154,107016,1,8,0:1:0:0:
348,40,107201,2,0,P|317:103|315:174,1,142.49999619484,8|0,0:1|0:0,0:0:0:0:
451,289,107571,2,0,P|482:226|484:155,1,142.49999619484,8|0,0:1|0:0,0:0:0:0:
241,331,107942,1,8,0:1:0:0:
451,289,108127,1,8,0:1:0:0:
350,275,108312,6,0,P|352:309|363:341,1,67.4999979400635
412,189,108683,1,0,0:0:0:0:
412,189,108868,2,0,P|383:172|349:166,1,67.4999979400635
280,208,109238,1,0,0:0:0:0:
413,296,109423,1,0,0:0:0:0:
413,296,109608,2,0,B|378:291|349:274|349:274,1,67.4999979400635
280,208,109979,1,0,0:0:0:0:
362,100,110164,1,0,0:0:0:0:
362,100,110349,2,0,B|362:98|362:131|349:165,1,67.4999979400635
204,234,110720,1,0,0:0:0:0:
204,234,110905,2,0,B|192:200|192:167|192:167,1,67.4999979400635
243,84,111275,6,0,B|209:72|176:72|176:72,1,67.4999979400635
36,153,111645,1,0,0:0:0:0:
36,153,111831,2,0,B|70:165|103:165|103:165,1,67.4999979400635
192,167,112201,1,0,0:0:0:0:
85,22,112386,1,0,0:0:0:0:
85,22,112571,2,0,B|83:58|93:89|93:89,1,67.4999979400635
192,167,112942,1,0,0:0:0:0:
92,88,113127,1,0,0:0:0:0:
186,3,113312,2,0,P|218:14|171:69,1,134.999995880127
192,167,113868,2,0,B|226:167|226:167|255:153,1,67.4999979400635
305,53,114238,6,0,L|322:133,1,67.4999979400635
379,220,114608,1,0,0:0:0:0:
379,220,114794,2,0,P|413:222|445:210,1,67.4999979400635
472,132,115164,1,0,0:0:0:0:
369,43,115349,1,0,0:0:0:0:
369,43,115534,2,0,P|335:41|303:53,1,67.4999979400635
256,153,115905,1,0,0:0:0:0:
304,52,116090,1,0,0:0:0:0:
184,28,116275,2,0,P|172:59|172:92,1,67.4999979400635
220,223,116645,1,0,0:0:0:0:
220,223,116831,2,0,P|231:254|231:287,1,67.4999979400635
170,350,117201,5,0,0:0:0:0:
68,292,117386,1,0,0:0:0:0:
56,284,117756,5,0,0:0:0:0:
44,276,118127,5,0,0:0:0:0:
79,366,118312,1,0,0:0:0:0:
150,249,118497,1,0,0:0:0:0:
150,249,118683,6,0,P|162:217|161:183,1,67.4999979400635
69,199,119053,1,0,0:0:0:0:
69,199,119238,2,0,P|36:147|43:73,1,134.999995880127
41,76,119794,6,0,L|155:46,1,112.500004291535,2|0,0:0|0:0,0:0:0:0:
