osu file format v14

[General]
AudioFilename: audio.mp3
AudioLeadIn: 0
PreviewTime: 47571
Countdown: 0
SampleSet: Normal
StackLeniency: 0.7
Mode: 3
LetterboxInBreaks: 0
SpecialStyle: 0
WidescreenStoryboard: 1

[Editor]
Bookmarks: 10534,13497,24979,25349,36460,37201,43127,46090,47571,48683,49053,57942,60905,72757,78683,81645,83127,84238,84608,96460,108312,119794,119979
DistanceSpacing: 2.5
BeatDivisor: 4
GridSize: 8
TimelineZoom: 1.3

[Metadata]
Title:Shiba Island
TitleUnicode:Shiba Island
Artist:James Landino
ArtistUnicode:James Landino
Creator:Leniane
Version:Normal
Source:osu!
Tags:Feerum Featured Artist FA Mappers' Guild EDM electronic instrumental
BeatmapID:2086346
BeatmapSetID:983864

[Difficulty]
HPDrainRate:7.5
CircleSize:4
OverallDifficulty:7.2
ApproachRate:5
SliderMultiplier:1.4
SliderTickRate:1

[Events]
//Background and Video events
0,0,"bg.jpg",0,0
//Break Periods
//Storyboard Layer 0 (Background)
//Storyboard Layer 1 (Fail)
//Storyboard Layer 2 (Pass)
//Storyboard Layer 3 (Foreground)
//Storyboard Sound Samples

[TimingPoints]
1646,370.37037037037,4,1,1,60,1,0
37201,-100,4,1,1,70,0,0
49053,-100,4,1,1,80,0,1
57942,-100,4,1,1,60,0,0
60905,-100,4,1,1,80,0,1
72757,-100,4,1,1,60,0,0
108312,-100,4,1,1,40,0,0

[HitObjects]
64,192,905,128,0,1646:0:0:0:0:
320,192,1646,1,6,0:0:0:0:
448,192,1831,1,0,0:0:0:0:
64,192,2016,1,2,0:0:0:0:
192,192,2016,1,0,0:0:0:0:
320,192,2386,1,2,0:0:0:0:
192,192,2571,1,0,0:0:0:0:
320,192,2757,1,2,0:0:0:0:
448,192,2757,1,0,0:0:0:0:
64,192,2942,1,2,0:0:0:0:
192,192,3127,1,2,0:0:0:0:
320,192,3497,1,2,0:0:0:0:
448,192,3497,1,0,0:0:0:0:
64,192,3868,1,2,0:0:0:0:
192,192,3868,1,0,0:0:0:0:
64,192,4238,1,8,0:0:0:0:
448,192,4238,1,0,0:0:0:0:
320,192,4423,1,2,0:0:0:0:
192,192,4608,1,2,0:0:0:0:
64,192,4794,1,0,0:0:0:0:
320,192,4979,1,2,0:0:0:0:
448,192,4979,1,0,0:0:0:0:
192,192,5349,1,2,0:0:0:0:
320,192,5534,1,0,0:0:0:0:
64,192,5720,1,2,0:0:0:0:
448,192,5720,1,0,0:0:0:0:
192,192,5905,1,2,0:0:0:0:
320,192,6090,1,2,0:0:0:0:
192,192,6460,1,2,0:0:0:0:
448,192,6460,1,0,0:0:0:0:
64,192,6831,1,2,0:0:0:0:
320,192,6831,1,0,0:0:0:0:
64,192,7201,128,2,7571:0:0:0:0:
320,192,7386,1,2,0:0:0:0:
448,192,7571,1,2,0:0:0:0:
192,192,7757,1,0,0:0:0:0:
64,192,7942,1,2,0:0:0:0:
320,192,7942,1,0,0:0:0:0:
448,192,8312,1,2,0:0:0:0:
320,192,8497,1,0,0:0:0:0:
64,192,8683,1,2,0:0:0:0:
192,192,8683,1,0,0:0:0:0:
448,192,8868,1,2,0:0:0:0:
192,192,9053,1,2,0:0:0:0:
320,192,9423,1,2,0:0:0:0:
448,192,9423,1,0,0:0:0:0:
64,192,9794,1,2,0:0:0:0:
192,192,9794,1,0,0:0:0:0:
64,192,10164,1,8,0:0:0:0:
448,192,10164,1,0,0:0:0:0:
192,192,10349,1,2,0:0:0:0:
320,192,10534,1,2,0:0:0:0:
448,192,10720,1,0,0:0:0:0:
192,192,10905,1,2,0:0:0:0:
320,192,11090,1,0,0:0:0:0:
64,192,11275,1,2,0:0:0:0:
192,192,11460,1,0,0:0:0:0:
448,192,11645,1,2,0:0:0:0:
320,192,11831,1,2,0:0:0:0:
192,192,12016,1,2,0:0:0:0:
64,192,12201,1,0,0:0:0:0:
320,192,12386,1,2,0:0:0:0:
192,192,12571,1,0,0:0:0:0:
448,192,12757,1,2,0:0:0:0:
320,192,12942,1,2,0:0:0:0:
64,192,13127,1,2,0:0:0:0:
192,192,13312,1,2,0:0:0:0:
320,192,13497,1,6,0:0:0:0:
64,192,13683,1,0,0:0:0:0:
192,192,13868,1,2,0:0:0:0:
320,192,14053,1,0,0:0:0:0:
192,192,14423,1,0,0:0:0:0:
320,192,14608,1,2,0:0:0:0:
448,192,14794,128,0,15164:0:0:0:0:
320,192,15164,1,0,0:0:0:0:
192,192,15349,1,2,0:0:0:0:
64,192,15534,128,0,15905:0:0:0:0:
320,192,15905,1,0,0:0:0:0:
192,192,16090,1,2,0:0:0:0:
320,192,16460,1,2,0:0:0:0:
64,192,16645,1,0,0:0:0:0:
192,192,16831,1,2,0:0:0:0:
320,192,17016,1,0,0:0:0:0:
64,192,17386,1,0,0:0:0:0:
192,192,17571,1,2,0:0:0:0:
448,192,17757,128,0,18127:0:0:0:0:
192,192,18127,1,0,0:0:0:0:
320,192,18312,1,2,0:0:0:0:
64,192,18497,128,0,19053:0:0:0:0:
448,192,19053,1,2,0:0:0:0:
320,192,19423,1,2,0:0:0:0:
64,192,19608,1,0,0:0:0:0:
192,192,19794,1,2,0:0:0:0:
320,192,19979,1,0,0:0:0:0:
192,192,20349,1,0,0:0:0:0:
320,192,20534,1,2,0:0:0:0:
448,192,20720,128,0,21090:0:0:0:0:
320,192,21090,1,0,0:0:0:0:
192,192,21275,1,2,0:0:0:0:
64,192,21460,128,0,21831:0:0:0:0:
448,192,21831,1,0,0:0:0:0:
192,192,22016,1,2,0:0:0:0:
320,192,22386,1,2,0:0:0:0:
448,192,22571,1,0,0:0:0:0:
192,192,22942,1,0,0:0:0:0:
64,192,23312,1,0,0:0:0:0:
192,192,23497,1,2,0:0:0:0:
64,192,23683,1,0,0:0:0:0:
320,192,23868,1,2,0:0:0:0:
448,192,24053,1,0,0:0:0:0:
64,192,24423,128,0,24979:0:0:0:0:
320,192,24979,1,2,0:0:0:0:
448,192,24979,1,0,0:0:0:0:
192,192,25164,1,2,0:0:0:0:
320,192,25349,128,4,25534:0:0:0:0:
448,192,25349,1,2,0:0:0:0:
64,192,25534,128,0,25720:0:0:0:0:
192,192,25720,128,2,25905:0:0:0:0:
320,192,25905,128,2,26090:0:0:0:0:
192,192,26275,128,0,26460:0:0:0:0:
320,192,26460,128,2,26645:0:0:0:0:
448,192,26645,128,2,27016:0:0:0:0:
320,192,27016,128,0,27201:0:0:0:0:
192,192,27201,128,2,27386:0:0:0:0:
64,192,27386,128,0,27757:0:0:0:0:
320,192,27757,128,0,27942:0:0:0:0:
192,192,27942,128,8,28127:0:0:0:0:
320,192,28312,128,2,28497:0:0:0:0:
64,192,28497,128,0,28683:0:0:0:0:
192,192,28683,128,2,28868:0:0:0:0:
320,192,28868,128,2,29053:0:0:0:0:
64,192,29238,128,0,29423:0:0:0:0:
192,192,29423,128,2,29608:0:0:0:0:
448,192,29608,128,2,29979:0:0:0:0:
192,192,29979,128,0,30164:0:0:0:0:
320,192,30164,128,2,30349:0:0:0:0:
64,192,30349,128,0,30905:0:0:0:0:
448,192,30905,1,2,0:0:0:0:
320,192,31275,128,2,31460:0:0:0:0:
64,192,31460,128,0,31645:0:0:0:0:
192,192,31645,128,2,31831:0:0:0:0:
320,192,31831,128,2,32016:0:0:0:0:
192,192,32201,128,0,32386:0:0:0:0:
320,192,32386,128,2,32571:0:0:0:0:
448,192,32571,128,2,32942:0:0:0:0:
320,192,32942,128,0,33127:0:0:0:0:
192,192,33127,128,2,33312:0:0:0:0:
64,192,33312,128,0,33683:0:0:0:0:
448,192,33683,128,0,33868:0:0:0:0:
192,192,33868,128,8,34053:0:0:0:0:
320,192,34238,128,2,34423:0:0:0:0:
448,192,34423,128,0,34608:0:0:0:0:
192,192,34794,128,2,34979:0:0:0:0:
64,192,35164,128,0,35349:0:0:0:0:
192,192,35349,128,2,35534:0:0:0:0:
64,192,35534,128,2,35720:0:0:0:0:
320,192,35720,128,2,35905:0:0:0:0:
448,192,35905,128,0,36090:0:0:0:0:
64,192,36275,128,0,36831:0:0:0:0:
448,192,36460,1,2,0:0:0:0:
320,192,36831,1,2,0:0:0:0:
448,192,36831,1,0,0:0:0:0:
192,192,37016,1,2,0:0:0:0:
320,192,37201,1,4,0:0:0:0:
448,192,37201,1,8,0:0:0:0:
192,192,37571,1,8,0:0:0:0:
448,192,37571,1,0,0:0:0:0:
192,192,37942,1,8,0:0:0:0:
320,192,37942,1,0,0:0:0:0:
64,192,38312,1,8,0:0:0:0:
320,192,38312,1,0,0:0:0:0:
64,192,38683,1,8,0:0:0:0:
192,192,38683,1,0,0:0:0:0:
192,192,39053,1,8,0:0:0:0:
320,192,39053,1,0,0:0:0:0:
320,192,39423,1,8,0:0:0:0:
448,192,39423,1,0,0:0:0:0:
192,192,39794,1,8,0:0:0:0:
320,192,39794,1,0,0:0:0:0:
64,192,40164,1,8,0:0:0:0:
192,192,40164,1,0,0:0:0:0:
64,192,40534,1,8,0:0:0:0:
320,192,40534,1,0,0:0:0:0:
192,192,40905,1,8,0:0:0:0:
320,192,40905,1,0,0:0:0:0:
192,192,41275,1,8,0:0:0:0:
448,192,41275,1,0,0:0:0:0:
320,192,41645,1,8,0:0:0:0:
448,192,41645,1,0,0:0:0:0:
192,192,42016,1,8,0:0:0:0:
320,192,42016,1,0,0:0:0:0:
64,192,42386,1,8,0:0:0:0:
192,192,42386,1,0,0:0:0:0:
192,192,42757,1,8,0:0:0:0:
320,192,42757,1,0,0:0:0:0:
320,192,43127,1,8,0:0:0:0:
448,192,43127,1,0,0:0:0:0:
64,192,43312,1,8,0:0:0:0:
192,192,43497,1,8,0:0:0:0:
448,192,43497,1,0,0:0:0:0:
320,192,43683,1,8,0:0:0:0:
64,192,43868,1,8,0:0:0:0:
192,192,43868,1,0,0:0:0:0:
448,192,44053,1,8,0:0:0:0:
64,192,44238,1,8,0:0:0:0:
320,192,44238,1,0,0:0:0:0:
192,192,44423,1,8,0:0:0:0:
320,192,44608,1,8,0:0:0:0:
448,192,44608,1,0,0:0:0:0:
192,192,44794,1,8,0:0:0:0:
64,192,44979,1,8,0:0:0:0:
448,192,44979,1,0,0:0:0:0:
320,192,45164,1,8,0:0:0:0:
64,192,45349,1,8,0:0:0:0:
192,192,45349,1,0,0:0:0:0:
448,192,45534,1,8,0:0:0:0:
192,192,45720,1,8,0:0:0:0:
320,192,45720,1,0,0:0:0:0:
64,192,45905,1,8,0:0:0:0:
192,192,46090,1,8,0:0:0:0:
320,192,46183,1,0,0:0:0:0:
448,192,46275,1,8,0:0:0:0:
320,192,46460,1,8,0:0:0:0:
192,192,46553,1,0,0:0:0:0:
64,192,46645,1,8,0:0:0:0:
448,192,46831,1,8,0:0:0:0:
320,192,46923,1,0,0:0:0:0:
192,192,47016,1,8,0:0:0:0:
64,192,47201,1,8,0:0:0:0:
192,192,47294,1,0,0:0:0:0:
320,192,47386,1,8,0:0:0:0:
448,192,47571,128,0,47757:0:0:0:0:
320,192,47942,128,0,48127:0:0:0:0:
192,192,48312,128,0,48497:0:0:0:0:
64,192,48683,1,8,0:0:0:0:
448,192,48683,1,2,0:0:0:0:
192,192,49053,1,8,0:0:0:0:
64,192,49053,1,4,0:0:0:0:
320,192,49238,1,0,0:0:0:0:
64,192,49423,128,2,49794:0:0:0:0:
320,192,49794,128,2,49979:0:0:0:0:
64,192,49979,1,0,0:0:0:0:
448,192,50164,128,2,50349:0:0:0:0:
192,192,50349,128,0,50534:0:0:0:0:
320,192,50534,128,2,50720:0:0:0:0:
64,192,50720,1,0,0:0:0:0:
448,192,50905,128,2,51090:0:0:0:0:
192,192,51090,128,0,51275:0:0:0:0:
64,192,51275,128,2,51645:0:0:0:0:
320,192,51645,128,8,52016:0:0:0:0:
448,192,51645,1,0,0:0:0:0:
192,192,52016,1,2,0:0:0:0:
320,192,52201,1,0,0:0:0:0:
64,192,52386,128,2,52571:0:0:0:0:
320,192,52571,1,0,0:0:0:0:
192,192,52757,128,2,52942:0:0:0:0:
448,192,52942,1,0,0:0:0:0:
64,192,53127,128,8,53497:0:0:0:0:
320,192,53497,128,2,53683:0:0:0:0:
64,192,53683,1,0,0:0:0:0:
448,192,53868,128,2,54053:0:0:0:0:
192,192,54053,1,0,0:0:0:0:
64,192,54238,1,2,0:0:0:0:
64,192,54423,1,0,0:0:0:0:
448,192,54608,1,2,0:0:0:0:
448,192,54794,1,0,0:0:0:0:
192,192,54979,1,4,0:0:0:0:
64,192,54979,1,8,0:0:0:0:
320,192,55164,1,0,0:0:0:0:
64,192,55349,128,2,55720:0:0:0:0:
448,192,55720,128,2,55905:0:0:0:0:
64,192,55905,1,0,0:0:0:0:
320,192,56090,128,2,56275:0:0:0:0:
192,192,56275,128,0,56460:0:0:0:0:
448,192,56460,128,2,56645:0:0:0:0:
64,192,56645,1,0,0:0:0:0:
320,192,56831,128,2,57016:0:0:0:0:
192,192,57016,128,0,57201:0:0:0:0:
64,192,57201,128,2,57571:0:0:0:0:
320,192,57571,128,8,57942:0:0:0:0:
448,192,57571,1,0,0:0:0:0:
192,192,57942,1,2,0:0:0:0:
448,192,58127,1,0,0:0:0:0:
320,192,58497,1,0,0:0:0:0:
64,192,58868,1,0,0:0:0:0:
192,192,59053,1,8,0:0:0:0:
64,192,59238,1,2,0:0:0:0:
320,192,59423,1,2,0:0:0:0:
448,192,59608,1,0,0:0:0:0:
64,192,59979,128,0,60534:0:0:0:0:
448,192,60534,1,8,0:0:0:0:
192,192,60905,1,8,0:0:0:0:
64,192,60905,1,4,0:0:0:0:
320,192,61090,1,0,0:0:0:0:
64,192,61275,128,2,61645:0:0:0:0:
320,192,61645,1,2,0:0:0:0:
320,192,61831,1,0,0:0:0:0:
192,192,62016,1,2,0:0:0:0:
192,192,62201,1,0,0:0:0:0:
64,192,62386,1,2,0:0:0:0:
64,192,62571,1,0,0:0:0:0:
448,192,62757,1,2,0:0:0:0:
448,192,62942,1,0,0:0:0:0:
192,192,63127,1,2,0:0:0:0:
64,192,63312,1,0,0:0:0:0:
320,192,63497,128,8,63868:0:0:0:0:
448,192,63497,1,0,0:0:0:0:
192,192,63868,1,2,0:0:0:0:
320,192,64053,1,0,0:0:0:0:
192,192,64238,128,2,64423:0:0:0:0:
448,192,64423,1,0,0:0:0:0:
64,192,64608,128,2,64794:0:0:0:0:
320,192,64794,1,0,0:0:0:0:
64,192,64979,128,8,65349:0:0:0:0:
320,192,65349,128,2,65534:0:0:0:0:
64,192,65534,1,0,0:0:0:0:
448,192,65720,128,2,65905:0:0:0:0:
192,192,65905,1,0,0:0:0:0:
64,192,66090,1,2,0:0:0:0:
64,192,66275,1,0,0:0:0:0:
448,192,66460,1,2,0:0:0:0:
448,192,66645,1,0,0:0:0:0:
192,192,66831,1,12,0:0:0:0:
320,192,67016,1,0,0:0:0:0:
64,192,67201,128,2,67571:0:0:0:0:
320,192,67571,128,2,67942:0:0:0:0:
64,192,67942,128,2,68312:0:0:0:0:
448,192,68312,128,2,68683:0:0:0:0:
192,192,68683,128,2,69053:0:0:0:0:
448,192,69053,128,2,69423:0:0:0:0:
320,192,69423,128,2,69794:0:0:0:0:
64,192,69423,1,0,0:0:0:0:
192,192,69794,1,2,0:0:0:0:
448,192,69979,1,0,0:0:0:0:
320,192,70349,1,0,0:0:0:0:
64,192,70720,1,0,0:0:0:0:
192,192,70905,1,2,0:0:0:0:
64,192,71090,1,0,0:0:0:0:
320,192,71275,1,2,0:0:0:0:
448,192,71460,1,0,0:0:0:0:
64,192,71831,128,0,72386:0:0:0:0:
320,192,72386,1,8,0:0:0:0:
448,192,72386,1,0,0:0:0:0:
192,192,72571,1,2,0:0:0:0:
320,192,72757,1,2,0:0:0:0:
448,192,72757,1,0,0:0:0:0:
192,192,72942,1,0,0:0:0:0:
64,192,73127,1,8,0:0:0:0:
320,192,73312,1,0,0:0:0:0:
448,192,73497,1,2,0:0:0:0:
192,192,73683,1,0,0:0:0:0:
320,192,73868,1,8,0:0:0:0:
64,192,74053,1,0,0:0:0:0:
320,192,74238,1,2,0:0:0:0:
192,192,74423,1,0,0:0:0:0:
448,192,74608,1,8,0:0:0:0:
64,192,74794,1,0,0:0:0:0:
192,192,74979,1,2,0:0:0:0:
320,192,75164,1,0,0:0:0:0:
64,192,75349,1,8,0:0:0:0:
448,192,75349,1,0,0:0:0:0:
320,192,75720,1,2,0:0:0:0:
192,192,75905,1,0,0:0:0:0:
448,192,76090,1,8,0:0:0:0:
64,192,76275,1,0,0:0:0:0:
192,192,76460,1,2,0:0:0:0:
320,192,76645,1,0,0:0:0:0:
64,192,76831,1,8,0:0:0:0:
448,192,77016,1,0,0:0:0:0:
192,192,77201,1,2,0:0:0:0:
64,192,77386,1,0,0:0:0:0:
448,192,77571,1,8,0:0:0:0:
192,192,77757,1,0,0:0:0:0:
320,192,77942,1,8,0:0:0:0:
448,192,78127,1,0,0:0:0:0:
192,192,78312,1,8,0:0:0:0:
64,192,78497,1,0,0:0:0:0:
448,192,78683,1,2,0:0:0:0:
320,192,78868,1,0,0:0:0:0:
192,192,79053,128,0,79238:0:0:0:0:
448,192,79238,1,2,0:0:0:0:
64,192,79423,1,0,0:0:0:0:
192,192,79608,1,0,0:0:0:0:
320,192,79794,128,0,79979:0:0:0:0:
64,192,79979,1,2,0:0:0:0:
448,192,80164,1,0,0:0:0:0:
320,192,80349,1,0,0:0:0:0:
192,192,80534,1,0,0:0:0:0:
448,192,80720,1,0,0:0:0:0:
192,192,80905,1,0,0:0:0:0:
320,192,81090,1,0,0:0:0:0:
64,192,81275,1,8,0:0:0:0:
448,192,81275,1,0,0:0:0:0:
320,192,81645,1,0,0:0:0:0:
448,192,81738,1,0,0:0:0:0:
192,192,81831,1,0,0:0:0:0:
320,192,82016,1,0,0:0:0:0:
64,192,82108,1,0,0:0:0:0:
192,192,82201,1,2,0:0:0:0:
448,192,82386,1,0,0:0:0:0:
320,192,82479,1,0,0:0:0:0:
192,192,82571,1,0,0:0:0:0:
64,192,82757,1,0,0:0:0:0:
192,192,82849,1,0,0:0:0:0:
320,192,82942,1,2,0:0:0:0:
64,192,83127,1,8,0:0:0:0:
448,192,83127,1,0,0:0:0:0:
320,192,83312,1,0,0:0:0:0:
192,192,83497,1,0,0:0:0:0:
64,192,83683,1,8,0:0:0:0:
448,192,83683,1,0,0:0:0:0:
320,192,83868,1,0,0:0:0:0:
192,192,84053,1,0,0:0:0:0:
320,192,84238,1,2,0:0:0:0:
448,192,84238,1,8,0:0:0:0:
64,192,84608,1,4,0:0:0:0:
448,192,84608,1,8,0:0:0:0:
192,192,84794,1,0,0:0:0:0:
448,192,84979,1,0,0:0:0:0:
320,192,85164,1,2,0:0:0:0:
64,192,85349,1,8,0:0:0:0:
448,192,85349,1,0,0:0:0:0:
192,192,85534,1,2,0:0:0:0:
320,192,85720,1,0,0:0:0:0:
64,192,85905,1,2,0:0:0:0:
448,192,85905,1,0,0:0:0:0:
192,192,86275,1,0,0:0:0:0:
64,192,86460,1,2,0:0:0:0:
448,192,86460,1,0,0:0:0:0:
448,192,86831,1,0,0:0:0:0:
192,192,86831,1,8,0:0:0:0:
320,192,87016,1,0,0:0:0:0:
64,192,87201,1,0,0:0:0:0:
448,192,87386,1,2,0:0:0:0:
64,192,87571,1,2,0:0:0:0:
320,192,87571,1,0,0:0:0:0:
192,192,87757,1,0,0:0:0:0:
448,192,87942,1,0,0:0:0:0:
64,192,88127,1,2,0:0:0:0:
192,192,88312,1,8,0:0:0:0:
320,192,88497,1,2,0:0:0:0:
64,192,88683,1,0,0:0:0:0:
320,192,88868,1,2,0:0:0:0:
448,192,88868,1,0,0:0:0:0:
192,192,89238,1,0,0:0:0:0:
448,192,89423,1,2,0:0:0:0:
320,192,89423,1,0,0:0:0:0:
64,192,89794,1,8,0:0:0:0:
448,192,89794,1,0,0:0:0:0:
320,192,89979,1,0,0:0:0:0:
64,192,90164,1,0,0:0:0:0:
192,192,90349,1,2,0:0:0:0:
320,192,90534,1,2,0:0:0:0:
448,192,90534,1,0,0:0:0:0:
64,192,90720,1,0,0:0:0:0:
320,192,90905,1,0,0:0:0:0:
64,192,91090,1,2,0:0:0:0:
192,192,91275,1,8,0:0:0:0:
320,192,91460,1,2,0:0:0:0:
448,192,91645,1,0,0:0:0:0:
64,192,91831,1,2,0:0:0:0:
192,192,91831,1,0,0:0:0:0:
320,192,92201,1,0,0:0:0:0:
192,192,92386,1,2,0:0:0:0:
448,192,92386,1,0,0:0:0:0:
64,192,92757,1,8,0:0:0:0:
448,192,92757,1,0,0:0:0:0:
320,192,92942,1,0,0:0:0:0:
192,192,93127,1,0,0:0:0:0:
448,192,93312,1,2,0:0:0:0:
64,192,93497,1,2,0:0:0:0:
192,192,93497,1,0,0:0:0:0:
320,192,93683,1,0,0:0:0:0:
64,192,93868,1,0,0:0:0:0:
320,192,94053,1,2,0:0:0:0:
448,192,94053,1,0,0:0:0:0:
192,192,94423,1,2,0:0:0:0:
64,192,94608,1,8,0:0:0:0:
448,192,94608,1,0,0:0:0:0:
320,192,94979,1,2,0:0:0:0:
64,192,95164,128,0,95720:0:0:0:0:
192,192,95720,1,8,0:0:0:0:
448,192,95720,1,0,0:0:0:0:
448,192,96090,1,8,0:0:0:0:
64,192,96275,1,2,0:0:0:0:
192,192,96460,1,4,0:0:0:0:
320,192,96460,1,8,0:0:0:0:
64,192,96645,1,0,0:0:0:0:
448,192,96831,1,0,0:0:0:0:
64,192,97016,1,2,0:0:0:0:
192,192,97201,1,8,0:0:0:0:
320,192,97386,1,2,0:0:0:0:
448,192,97571,1,0,0:0:0:0:
64,192,97757,1,2,0:0:0:0:
192,192,97757,1,0,0:0:0:0:
320,192,98127,1,0,0:0:0:0:
192,192,98312,1,0,0:0:0:0:
64,192,98312,1,2,0:0:0:0:
448,192,98683,1,8,0:0:0:0:
320,192,98868,1,0,0:0:0:0:
192,192,99053,1,0,0:0:0:0:
448,192,99238,1,2,0:0:0:0:
64,192,99423,1,2,0:0:0:0:
320,192,99423,1,0,0:0:0:0:
192,192,99608,1,0,0:0:0:0:
448,192,99794,1,0,0:0:0:0:
192,192,99979,1,2,0:0:0:0:
320,192,100164,1,8,0:0:0:0:
64,192,100349,1,2,0:0:0:0:
192,192,100534,1,0,0:0:0:0:
320,192,100720,1,2,0:0:0:0:
448,192,100720,1,0,0:0:0:0:
192,192,101090,1,0,0:0:0:0:
448,192,101275,1,2,0:0:0:0:
320,192,101275,1,0,0:0:0:0:
64,192,101645,1,8,0:0:0:0:
448,192,101645,1,0,0:0:0:0:
320,192,101831,1,0,0:0:0:0:
192,192,102016,1,0,0:0:0:0:
448,192,102201,1,2,0:0:0:0:
64,192,102386,1,2,0:0:0:0:
192,192,102386,1,0,0:0:0:0:
320,192,102571,1,0,0:0:0:0:
448,192,102757,1,0,0:0:0:0:
64,192,102942,1,2,0:0:0:0:
192,192,103127,1,8,0:0:0:0:
320,192,103312,1,2,0:0:0:0:
448,192,103497,1,0,0:0:0:0:
64,192,103683,1,2,0:0:0:0:
192,192,103683,1,0,0:0:0:0:
448,192,104053,1,0,0:0:0:0:
64,192,104238,1,2,0:0:0:0:
320,192,104238,1,0,0:0:0:0:
192,192,104608,1,8,0:0:0:0:
320,192,104608,1,0,0:0:0:0:
448,192,104794,1,0,0:0:0:0:
64,192,104979,1,0,0:0:0:0:
320,192,105164,1,2,0:0:0:0:
192,192,105349,1,2,0:0:0:0:
448,192,105349,1,0,0:0:0:0:
64,192,105534,1,0,0:0:0:0:
320,192,105720,1,0,0:0:0:0:
64,192,105905,1,2,0:0:0:0:
192,192,105905,1,0,0:0:0:0:
448,192,106275,1,0,0:0:0:0:
64,192,106460,1,2,0:0:0:0:
320,192,106460,1,0,0:0:0:0:
192,192,106831,1,0,0:0:0:0:
64,192,107016,128,0,107571:0:0:0:0:
192,192,107571,1,8,0:0:0:0:
448,192,107571,1,0,0:0:0:0:
192,192,107942,1,8,0:0:0:0:
64,192,108127,1,2,0:0:0:0:
448,192,108127,1,0,0:0:0:0:
320,192,108312,1,0,0:0:0:0:
64,192,108497,1,0,0:0:0:0:
192,192,108683,1,0,0:0:0:0:
320,192,108868,1,0,0:0:0:0:
192,192,109238,1,0,0:0:0:0:
320,192,109423,1,0,0:0:0:0:
448,192,109608,128,0,109979:0:0:0:0:
320,192,109979,1,0,0:0:0:0:
192,192,110164,1,0,0:0:0:0:
64,192,110349,128,0,110720:0:0:0:0:
320,192,110720,1,0,0:0:0:0:
192,192,110905,1,0,0:0:0:0:
320,192,111275,1,0,0:0:0:0:
64,192,111460,1,0,0:0:0:0:
192,192,111645,1,0,0:0:0:0:
320,192,111831,1,0,0:0:0:0:
64,192,112201,1,0,0:0:0:0:
192,192,112386,1,0,0:0:0:0:
448,192,112571,128,0,112942:0:0:0:0:
192,192,112942,1,0,0:0:0:0:
320,192,113127,1,0,0:0:0:0:
64,192,113312,128,0,113868:0:0:0:0:
448,192,113868,1,0,0:0:0:0:
320,192,114238,1,0,0:0:0:0:
64,192,114423,1,0,0:0:0:0:
192,192,114608,1,0,0:0:0:0:
320,192,114794,1,0,0:0:0:0:
192,192,115164,1,0,0:0:0:0:
320,192,115349,1,0,0:0:0:0:
448,192,115534,128,0,115905:0:0:0:0:
320,192,115905,1,0,0:0:0:0:
192,192,116090,1,0,0:0:0:0:
64,192,116275,128,0,116645:0:0:0:0:
448,192,116645,1,0,0:0:0:0:
192,192,116831,1,0,0:0:0:0:
320,192,117201,1,0,0:0:0:0:
448,192,117386,1,0,0:0:0:0:
192,192,117757,1,0,0:0:0:0:
64,192,118127,1,0,0:0:0:0:
192,192,118312,1,0,0:0:0:0:
64,192,118497,1,0,0:0:0:0:
320,192,118683,1,0,0:0:0:0:
448,192,118868,1,0,0:0:0:0:
64,192,119238,128,0,119794:0:0:0:0:
448,192,119794,1,8,0:0:0:0:
