osu file format v14

[General]
AudioFilename: audio.mp3
AudioLeadIn: 0
PreviewTime: 47571
Countdown: 0
SampleSet: Normal
StackLeniency: 0.7
Mode: 3
LetterboxInBreaks: 0
SpecialStyle: 0
WidescreenStoryboard: 1

[Editor]
Bookmarks: 10534,13497,24979,25349,36460,37201,43127,46090,47571,48683,49053,57942,60905,72757,78683,81645,83127,84238,84608,96460,108312,119794,119979
DistanceSpacing: 2.5
BeatDivisor: 4
GridSize: 8
TimelineZoom: 1.6

[Metadata]
Title:Shiba Island
TitleUnicode:Shiba Island
Artist:James Landino
ArtistUnicode:James Landino
Creator:Leniane
Version:Bork!
Source:osu!
Tags:Feerum Featured Artist FA Mappers' Guild EDM electronic instrumental
BeatmapID:2058648
BeatmapSetID:983864

[Difficulty]
HPDrainRate:8.3
CircleSize:4
OverallDifficulty:8
ApproachRate:5
SliderMultiplier:1.4
SliderTickRate:1

[Events]
//Background and Video events
0,0,"bg.jpg",0,0
//Break Periods
//Storyboard Layer 0 (Background)
//Storyboard Layer 1 (Fail)
//Storyboard Layer 2 (Pass)
//Storyboard Layer 3 (Foreground)
//Storyboard Sound Samples

[TimingPoints]
1646,370.37037037037,4,1,1,60,1,0
37201,-100,4,1,1,70,0,0
49053,-100,4,1,1,80,0,1
57942,-100,4,1,1,60,0,0
60905,-100,4,1,1,80,0,1
72757,-100,4,1,1,60,0,0
108312,-100,4,1,1,40,0,0

[HitObjects]
448,192,905,128,0,1646:0:0:0:0:
192,192,1646,5,2,0:0:0:0:
320,192,1646,1,4,0:0:0:0:
320,192,1831,1,0,0:0:0:0:
64,192,2016,128,2,2108:0:0:0:0:
192,192,2016,1,0,0:0:0:0:
192,192,2201,1,0,0:0:0:0:
64,192,2386,1,2,0:0:0:0:
448,192,2386,1,0,0:0:0:0:
448,192,2571,128,0,2664:0:0:0:0:
64,192,2757,1,2,0:0:0:0:
320,192,2757,1,0,0:0:0:0:
64,192,2942,1,2,0:0:0:0:
192,192,2942,1,0,0:0:0:0:
320,192,3127,1,2,0:0:0:0:
448,192,3127,1,0,0:0:0:0:
320,192,3312,1,0,0:0:0:0:
448,192,3497,128,0,3590:0:0:0:0:
192,192,3497,1,2,0:0:0:0:
192,192,3683,1,0,0:0:0:0:
64,192,3868,128,2,3960:0:0:0:0:
448,192,3868,1,0,0:0:0:0:
448,192,4053,1,0,0:0:0:0:
64,192,4238,1,8,0:0:0:0:
192,192,4238,1,0,0:0:0:0:
320,192,4238,1,0,0:0:0:0:
64,192,4423,1,2,0:0:0:0:
320,192,4423,1,0,0:0:0:0:
192,192,4608,1,2,0:0:0:0:
448,192,4608,1,0,0:0:0:0:
448,192,4794,1,0,0:0:0:0:
64,192,4979,128,2,5071:0:0:0:0:
320,192,4979,1,0,0:0:0:0:
320,192,5164,1,0,0:0:0:0:
192,192,5349,1,0,0:0:0:0:
64,192,5349,1,2,0:0:0:0:
448,192,5534,128,0,5627:0:0:0:0:
64,192,5720,1,2,0:0:0:0:
320,192,5720,1,0,0:0:0:0:
64,192,5905,1,2,0:0:0:0:
192,192,5905,1,0,0:0:0:0:
320,192,6090,1,2,0:0:0:0:
448,192,6090,1,0,0:0:0:0:
320,192,6275,1,0,0:0:0:0:
448,192,6460,128,0,6553:0:0:0:0:
192,192,6460,1,2,0:0:0:0:
192,192,6645,1,0,0:0:0:0:
64,192,6831,128,2,6923:0:0:0:0:
448,192,6831,1,0,0:0:0:0:
448,192,7016,1,0,0:0:0:0:
192,192,7201,128,0,7571:0:0:0:0:
64,192,7201,1,2,0:0:0:0:
64,192,7386,1,2,0:0:0:0:
448,192,7386,1,0,0:0:0:0:
448,192,7571,1,0,0:0:0:0:
320,192,7571,1,2,0:0:0:0:
320,192,7757,1,0,0:0:0:0:
64,192,7942,128,2,8034:0:0:0:0:
192,192,7942,1,0,0:0:0:0:
192,192,8127,1,0,0:0:0:0:
64,192,8312,1,2,0:0:0:0:
448,192,8312,1,0,0:0:0:0:
448,192,8497,128,0,8590:0:0:0:0:
64,192,8683,1,2,0:0:0:0:
320,192,8683,1,0,0:0:0:0:
64,192,8868,1,2,0:0:0:0:
192,192,8868,1,0,0:0:0:0:
320,192,9053,1,2,0:0:0:0:
448,192,9053,1,0,0:0:0:0:
320,192,9238,1,0,0:0:0:0:
448,192,9423,128,0,9516:0:0:0:0:
192,192,9423,1,2,0:0:0:0:
192,192,9608,1,0,0:0:0:0:
64,192,9794,128,2,9886:0:0:0:0:
448,192,9794,1,0,0:0:0:0:
448,192,9979,1,0,0:0:0:0:
64,192,10164,1,8,0:0:0:0:
192,192,10164,1,0,0:0:0:0:
320,192,10164,1,0,0:0:0:0:
64,192,10349,1,2,0:0:0:0:
448,192,10349,1,0,0:0:0:0:
192,192,10534,1,2,0:0:0:0:
320,192,10534,1,0,0:0:0:0:
64,192,10627,1,0,0:0:0:0:
448,192,10720,1,0,0:0:0:0:
320,192,10812,1,0,0:0:0:0:
64,192,10905,128,2,10997:0:0:0:0:
192,192,10905,1,0,0:0:0:0:
448,192,10997,1,0,0:0:0:0:
320,192,11090,1,0,0:0:0:0:
192,192,11183,1,0,0:0:0:0:
64,192,11275,1,2,0:0:0:0:
448,192,11275,1,0,0:0:0:0:
320,192,11368,1,0,0:0:0:0:
448,192,11460,128,0,11553:0:0:0:0:
192,192,11553,1,0,0:0:0:0:
64,192,11645,1,2,0:0:0:0:
320,192,11645,1,0,0:0:0:0:
448,192,11738,1,0,0:0:0:0:
192,192,11831,1,0,0:0:0:0:
64,192,11831,1,2,0:0:0:0:
448,192,11923,1,0,0:0:0:0:
320,192,12016,1,0,0:0:0:0:
192,192,12016,1,2,0:0:0:0:
64,192,12108,1,0,0:0:0:0:
320,192,12201,1,0,0:0:0:0:
192,192,12294,1,0,0:0:0:0:
448,192,12386,128,0,12479:0:0:0:0:
64,192,12386,1,2,0:0:0:0:
320,192,12479,1,0,0:0:0:0:
192,192,12571,1,0,0:0:0:0:
448,192,12664,1,0,0:0:0:0:
64,192,12757,128,2,12849:0:0:0:0:
320,192,12757,1,0,0:0:0:0:
192,192,12849,1,0,0:0:0:0:
320,192,12942,1,2,0:0:0:0:
448,192,12942,1,0,0:0:0:0:
64,192,13034,1,0,0:0:0:0:
192,192,13127,1,2,0:0:0:0:
448,192,13127,1,0,0:0:0:0:
320,192,13220,1,0,0:0:0:0:
192,192,13312,1,0,0:0:0:0:
64,192,13312,1,2,0:0:0:0:
448,192,13405,1,0,0:0:0:0:
320,192,13497,128,4,13683:0:0:0:0:
64,192,13497,128,2,13590:0:0:0:0:
64,192,13683,128,0,13868:0:0:0:0:
192,192,13868,128,2,14053:0:0:0:0:
448,192,13868,1,0,0:0:0:0:
320,192,14053,128,0,14238:0:0:0:0:
64,192,14238,1,2,0:0:0:0:
448,192,14238,1,0,0:0:0:0:
192,192,14423,128,0,14608:0:0:0:0:
320,192,14608,128,2,14794:0:0:0:0:
448,192,14608,1,0,0:0:0:0:
448,192,14794,128,0,15164:0:0:0:0:
192,192,14979,1,0,0:0:0:0:
64,192,14979,1,2,0:0:0:0:
320,192,15164,128,0,15349:0:0:0:0:
192,192,15349,128,2,15534:0:0:0:0:
448,192,15349,1,0,0:0:0:0:
64,192,15534,128,0,15905:0:0:0:0:
192,192,15720,1,2,0:0:0:0:
320,192,15720,1,0,0:0:0:0:
448,192,15905,128,0,16090:0:0:0:0:
192,192,16090,128,0,16275:0:0:0:0:
64,192,16090,1,2,0:0:0:0:
320,192,16460,128,2,16645:0:0:0:0:
448,192,16460,1,0,0:0:0:0:
64,192,16645,128,0,16831:0:0:0:0:
192,192,16831,128,2,17016:0:0:0:0:
448,192,16831,1,0,0:0:0:0:
320,192,17016,128,0,17201:0:0:0:0:
64,192,17201,1,2,0:0:0:0:
192,192,17201,1,0,0:0:0:0:
448,192,17386,128,0,17571:0:0:0:0:
64,192,17571,128,2,17757:0:0:0:0:
320,192,17571,1,0,0:0:0:0:
192,192,17757,128,0,18127:0:0:0:0:
320,192,17942,1,2,0:0:0:0:
448,192,17942,1,0,0:0:0:0:
320,192,18127,128,0,18312:0:0:0:0:
448,192,18312,128,0,18497:0:0:0:0:
64,192,18312,1,2,0:0:0:0:
192,192,18497,128,0,19145:0:0:0:0:
320,192,18683,1,2,0:0:0:0:
448,192,18683,1,0,0:0:0:0:
64,192,19053,128,2,19238:0:0:0:0:
320,192,19053,1,0,0:0:0:0:
320,192,19423,128,0,19608:0:0:0:0:
64,192,19423,1,2,0:0:0:0:
64,192,19608,128,0,19794:0:0:0:0:
192,192,19794,128,2,19979:0:0:0:0:
448,192,19794,1,0,0:0:0:0:
320,192,19979,128,0,20164:0:0:0:0:
64,192,20164,1,2,0:0:0:0:
448,192,20164,1,0,0:0:0:0:
192,192,20349,128,0,20534:0:0:0:0:
320,192,20534,128,0,20720:0:0:0:0:
64,192,20534,1,2,0:0:0:0:
448,192,20720,128,0,21090:0:0:0:0:
192,192,20905,1,2,0:0:0:0:
320,192,20905,1,0,0:0:0:0:
64,192,21090,128,0,21275:0:0:0:0:
448,192,21275,128,0,21460:0:0:0:0:
320,192,21275,1,2,0:0:0:0:
192,192,21460,128,0,21831:0:0:0:0:
64,192,21645,1,2,0:0:0:0:
448,192,21645,1,0,0:0:0:0:
320,192,21831,128,0,22016:0:0:0:0:
64,192,22016,128,2,22201:0:0:0:0:
192,192,22016,1,0,0:0:0:0:
320,192,22386,128,0,22571:0:0:0:0:
192,192,22386,1,2,0:0:0:0:
448,192,22571,128,0,22757:0:0:0:0:
64,192,22757,1,2,0:0:0:0:
320,192,22757,1,0,0:0:0:0:
192,192,22942,128,0,23127:0:0:0:0:
320,192,23127,1,2,0:0:0:0:
448,192,23127,1,0,0:0:0:0:
64,192,23312,128,0,23497:0:0:0:0:
192,192,23497,128,2,23683:0:0:0:0:
448,192,23497,1,0,0:0:0:0:
64,192,23683,128,0,23868:0:0:0:0:
320,192,23868,128,0,24053:0:0:0:0:
192,192,23868,1,2,0:0:0:0:
448,192,24053,128,0,24238:0:0:0:0:
64,192,24238,1,2,0:0:0:0:
192,192,24238,1,0,0:0:0:0:
192,192,24423,128,0,25071:0:0:0:0:
64,192,24608,1,2,0:0:0:0:
320,192,24608,1,0,0:0:0:0:
64,192,24979,128,2,25164:0:0:0:0:
448,192,24979,1,0,0:0:0:0:
320,192,25164,1,2,0:0:0:0:
448,192,25164,1,0,0:0:0:0:
320,192,25349,128,4,25442:0:0:0:0:
192,192,25349,1,2,0:0:0:0:
64,192,25534,128,0,25627:0:0:0:0:
192,192,25720,128,2,25812:0:0:0:0:
448,192,25720,1,0,0:0:0:0:
320,192,25905,128,0,25997:0:0:0:0:
64,192,25905,1,2,0:0:0:0:
64,192,26090,1,2,0:0:0:0:
448,192,26090,1,0,0:0:0:0:
192,192,26275,128,0,26368:0:0:0:0:
320,192,26460,128,0,26553:0:0:0:0:
64,192,26460,1,2,0:0:0:0:
448,192,26645,128,0,26738:0:0:0:0:
64,192,26645,1,2,0:0:0:0:
192,192,26831,1,2,0:0:0:0:
320,192,26831,1,0,0:0:0:0:
320,192,27016,128,0,27108:0:0:0:0:
192,192,27201,128,2,27294:0:0:0:0:
448,192,27201,1,0,0:0:0:0:
64,192,27386,128,0,27479:0:0:0:0:
192,192,27571,1,2,0:0:0:0:
320,192,27571,1,0,0:0:0:0:
448,192,27757,128,0,27849:0:0:0:0:
192,192,27942,128,0,28034:0:0:0:0:
64,192,27942,1,8,0:0:0:0:
320,192,27942,1,0,0:0:0:0:
448,192,28127,1,0,0:0:0:0:
64,192,28127,1,2,0:0:0:0:
320,192,28312,128,0,28405:0:0:0:0:
192,192,28312,1,2,0:0:0:0:
64,192,28497,128,0,28590:0:0:0:0:
192,192,28683,128,2,28775:0:0:0:0:
448,192,28683,1,0,0:0:0:0:
320,192,28868,128,2,28960:0:0:0:0:
448,192,28868,1,0,0:0:0:0:
64,192,29053,1,2,0:0:0:0:
192,192,29053,1,0,0:0:0:0:
448,192,29238,128,0,29331:0:0:0:0:
64,192,29423,128,2,29516:0:0:0:0:
320,192,29423,1,0,0:0:0:0:
192,192,29608,128,2,29701:0:0:0:0:
448,192,29608,1,0,0:0:0:0:
448,192,29794,1,0,0:0:0:0:
320,192,29794,1,2,0:0:0:0:
320,192,29979,128,0,30071:0:0:0:0:
448,192,30164,128,0,30257:0:0:0:0:
64,192,30164,1,2,0:0:0:0:
192,192,30349,128,0,30997:0:0:0:0:
320,192,30534,1,2,0:0:0:0:
448,192,30534,1,0,0:0:0:0:
448,192,30720,1,0,0:0:0:0:
64,192,30905,128,2,31090:0:0:0:0:
320,192,30905,1,0,0:0:0:0:
448,192,31090,1,2,0:0:0:0:
320,192,31275,128,0,31368:0:0:0:0:
192,192,31275,1,2,0:0:0:0:
64,192,31460,128,0,31553:0:0:0:0:
192,192,31645,128,2,31738:0:0:0:0:
448,192,31645,1,0,0:0:0:0:
320,192,31831,128,0,31923:0:0:0:0:
64,192,31831,1,2,0:0:0:0:
64,192,32016,1,2,0:0:0:0:
448,192,32016,1,0,0:0:0:0:
192,192,32201,128,0,32294:0:0:0:0:
320,192,32386,128,0,32479:0:0:0:0:
64,192,32386,1,2,0:0:0:0:
448,192,32571,128,0,32664:0:0:0:0:
192,192,32571,1,2,0:0:0:0:
192,192,32757,1,2,0:0:0:0:
320,192,32757,1,0,0:0:0:0:
64,192,32942,128,0,33034:0:0:0:0:
448,192,33127,128,0,33220:0:0:0:0:
320,192,33127,1,2,0:0:0:0:
192,192,33312,128,0,33405:0:0:0:0:
64,192,33497,1,2,0:0:0:0:
448,192,33497,1,0,0:0:0:0:
320,192,33683,128,0,33775:0:0:0:0:
64,192,33868,128,8,33960:0:0:0:0:
192,192,33868,1,0,0:0:0:0:
448,192,33868,1,0,0:0:0:0:
448,192,34053,1,0,0:0:0:0:
320,192,34053,1,2,0:0:0:0:
320,192,34238,128,0,34331:0:0:0:0:
192,192,34238,1,2,0:0:0:0:
448,192,34423,128,0,34516:0:0:0:0:
64,192,34608,1,2,0:0:0:0:
320,192,34608,1,0,0:0:0:0:
192,192,34794,128,2,34886:0:0:0:0:
448,192,34794,1,0,0:0:0:0:
320,192,34979,1,2,0:0:0:0:
448,192,34979,1,0,0:0:0:0:
64,192,35164,128,0,35257:0:0:0:0:
192,192,35349,128,2,35442:0:0:0:0:
448,192,35349,1,0,0:0:0:0:
64,192,35534,128,2,35627:0:0:0:0:
320,192,35534,1,0,0:0:0:0:
320,192,35720,128,0,35812:0:0:0:0:
192,192,35720,1,2,0:0:0:0:
448,192,35905,128,0,35997:0:0:0:0:
64,192,36090,1,2,0:0:0:0:
320,192,36090,1,0,0:0:0:0:
192,192,36275,128,0,36923:0:0:0:0:
448,192,36460,128,0,36553:0:0:0:0:
64,192,36460,1,2,0:0:0:0:
320,192,36645,1,2,0:0:0:0:
64,192,36831,128,2,37016:0:0:0:0:
448,192,36831,128,0,36923:0:0:0:0:
320,192,37016,1,2,0:0:0:0:
192,192,37201,1,4,0:0:0:0:
64,192,37201,1,8,0:0:0:0:
448,192,37201,1,0,0:0:0:0:
448,192,37386,1,2,0:0:0:0:
320,192,37571,1,0,0:0:0:0:
192,192,37571,1,8,0:0:0:0:
192,192,37757,1,2,0:0:0:0:
320,192,37942,1,0,0:0:0:0:
64,192,37942,1,8,0:0:0:0:
320,192,38127,1,2,0:0:0:0:
64,192,38312,1,8,0:0:0:0:
192,192,38312,1,0,0:0:0:0:
64,192,38497,1,2,0:0:0:0:
192,192,38683,1,8,0:0:0:0:
448,192,38683,1,0,0:0:0:0:
192,192,38868,1,2,0:0:0:0:
448,192,39053,1,0,0:0:0:0:
320,192,39053,1,8,0:0:0:0:
448,192,39238,1,2,0:0:0:0:
320,192,39423,1,0,0:0:0:0:
192,192,39423,1,8,0:0:0:0:
320,192,39608,1,2,0:0:0:0:
192,192,39794,1,8,0:0:0:0:
448,192,39794,1,0,0:0:0:0:
192,192,39979,1,2,0:0:0:0:
448,192,40164,1,0,0:0:0:0:
64,192,40164,1,8,0:0:0:0:
448,192,40349,1,2,0:0:0:0:
64,192,40534,1,8,0:0:0:0:
320,192,40534,1,0,0:0:0:0:
64,192,40720,1,2,0:0:0:0:
320,192,40905,1,0,0:0:0:0:
192,192,40905,1,8,0:0:0:0:
320,192,41090,1,2,0:0:0:0:
192,192,41275,1,8,0:0:0:0:
448,192,41275,1,0,0:0:0:0:
192,192,41460,1,2,0:0:0:0:
448,192,41645,1,0,0:0:0:0:
320,192,41645,1,8,0:0:0:0:
448,192,41831,1,2,0:0:0:0:
320,192,42016,1,0,0:0:0:0:
64,192,42016,1,8,0:0:0:0:
320,192,42201,1,2,0:0:0:0:
64,192,42386,1,8,0:0:0:0:
192,192,42386,1,0,0:0:0:0:
64,192,42571,1,2,0:0:0:0:
192,192,42757,1,8,0:0:0:0:
320,192,42757,1,0,0:0:0:0:
192,192,42942,1,2,0:0:0:0:
320,192,43127,1,8,0:0:0:0:
448,192,43127,1,0,0:0:0:0:
320,192,43312,1,0,0:0:0:0:
192,192,43312,1,8,0:0:0:0:
448,192,43497,1,0,0:0:0:0:
64,192,43497,1,8,0:0:0:0:
448,192,43683,1,0,0:0:0:0:
320,192,43683,1,8,0:0:0:0:
64,192,43868,1,8,0:0:0:0:
192,192,43868,1,0,0:0:0:0:
64,192,44053,1,8,0:0:0:0:
448,192,44053,1,0,0:0:0:0:
192,192,44238,1,8,0:0:0:0:
320,192,44238,1,0,0:0:0:0:
192,192,44423,1,0,0:0:0:0:
64,192,44423,1,8,0:0:0:0:
320,192,44608,1,8,0:0:0:0:
448,192,44608,1,0,0:0:0:0:
320,192,44794,1,0,0:0:0:0:
192,192,44794,1,8,0:0:0:0:
448,192,44979,1,0,0:0:0:0:
64,192,44979,1,8,0:0:0:0:
448,192,45164,1,0,0:0:0:0:
320,192,45164,1,8,0:0:0:0:
192,192,45349,1,0,0:0:0:0:
64,192,45349,1,8,0:0:0:0:
192,192,45534,1,8,0:0:0:0:
448,192,45534,1,0,0:0:0:0:
320,192,45720,1,8,0:0:0:0:
448,192,45720,1,0,0:0:0:0:
320,192,45905,1,0,0:0:0:0:
192,192,45905,1,8,0:0:0:0:
448,192,46090,1,0,0:0:0:0:
64,192,46090,1,8,0:0:0:0:
192,192,46183,1,0,0:0:0:0:
320,192,46275,1,8,0:0:0:0:
448,192,46275,1,0,0:0:0:0:
192,192,46368,1,0,0:0:0:0:
64,192,46460,1,8,0:0:0:0:
320,192,46460,1,0,0:0:0:0:
448,192,46553,1,0,0:0:0:0:
64,192,46645,1,8,0:0:0:0:
192,192,46645,1,0,0:0:0:0:
320,192,46738,1,0,0:0:0:0:
448,192,46831,1,0,0:0:0:0:
192,192,46831,1,8,0:0:0:0:
64,192,46923,1,0,0:0:0:0:
448,192,47016,1,0,0:0:0:0:
320,192,47016,1,8,0:0:0:0:
192,192,47108,1,0,0:0:0:0:
64,192,47201,1,8,0:0:0:0:
320,192,47201,1,0,0:0:0:0:
448,192,47294,1,0,0:0:0:0:
64,192,47386,1,8,0:0:0:0:
192,192,47386,1,0,0:0:0:0:
320,192,47479,1,0,0:0:0:0:
448,192,47571,128,0,47757:0:0:0:0:
320,192,47942,128,0,48127:0:0:0:0:
192,192,48312,128,0,48497:0:0:0:0:
64,192,48683,1,8,0:0:0:0:
448,192,48683,1,0,0:0:0:0:
320,192,48683,1,2,0:0:0:0:
64,192,49053,128,8,49145:0:0:0:0:
192,192,49053,1,4,0:0:0:0:
320,192,49053,1,0,0:0:0:0:
64,192,49238,128,0,49331:0:0:0:0:
192,192,49423,128,2,49701:0:0:0:0:
320,192,49423,128,0,49701:0:0:0:0:
448,192,49608,1,0,0:0:0:0:
320,192,49794,128,0,50071:0:0:0:0:
64,192,49794,1,2,0:0:0:0:
192,192,49979,128,0,50071:0:0:0:0:
64,192,50071,1,0,0:0:0:0:
448,192,50164,128,0,50349:0:0:0:0:
192,192,50164,1,2,0:0:0:0:
320,192,50349,128,0,50442:0:0:0:0:
320,192,50534,128,0,50812:0:0:0:0:
64,192,50534,1,2,0:0:0:0:
192,192,50720,128,0,50812:0:0:0:0:
64,192,50812,1,0,0:0:0:0:
448,192,50905,128,0,51090:0:0:0:0:
192,192,50905,1,2,0:0:0:0:
320,192,51090,128,0,51183:0:0:0:0:
192,192,51275,128,2,51553:0:0:0:0:
448,192,51275,1,0,0:0:0:0:
64,192,51460,128,0,51553:0:0:0:0:
448,192,51553,1,0,0:0:0:0:
320,192,51645,128,0,51923:0:0:0:0:
192,192,51645,128,0,51923:0:0:0:0:
64,192,51645,1,8,0:0:0:0:
448,192,51831,1,2,0:0:0:0:
64,192,52016,128,2,52108:0:0:0:0:
192,192,52016,1,0,0:0:0:0:
64,192,52201,128,0,52294:0:0:0:0:
448,192,52386,128,0,52664:0:0:0:0:
320,192,52386,1,2,0:0:0:0:
192,192,52571,128,0,52664:0:0:0:0:
448,192,52757,128,0,53034:0:0:0:0:
320,192,52757,1,2,0:0:0:0:
192,192,52942,128,0,53034:0:0:0:0:
320,192,53034,1,0,0:0:0:0:
64,192,53127,128,8,53497:0:0:0:0:
448,192,53127,1,0,0:0:0:0:
192,192,53127,1,0,0:0:0:0:
192,192,53312,1,2,0:0:0:0:
448,192,53497,128,0,53775:0:0:0:0:
320,192,53497,1,2,0:0:0:0:
192,192,53683,128,0,53775:0:0:0:0:
64,192,53775,1,0,0:0:0:0:
448,192,53868,128,0,54145:0:0:0:0:
320,192,53868,1,2,0:0:0:0:
192,192,54053,128,0,54145:0:0:0:0:
320,192,54238,128,0,54284:0:0:0:0:
64,192,54238,1,2,0:0:0:0:
448,192,54331,1,0,0:0:0:0:
320,192,54423,128,0,54470:0:0:0:0:
192,192,54516,1,0,0:0:0:0:
320,192,54608,128,0,54655:0:0:0:0:
64,192,54608,1,2,0:0:0:0:
320,192,54794,128,0,54840:0:0:0:0:
192,192,54794,1,0,0:0:0:0:
192,192,54979,1,4,0:0:0:0:
448,192,54979,1,0,0:0:0:0:
64,192,54979,128,8,55071:0:0:0:0:
64,192,55164,128,0,55257:0:0:0:0:
192,192,55349,128,2,55720:0:0:0:0:
320,192,55349,1,0,0:0:0:0:
448,192,55534,1,0,0:0:0:0:
320,192,55720,128,0,55997:0:0:0:0:
64,192,55720,1,2,0:0:0:0:
192,192,55905,128,0,55997:0:0:0:0:
64,192,55997,1,0,0:0:0:0:
192,192,56090,5,2,0:0:0:0:
448,192,56090,128,0,56275:0:0:0:0:
320,192,56275,128,0,56368:0:0:0:0:
320,192,56460,128,0,56738:0:0:0:0:
64,192,56460,1,2,0:0:0:0:
192,192,56645,128,0,56738:0:0:0:0:
64,192,56738,1,0,0:0:0:0:
448,192,56831,128,0,57016:0:0:0:0:
192,192,56831,1,2,0:0:0:0:
320,192,57016,128,0,57108:0:0:0:0:
192,192,57201,128,2,57479:0:0:0:0:
448,192,57201,1,0,0:0:0:0:
64,192,57386,128,0,57479:0:0:0:0:
448,192,57479,1,0,0:0:0:0:
320,192,57571,128,0,57849:0:0:0:0:
192,192,57571,128,0,57849:0:0:0:0:
64,192,57571,1,8,0:0:0:0:
448,192,57757,1,2,0:0:0:0:
320,192,57942,128,0,58127:0:0:0:0:
64,192,57942,128,2,58034:0:0:0:0:
448,192,58127,128,0,58312:0:0:0:0:
64,192,58127,128,0,58220:0:0:0:0:
192,192,58312,1,2,0:0:0:0:
320,192,58312,1,0,0:0:0:0:
320,192,58497,128,0,58683:0:0:0:0:
448,192,58683,1,0,0:0:0:0:
64,192,58683,1,2,0:0:0:0:
64,192,58868,128,0,59053:0:0:0:0:
320,192,58960,1,0,0:0:0:0:
192,192,59053,128,8,59238:0:0:0:0:
448,192,59053,1,0,0:0:0:0:
64,192,59238,128,2,59423:0:0:0:0:
320,192,59423,128,2,59608:0:0:0:0:
192,192,59423,1,0,0:0:0:0:
448,192,59608,128,0,59794:0:0:0:0:
320,192,59701,1,0,0:0:0:0:
192,192,59794,1,0,0:0:0:0:
64,192,59794,1,2,0:0:0:0:
320,192,59979,128,0,60349:0:0:0:0:
192,192,60164,1,0,0:0:0:0:
64,192,60164,1,2,0:0:0:0:
192,192,60349,1,2,0:0:0:0:
448,192,60349,1,0,0:0:0:0:
320,192,60442,1,0,0:0:0:0:
64,192,60534,1,8,0:0:0:0:
192,192,60534,1,0,0:0:0:0:
448,192,60534,1,0,0:0:0:0:
320,192,60720,1,2,0:0:0:0:
320,192,60905,1,0,0:0:0:0:
192,192,60905,1,4,0:0:0:0:
64,192,60905,128,8,60997:0:0:0:0:
64,192,61090,128,0,61183:0:0:0:0:
448,192,61275,128,0,61553:0:0:0:0:
320,192,61275,128,2,61553:0:0:0:0:
64,192,61460,1,0,0:0:0:0:
320,192,61645,1,0,0:0:0:0:
192,192,61645,128,2,61738:0:0:0:0:
192,192,61831,128,0,61923:0:0:0:0:
448,192,61923,1,0,0:0:0:0:
320,192,62016,1,0,0:0:0:0:
192,192,62016,128,2,62108:0:0:0:0:
320,192,62201,128,0,62294:0:0:0:0:
64,192,62386,1,2,0:0:0:0:
192,192,62386,128,0,62479:0:0:0:0:
320,192,62571,128,0,62664:0:0:0:0:
64,192,62664,1,0,0:0:0:0:
192,192,62757,1,2,0:0:0:0:
448,192,62757,128,0,62849:0:0:0:0:
448,192,62942,128,0,63034:0:0:0:0:
448,192,63127,1,0,0:0:0:0:
192,192,63127,128,2,63220:0:0:0:0:
64,192,63312,128,0,63405:0:0:0:0:
448,192,63405,1,0,0:0:0:0:
64,192,63497,1,8,0:0:0:0:
192,192,63497,128,0,63775:0:0:0:0:
320,192,63497,128,0,63775:0:0:0:0:
448,192,63683,1,2,0:0:0:0:
192,192,63868,1,0,0:0:0:0:
64,192,63868,128,2,63960:0:0:0:0:
64,192,64053,128,0,64145:0:0:0:0:
320,192,64238,1,2,0:0:0:0:
448,192,64238,128,0,64516:0:0:0:0:
192,192,64423,128,0,64516:0:0:0:0:
320,192,64608,1,2,0:0:0:0:
448,192,64608,128,0,64886:0:0:0:0:
192,192,64794,128,0,64886:0:0:0:0:
320,192,64886,1,0,0:0:0:0:
192,192,64979,1,0,0:0:0:0:
448,192,64979,1,0,0:0:0:0:
64,192,64979,128,8,65349:0:0:0:0:
192,192,65164,1,2,0:0:0:0:
320,192,65349,1,2,0:0:0:0:
448,192,65349,128,0,65627:0:0:0:0:
192,192,65534,128,0,65627:0:0:0:0:
64,192,65627,1,0,0:0:0:0:
320,192,65720,1,2,0:0:0:0:
448,192,65720,128,0,65997:0:0:0:0:
192,192,65905,128,0,65997:0:0:0:0:
64,192,66090,1,2,0:0:0:0:
320,192,66090,128,0,66136:0:0:0:0:
448,192,66183,1,0,0:0:0:0:
320,192,66275,128,0,66321:0:0:0:0:
192,192,66368,1,0,0:0:0:0:
64,192,66460,1,2,0:0:0:0:
320,192,66460,128,0,66507:0:0:0:0:
192,192,66645,1,0,0:0:0:0:
320,192,66645,128,0,66692:0:0:0:0:
192,192,66831,1,4,0:0:0:0:
448,192,66831,1,0,0:0:0:0:
64,192,66831,128,8,66923:0:0:0:0:
64,192,67016,128,0,67108:0:0:0:0:
192,192,67201,128,2,67571:0:0:0:0:
320,192,67201,1,0,0:0:0:0:
64,192,67386,128,0,67571:0:0:0:0:
448,192,67571,128,0,67757:0:0:0:0:
320,192,67571,1,2,0:0:0:0:
192,192,67757,1,0,0:0:0:0:
320,192,67849,1,0,0:0:0:0:
64,192,67942,128,2,68127:0:0:0:0:
192,192,67942,1,0,0:0:0:0:
320,192,68127,1,0,0:0:0:0:
192,192,68312,128,2,68497:0:0:0:0:
448,192,68312,1,0,0:0:0:0:
320,192,68497,1,0,0:0:0:0:
64,192,68590,1,0,0:0:0:0:
320,192,68683,128,2,68868:0:0:0:0:
448,192,68683,1,0,0:0:0:0:
192,192,68868,1,0,0:0:0:0:
448,192,69053,128,0,69238:0:0:0:0:
64,192,69053,1,2,0:0:0:0:
192,192,69238,1,0,0:0:0:0:
64,192,69331,1,0,0:0:0:0:
320,192,69423,128,0,69701:0:0:0:0:
192,192,69423,128,2,69701:0:0:0:0:
64,192,69794,128,2,69886:0:0:0:0:
192,192,69794,128,0,69979:0:0:0:0:
64,192,69979,128,0,70071:0:0:0:0:
448,192,69979,128,0,70164:0:0:0:0:
192,192,70164,1,2,0:0:0:0:
320,192,70164,1,0,0:0:0:0:
320,192,70349,128,0,70534:0:0:0:0:
64,192,70534,1,2,0:0:0:0:
448,192,70534,1,0,0:0:0:0:
192,192,70720,128,0,70905:0:0:0:0:
64,192,70812,1,0,0:0:0:0:
320,192,70905,128,2,71090:0:0:0:0:
448,192,70905,1,0,0:0:0:0:
64,192,71090,128,0,71275:0:0:0:0:
192,192,71275,128,2,71460:0:0:0:0:
320,192,71275,1,0,0:0:0:0:
448,192,71460,128,0,71645:0:0:0:0:
320,192,71553,1,0,0:0:0:0:
192,192,71645,1,0,0:0:0:0:
64,192,71645,1,2,0:0:0:0:
320,192,71831,128,0,72201:0:0:0:0:
64,192,72016,1,2,0:0:0:0:
448,192,72016,1,0,0:0:0:0:
192,192,72201,1,2,0:0:0:0:
448,192,72201,1,0,0:0:0:0:
320,192,72294,1,0,0:0:0:0:
192,192,72386,1,0,0:0:0:0:
64,192,72386,1,8,0:0:0:0:
448,192,72386,1,0,0:0:0:0:
320,192,72571,1,2,0:0:0:0:
448,192,72757,128,0,72849:0:0:0:0:
64,192,72757,1,2,0:0:0:0:
448,192,72942,128,0,73034:0:0:0:0:
448,192,73127,128,0,73220:0:0:0:0:
64,192,73127,1,8,0:0:0:0:
320,192,73127,1,0,0:0:0:0:
192,192,73312,128,0,73405:0:0:0:0:
192,192,73497,128,2,73590:0:0:0:0:
448,192,73497,1,0,0:0:0:0:
192,192,73683,128,0,73775:0:0:0:0:
192,192,73868,128,8,73960:0:0:0:0:
320,192,73868,1,0,0:0:0:0:
448,192,73868,1,0,0:0:0:0:
192,192,74053,128,0,74145:0:0:0:0:
64,192,74238,128,2,74331:0:0:0:0:
320,192,74238,1,0,0:0:0:0:
64,192,74423,128,0,74516:0:0:0:0:
64,192,74608,128,8,74701:0:0:0:0:
192,192,74608,1,0,0:0:0:0:
448,192,74608,1,0,0:0:0:0:
320,192,74794,128,0,74886:0:0:0:0:
320,192,74979,128,0,75071:0:0:0:0:
64,192,74979,1,2,0:0:0:0:
320,192,75164,128,0,75257:0:0:0:0:
320,192,75349,128,0,75442:0:0:0:0:
64,192,75349,1,8,0:0:0:0:
192,192,75349,1,0,0:0:0:0:
320,192,75534,128,0,75627:0:0:0:0:
448,192,75720,128,0,75812:0:0:0:0:
192,192,75720,1,2,0:0:0:0:
448,192,75905,128,0,75997:0:0:0:0:
448,192,76090,128,0,76183:0:0:0:0:
320,192,76090,1,0,0:0:0:0:
64,192,76090,1,8,0:0:0:0:
192,192,76275,128,0,76368:0:0:0:0:
192,192,76460,128,2,76553:0:0:0:0:
320,192,76460,1,0,0:0:0:0:
192,192,76645,128,0,76738:0:0:0:0:
192,192,76831,128,0,76923:0:0:0:0:
448,192,76831,1,0,0:0:0:0:
64,192,76831,1,8,0:0:0:0:
192,192,77016,128,0,77108:0:0:0:0:
64,192,77201,128,2,77294:0:0:0:0:
448,192,77201,1,0,0:0:0:0:
64,192,77386,128,0,77479:0:0:0:0:
64,192,77571,128,8,77664:0:0:0:0:
320,192,77571,1,0,0:0:0:0:
192,192,77571,1,0,0:0:0:0:
448,192,77757,128,0,77849:0:0:0:0:
448,192,77942,128,0,78034:0:0:0:0:
64,192,77942,1,8,0:0:0:0:
320,192,77942,1,0,0:0:0:0:
448,192,78127,128,0,78220:0:0:0:0:
192,192,78312,128,0,78405:0:0:0:0:
64,192,78312,1,8,0:0:0:0:
320,192,78312,1,0,0:0:0:0:
192,192,78497,128,0,78590:0:0:0:0:
64,192,78683,1,2,0:0:0:0:
320,192,78683,1,0,0:0:0:0:
448,192,78868,1,0,0:0:0:0:
64,192,78960,1,0,0:0:0:0:
448,192,79053,1,0,0:0:0:0:
320,192,79099,1,0,0:0:0:0:
192,192,79145,1,0,0:0:0:0:
64,192,79238,1,2,0:0:0:0:
448,192,79238,1,0,0:0:0:0:
320,192,79331,1,0,0:0:0:0:
192,192,79423,1,0,0:0:0:0:
320,192,79516,1,0,0:0:0:0:
64,192,79608,1,0,0:0:0:0:
448,192,79701,1,0,0:0:0:0:
64,192,79794,1,0,0:0:0:0:
192,192,79840,1,0,0:0:0:0:
320,192,79886,1,0,0:0:0:0:
448,192,79979,1,2,0:0:0:0:
192,192,80071,1,0,0:0:0:0:
64,192,80164,1,0,0:0:0:0:
320,192,80257,1,0,0:0:0:0:
192,192,80349,1,0,0:0:0:0:
448,192,80442,1,0,0:0:0:0:
320,192,80534,1,0,0:0:0:0:
64,192,80627,1,0,0:0:0:0:
192,192,80720,1,0,0:0:0:0:
320,192,80812,1,0,0:0:0:0:
448,192,80905,1,0,0:0:0:0:
192,192,80997,1,0,0:0:0:0:
320,192,81090,1,0,0:0:0:0:
64,192,81183,1,0,0:0:0:0:
192,192,81275,1,8,0:0:0:0:
448,192,81275,1,0,0:0:0:0:
64,192,81368,1,0,0:0:0:0:
320,192,81460,1,2,0:0:0:0:
192,192,81553,1,0,0:0:0:0:
448,192,81645,1,0,0:0:0:0:
448,192,81738,1,0,0:0:0:0:
192,192,81831,1,0,0:0:0:0:
192,192,81923,1,0,0:0:0:0:
320,192,82016,1,0,0:0:0:0:
320,192,82108,1,0,0:0:0:0:
64,192,82201,1,2,0:0:0:0:
448,192,82201,1,0,0:0:0:0:
64,192,82294,1,0,0:0:0:0:
320,192,82386,1,0,0:0:0:0:
320,192,82479,1,0,0:0:0:0:
192,192,82571,1,0,0:0:0:0:
192,192,82664,1,0,0:0:0:0:
448,192,82757,1,0,0:0:0:0:
448,192,82849,1,0,0:0:0:0:
320,192,82942,1,0,0:0:0:0:
192,192,82942,1,2,0:0:0:0:
192,192,83034,1,0,0:0:0:0:
448,192,83127,1,0,0:0:0:0:
64,192,83127,1,8,0:0:0:0:
192,192,83312,1,0,0:0:0:0:
320,192,83497,1,0,0:0:0:0:
64,192,83683,1,8,0:0:0:0:
448,192,83683,1,0,0:0:0:0:
64,192,83868,128,0,83960:0:0:0:0:
192,192,83960,1,0,0:0:0:0:
320,192,84053,1,0,0:0:0:0:
64,192,84145,1,0,0:0:0:0:
192,192,84238,1,2,0:0:0:0:
448,192,84238,1,0,0:0:0:0:
320,192,84238,1,8,0:0:0:0:
320,192,84608,1,4,0:0:0:0:
64,192,84608,128,8,84794:0:0:0:0:
448,192,84608,128,0,84794:0:0:0:0:
192,192,84794,1,0,0:0:0:0:
320,192,84979,128,0,85164:0:0:0:0:
64,192,85164,128,2,85349:0:0:0:0:
448,192,85164,1,0,0:0:0:0:
192,192,85349,128,8,85534:0:0:0:0:
448,192,85349,1,0,0:0:0:0:
320,192,85534,128,0,85720:0:0:0:0:
64,192,85534,1,2,0:0:0:0:
448,192,85720,128,0,85905:0:0:0:0:
64,192,85905,128,2,86090:0:0:0:0:
192,192,85905,128,0,86090:0:0:0:0:
320,192,86090,1,0,0:0:0:0:
448,192,86275,128,0,86460:0:0:0:0:
64,192,86275,1,0,0:0:0:0:
320,192,86460,128,0,86645:0:0:0:0:
192,192,86460,128,2,86645:0:0:0:0:
64,192,86645,1,0,0:0:0:0:
192,192,86831,128,8,87016:0:0:0:0:
448,192,86831,1,0,0:0:0:0:
320,192,87016,128,0,87201:0:0:0:0:
64,192,87201,128,0,87386:0:0:0:0:
192,192,87386,1,2,0:0:0:0:
448,192,87386,1,0,0:0:0:0:
192,192,87571,128,2,87757:0:0:0:0:
448,192,87571,128,0,87757:0:0:0:0:
64,192,87757,1,0,0:0:0:0:
320,192,87942,128,0,88127:0:0:0:0:
64,192,88127,128,2,88312:0:0:0:0:
192,192,88127,1,0,0:0:0:0:
192,192,88312,128,8,88497:0:0:0:0:
448,192,88312,1,0,0:0:0:0:
320,192,88497,128,2,88683:0:0:0:0:
448,192,88497,1,0,0:0:0:0:
64,192,88683,128,0,88868:0:0:0:0:
448,192,88868,128,0,89053:0:0:0:0:
320,192,88868,128,2,89053:0:0:0:0:
64,192,89053,1,0,0:0:0:0:
192,192,89238,128,0,89423:0:0:0:0:
320,192,89423,128,2,89608:0:0:0:0:
448,192,89423,128,0,89608:0:0:0:0:
192,192,89608,128,0,90257:0:0:0:0:
64,192,89794,1,8,0:0:0:0:
448,192,89794,1,0,0:0:0:0:
320,192,89979,1,0,0:0:0:0:
64,192,90164,128,0,90349:0:0:0:0:
320,192,90349,1,2,0:0:0:0:
448,192,90349,1,0,0:0:0:0:
64,192,90534,128,2,90720:0:0:0:0:
192,192,90534,128,0,90627:0:0:0:0:
448,192,90720,1,0,0:0:0:0:
320,192,90905,128,0,91090:0:0:0:0:
64,192,91090,128,2,91275:0:0:0:0:
192,192,91090,1,0,0:0:0:0:
192,192,91275,128,8,91460:0:0:0:0:
448,192,91275,1,0,0:0:0:0:
320,192,91460,128,2,91645:0:0:0:0:
448,192,91460,1,0,0:0:0:0:
64,192,91645,128,0,91831:0:0:0:0:
192,192,91831,128,2,92016:0:0:0:0:
448,192,91831,128,0,92016:0:0:0:0:
320,192,92016,1,0,0:0:0:0:
448,192,92201,128,0,92386:0:0:0:0:
192,192,92201,1,0,0:0:0:0:
320,192,92386,128,0,92571:0:0:0:0:
64,192,92386,128,2,92571:0:0:0:0:
192,192,92571,1,0,0:0:0:0:
320,192,92757,128,8,92942:0:0:0:0:
448,192,92757,1,0,0:0:0:0:
192,192,92942,128,0,93127:0:0:0:0:
64,192,93127,128,0,93312:0:0:0:0:
192,192,93312,1,2,0:0:0:0:
448,192,93312,1,0,0:0:0:0:
320,192,93497,128,2,93683:0:0:0:0:
448,192,93497,128,0,93683:0:0:0:0:
64,192,93683,1,0,0:0:0:0:
320,192,93868,128,0,94053:0:0:0:0:
64,192,94053,128,2,94238:0:0:0:0:
192,192,94053,128,0,94238:0:0:0:0:
448,192,94238,1,0,0:0:0:0:
64,192,94423,128,2,94608:0:0:0:0:
320,192,94423,1,0,0:0:0:0:
192,192,94608,128,8,94794:0:0:0:0:
448,192,94608,128,0,94794:0:0:0:0:
64,192,94794,1,0,0:0:0:0:
320,192,94979,128,2,95164:0:0:0:0:
448,192,94979,1,0,0:0:0:0:
192,192,95164,128,0,95812:0:0:0:0:
64,192,95349,1,0,0:0:0:0:
320,192,95534,1,0,0:0:0:0:
448,192,95720,128,0,95812:0:0:0:0:
64,192,95720,128,8,95905:0:0:0:0:
320,192,95905,1,0,0:0:0:0:
448,192,96090,128,0,96183:0:0:0:0:
64,192,96090,1,8,0:0:0:0:
192,192,96275,1,2,0:0:0:0:
320,192,96275,1,0,0:0:0:0:
320,192,96460,1,4,0:0:0:0:
64,192,96460,128,8,96645:0:0:0:0:
448,192,96460,128,0,96645:0:0:0:0:
192,192,96645,1,0,0:0:0:0:
320,192,96831,128,0,97016:0:0:0:0:
192,192,96923,1,0,0:0:0:0:
64,192,97016,128,2,97201:0:0:0:0:
448,192,97016,1,0,0:0:0:0:
320,192,97108,1,0,0:0:0:0:
192,192,97201,128,8,97386:0:0:0:0:
448,192,97201,1,0,0:0:0:0:
320,192,97386,128,0,97571:0:0:0:0:
64,192,97386,1,2,0:0:0:0:
448,192,97571,128,0,97757:0:0:0:0:
64,192,97757,128,2,97942:0:0:0:0:
192,192,97757,128,0,97942:0:0:0:0:
320,192,97942,1,0,0:0:0:0:
448,192,98127,128,0,98312:0:0:0:0:
192,192,98127,1,0,0:0:0:0:
64,192,98220,1,0,0:0:0:0:
320,192,98312,128,0,98497:0:0:0:0:
192,192,98312,128,2,98497:0:0:0:0:
64,192,98497,1,0,0:0:0:0:
192,192,98683,128,8,98868:0:0:0:0:
448,192,98683,1,0,0:0:0:0:
320,192,98868,128,0,99053:0:0:0:0:
192,192,98960,1,0,0:0:0:0:
64,192,99053,128,0,99238:0:0:0:0:
320,192,99238,1,2,0:0:0:0:
448,192,99238,1,0,0:0:0:0:
64,192,99423,128,2,99608:0:0:0:0:
448,192,99423,128,0,99608:0:0:0:0:
192,192,99608,1,0,0:0:0:0:
320,192,99794,128,0,99979:0:0:0:0:
448,192,99886,1,0,0:0:0:0:
64,192,99979,128,2,100164:0:0:0:0:
192,192,99979,1,0,0:0:0:0:
320,192,100071,1,0,0:0:0:0:
192,192,100164,128,8,100349:0:0:0:0:
448,192,100164,1,0,0:0:0:0:
320,192,100349,128,2,100534:0:0:0:0:
448,192,100349,1,0,0:0:0:0:
64,192,100534,128,0,100720:0:0:0:0:
448,192,100720,128,0,100905:0:0:0:0:
320,192,100720,128,2,100905:0:0:0:0:
192,192,100812,1,0,0:0:0:0:
64,192,100905,1,0,0:0:0:0:
192,192,101090,128,0,101275:0:0:0:0:
320,192,101275,128,2,101460:0:0:0:0:
448,192,101275,128,0,101460:0:0:0:0:
192,192,101460,128,0,102108:0:0:0:0:
64,192,101645,1,8,0:0:0:0:
448,192,101645,1,0,0:0:0:0:
320,192,101831,1,0,0:0:0:0:
448,192,101923,1,0,0:0:0:0:
64,192,102016,128,0,102201:0:0:0:0:
320,192,102201,1,2,0:0:0:0:
448,192,102201,1,0,0:0:0:0:
64,192,102386,128,2,102571:0:0:0:0:
192,192,102386,128,0,102571:0:0:0:0:
448,192,102571,1,0,0:0:0:0:
320,192,102757,128,0,102942:0:0:0:0:
448,192,102849,1,0,0:0:0:0:
64,192,102942,128,2,103127:0:0:0:0:
192,192,102942,1,0,0:0:0:0:
320,192,103034,1,0,0:0:0:0:
192,192,103127,128,8,103312:0:0:0:0:
448,192,103127,1,0,0:0:0:0:
320,192,103312,128,2,103497:0:0:0:0:
448,192,103312,1,0,0:0:0:0:
64,192,103497,128,0,103683:0:0:0:0:
192,192,103683,128,2,103868:0:0:0:0:
448,192,103683,128,0,103868:0:0:0:0:
320,192,103868,1,0,0:0:0:0:
448,192,104053,128,0,104238:0:0:0:0:
64,192,104053,1,0,0:0:0:0:
192,192,104145,1,0,0:0:0:0:
320,192,104238,128,0,104423:0:0:0:0:
64,192,104238,128,2,104423:0:0:0:0:
192,192,104423,1,0,0:0:0:0:
320,192,104608,128,8,104794:0:0:0:0:
448,192,104608,1,0,0:0:0:0:
192,192,104794,128,0,104979:0:0:0:0:
448,192,104886,1,0,0:0:0:0:
64,192,104979,128,0,105164:0:0:0:0:
192,192,105164,1,2,0:0:0:0:
448,192,105164,1,0,0:0:0:0:
320,192,105349,128,2,105534:0:0:0:0:
448,192,105349,128,0,105534:0:0:0:0:
64,192,105534,1,0,0:0:0:0:
320,192,105720,128,0,105905:0:0:0:0:
448,192,105812,1,0,0:0:0:0:
64,192,105905,128,2,106090:0:0:0:0:
192,192,105905,128,0,106090:0:0:0:0:
320,192,105997,1,0,0:0:0:0:
448,192,106090,1,0,0:0:0:0:
64,192,106275,128,0,106460:0:0:0:0:
320,192,106275,1,0,0:0:0:0:
192,192,106460,128,2,106645:0:0:0:0:
448,192,106460,128,0,106645:0:0:0:0:
64,192,106645,1,0,0:0:0:0:
192,192,106738,1,0,0:0:0:0:
320,192,106831,128,0,107016:0:0:0:0:
192,192,107016,128,0,107664:0:0:0:0:
64,192,107201,1,2,0:0:0:0:
320,192,107386,1,0,0:0:0:0:
64,192,107571,128,8,107757:0:0:0:0:
448,192,107571,1,0,0:0:0:0:
320,192,107757,1,0,0:0:0:0:
64,192,107849,1,0,0:0:0:0:
320,192,107942,1,8,0:0:0:0:
448,192,107942,1,0,0:0:0:0:
64,192,108127,1,2,0:0:0:0:
192,192,108127,1,0,0:0:0:0:
320,192,108312,128,0,108497:0:0:0:0:
448,192,108312,1,0,0:0:0:0:
64,192,108497,128,0,108683:0:0:0:0:
192,192,108683,128,0,108868:0:0:0:0:
320,192,108868,128,0,109053:0:0:0:0:
448,192,108868,1,0,0:0:0:0:
192,192,109238,128,0,109423:0:0:0:0:
320,192,109423,128,0,109608:0:0:0:0:
448,192,109608,128,0,109979:0:0:0:0:
64,192,109794,1,0,0:0:0:0:
320,192,109979,128,0,110164:0:0:0:0:
192,192,110164,128,0,110349:0:0:0:0:
320,192,110349,128,0,110720:0:0:0:0:
64,192,110349,1,0,0:0:0:0:
448,192,110720,128,0,110905:0:0:0:0:
192,192,110905,128,0,111090:0:0:0:0:
320,192,111275,128,0,111460:0:0:0:0:
448,192,111275,1,0,0:0:0:0:
64,192,111460,128,0,111645:0:0:0:0:
192,192,111645,128,0,111831:0:0:0:0:
320,192,111831,128,0,112016:0:0:0:0:
448,192,111831,1,0,0:0:0:0:
448,192,112201,128,0,112386:0:0:0:0:
64,192,112386,128,0,112571:0:0:0:0:
192,192,112571,128,0,112942:0:0:0:0:
64,192,112757,1,0,0:0:0:0:
320,192,112942,128,0,113127:0:0:0:0:
448,192,113127,128,0,113312:0:0:0:0:
192,192,113312,128,0,113960:0:0:0:0:
64,192,113312,1,0,0:0:0:0:
64,192,113868,128,0,114053:0:0:0:0:
320,192,113868,1,0,0:0:0:0:
320,192,114238,128,0,114423:0:0:0:0:
448,192,114238,1,0,0:0:0:0:
64,192,114423,128,0,114608:0:0:0:0:
192,192,114608,128,0,114794:0:0:0:0:
320,192,114794,128,0,114979:0:0:0:0:
448,192,114794,1,0,0:0:0:0:
192,192,115164,128,0,115349:0:0:0:0:
320,192,115349,128,0,115534:0:0:0:0:
448,192,115534,128,0,115905:0:0:0:0:
192,192,115720,1,0,0:0:0:0:
64,192,115905,128,0,116090:0:0:0:0:
448,192,116090,128,0,116275:0:0:0:0:
320,192,116275,128,0,116645:0:0:0:0:
192,192,116275,1,0,0:0:0:0:
192,192,116645,128,0,116831:0:0:0:0:
64,192,116831,128,0,117016:0:0:0:0:
320,192,117201,128,0,117386:0:0:0:0:
64,192,117201,1,0,0:0:0:0:
448,192,117386,128,0,117571:0:0:0:0:
192,192,117757,128,0,117942:0:0:0:0:
64,192,117757,1,0,0:0:0:0:
64,192,118127,128,0,118312:0:0:0:0:
192,192,118312,128,0,118497:0:0:0:0:
64,192,118497,128,0,118683:0:0:0:0:
320,192,118683,128,0,118868:0:0:0:0:
192,192,118683,1,0,0:0:0:0:
448,192,118868,128,0,119053:0:0:0:0:
192,192,119238,128,0,119886:0:0:0:0:
320,192,119238,128,0,119886:0:0:0:0:
64,192,119794,128,8,119979:0:0:0:0:
448,192,119794,128,0,119979:0:0:0:0:
