osu file format v14

[General]
AudioFilename: audio.mp3
AudioLeadIn: 0
PreviewTime: 48960
Countdown: 0
SampleSet: Soft
StackLeniency: 0.6
Mode: 0
LetterboxInBreaks: 0
EpilepsyWarning: 1
WidescreenStoryboard: 1

[Editor]
DistanceSpacing: 0.9
BeatDivisor: 2
GridSize: 32
TimelineZoom: 1.6

[Metadata]
Title:Shiba Island
TitleUnicode:Shiba Island
Artist:James Landino
ArtistUnicode:James Landino
Creator:Affirmation
Version:Normal
Source:osu!
Tags:featured artist fa mappers' guild instrumental electronic
BeatmapID:2223477
BeatmapSetID:1061769

[Difficulty]
HPDrainRate:4.2
CircleSize:3.3
OverallDifficulty:4.5
ApproachRate:5.3
SliderMultiplier:0.999999999999999
SliderTickRate:1

[Events]
//Background and Video events
0,0,"BG.jpg",0,0
//Break Periods
2,13697,24195
//Storyboard Layer 0 (Background)
//Storyboard Layer 1 (Fail)
//Storyboard Layer 2 (Pass)
//Storyboard Layer 3 (Foreground)
//Storyboard Layer 4 (Overlay)
//Storyboard Sound Samples

[TimingPoints]
1646,370.37037037037,4,2,0,45,1,0
1646,-90.9090909090909,4,2,0,45,0,0
10534,-90.9090909090909,4,2,0,45,0,0
11275,-90.9090909090909,4,2,0,50,0,0
12016,-90.9090909090909,4,2,0,55,0,0
12757,-90.9090909090909,4,2,0,60,0,0
13497,-90.9090909090909,4,2,0,35,0,0
25349,-90.9090909090909,4,2,0,60,0,0
37201,-90.9090909090909,4,2,0,62,0,0
38127,-90.9090909090909,4,2,0,60,0,0
38868,-90.9090909090909,4,2,0,58,0,0
39608,-90.9090909090909,4,2,0,55,0,0
40164,-90.9090909090909,4,2,0,58,0,0
41645,-90.9090909090909,4,2,0,60,0,0
43127,-90.9090909090909,4,2,0,50,0,0
43868,-90.9090909090909,4,2,0,54,0,0
44608,-90.9090909090909,4,2,0,58,0,0
45349,-90.9090909090909,4,2,0,62,0,0
46090,-90.9090909090909,4,2,0,66,0,0
46460,-90.9090909090909,4,2,0,67,0,0
46831,-90.9090909090909,4,2,0,68,0,0
47201,-90.9090909090909,4,2,0,69,0,0
47571,-90.9090909090909,4,2,0,40,0,0
47664,-90.9090909090909,4,2,0,5,0,0
47942,-90.9090909090909,4,2,0,35,0,0
48034,-90.9090909090909,4,2,0,5,0,0
48312,-90.9090909090909,4,2,0,30,0,0
48405,-90.9090909090909,4,2,0,5,0,0
48683,-90.9090909090909,4,2,0,60,0,0
48960,-90.9090909090909,4,2,0,5,0,0
49053,-90.9090909090909,4,2,0,80,0,1
49423,-90.9090909090909,4,2,0,60,0,1
49794,-90.9090909090909,4,2,0,70,0,1
50164,-90.9090909090909,4,2,0,85,0,1
50534,-90.9090909090909,4,2,0,70,0,1
50905,-90.9090909090909,4,2,0,85,0,1
51275,-90.9090909090909,4,2,0,70,0,1
51645,-90.9090909090909,4,2,0,75,0,1
52016,-90.9090909090909,4,2,0,80,0,1
52386,-90.9090909090909,4,2,0,85,0,1
53127,-90.9090909090909,4,2,0,70,0,1
53497,-90.9090909090909,4,2,0,85,0,1
54238,-90.9090909090909,4,2,0,75,0,1
54979,-90.9090909090909,4,2,0,70,0,1
55349,-90.9090909090909,4,2,0,60,0,1
55720,-90.9090909090909,4,2,0,70,0,1
56090,-90.9090909090909,4,2,0,85,0,1
56460,-90.9090909090909,4,2,0,70,0,1
56831,-90.9090909090909,4,2,0,85,0,1
57201,-90.9090909090909,4,2,0,70,0,1
57571,-90.9090909090909,4,2,0,75,0,1
57942,-90.9090909090909,4,2,0,65,0,1
58312,-90.9090909090909,4,2,0,64,0,1
58683,-90.9090909090909,4,2,0,63,0,1
59053,-90.9090909090909,4,2,0,62,0,1
59423,-90.9090909090909,4,2,0,61,0,1
59794,-90.9090909090909,4,2,0,60,0,1
60164,-90.9090909090909,4,2,0,59,0,1
60534,-90.9090909090909,4,2,0,58,0,0
60905,-90.9090909090909,4,2,0,80,0,1
61645,-90.9090909090909,4,2,0,70,0,1
62757,-90.9090909090909,4,2,0,85,0,1
62942,-90.9090909090909,4,2,0,80,0,1
63497,-90.9090909090909,4,2,0,75,0,1
63868,-90.9090909090909,4,2,0,80,0,1
64238,-90.9090909090909,4,2,0,85,0,1
64979,-90.9090909090909,4,2,0,70,0,1
65349,-90.9090909090909,4,2,0,85,0,1
66090,-90.9090909090909,4,2,0,75,0,1
66831,-90.9090909090909,4,2,0,80,0,1
67201,-90.9090909090909,4,2,0,50,0,1
67571,-90.9090909090909,4,2,0,54,0,1
67942,-90.9090909090909,4,2,0,58,0,1
68312,-90.9090909090909,4,2,0,62,0,1
68683,-90.9090909090909,4,2,0,66,0,1
69053,-90.9090909090909,4,2,0,70,0,1
69423,-90.9090909090909,4,2,0,74,0,1
69794,-90.9090909090909,4,2,0,65,0,1
70164,-90.9090909090909,4,2,0,66,0,1
70534,-90.9090909090909,4,2,0,67,0,1
70905,-90.9090909090909,4,2,0,68,0,1
71275,-90.9090909090909,4,2,0,69,0,1
71645,-90.9090909090909,4,2,0,70,0,1
72016,-90.9090909090909,4,2,0,71,0,1
72386,-90.9090909090909,4,2,0,72,0,1
72757,-90.9090909090909,4,2,0,65,0,0
78683,-90.9090909090909,4,2,0,50,0,0
79423,-90.9090909090909,4,2,0,54,0,0
80164,-90.9090909090909,4,2,0,58,0,0
80905,-90.9090909090909,4,2,0,62,0,0
81645,-90.9090909090909,4,2,0,66,0,0
82386,-90.9090909090909,4,2,0,70,0,0
83127,-90.9090909090909,4,2,0,65,0,0
96460,-90.9090909090909,4,2,0,70,0,0
108312,-90.9090909090909,4,2,0,35,0,0
119794,-90.9090909090909,4,2,0,65,0,0

[Colours]
Combo1 : 255,217,102
Combo2 : 128,216,249
Combo3 : 62,206,13
Combo4 : 139,141,243
SliderBorder : 0,255,255
SliderTrackOverride : 0,0,0

[HitObjects]
73,219,1646,6,0,P|117:250|171:252,1,110.000003356934,4|4,0:2|0:3,0:0:0:0:
219,239,2201,2,0,L|212:293,2,55.0000016784668,0|4|0,0:0|0:3|0:0,0:0:0:0:
225,189,2757,1,4,0:3:0:0:
311,237,3127,2,0,P|364:238|405:203,1,110.000003356934,4|4,0:3|0:3,0:0:0:0:
435,108,3868,2,0,L|489:114,2,55.0000016784668,4|0|8,0:3|0:0|1:2,0:0:0:0:
341,75,4608,6,0,P|299:40|246:41,1,110.000003356934,4|4,0:3|0:3,0:0:0:0:
199,58,5163,2,0,L|192:3,2,55.0000016784668,0|4|0,0:0|0:3|0:0,0:0:0:0:
205,104,5719,1,4,0:3:0:0:
216,203,6090,2,0,P|269:201|310:236,1,110.000003356934,4|4,0:3|0:3,0:0:0:0:
340,332,6831,2,0,L|394:325,2,55.0000016784668,4|0|2,0:3|0:0|1:3,0:0:0:0:
241,329,7571,6,0,L|131:316,1,110.000003356934,0|4,0:2|0:3,0:0:0:0:
83,306,8127,2,0,P|87:333|84:360,2,55.0000016784668,0|4|0,0:0|0:3|0:0,0:0:0:0:
55,264,8683,1,4,0:3:0:0:
31,168,9053,2,0,L|140:155,1,110.000003356934,4|4,0:3|0:3,0:0:0:0:
194,72,9793,2,0,P|221:69|248:73,1,55.0000016784668,4|0,0:3|0:0,0:0:0:0:
290,101,10164,1,8,1:2:0:0:
323,194,10534,6,0,L|432:185,1,110.000003356934,6|6,3:3|3:3,0:0:0:0:
443,283,11275,2,0,L|334:292,1,110.000003356934,6|6,3:3|3:3,0:0:0:0:
240,257,12016,2,0,L|131:248,1,110.000003356934,6|6,3:3|3:3,0:0:0:0:
120,346,12757,2,0,L|174:350,2,55.0000016784668,6|6|6,3:3|3:3|3:3,0:0:0:0:
36,293,13497,5,14,0:0:0:0:
172,80,25349,6,0,P|175:52|171:25,2,55.0000016784668,6|2|2,1:2|0:2|1:2,0:0:0:0:
135,113,25905,1,2,0:2:0:0:
198,189,26275,2,0,L|252:183,1,55.0000016784668,2|2,0:2|1:2,0:0:0:0:
283,144,26645,2,0,L|392:155,1,110.000003356934,2|2,0:2|0:2,0:0:0:0:
412,201,27201,1,2,1:2:0:0:
431,246,27386,2,0,L|321:257,1,110.000003356934,2|2,0:2|0:2,0:0:0:0:
272,262,27942,1,10,1:2:0:0:
176,289,28312,6,0,P|183:316|186:344,2,55.0000016784668,2|2|2,1:2|0:2|1:2,0:0:0:0:
137,259,28868,1,2,0:2:0:0:
60,195,29238,2,0,P|63:167|69:141,1,55.0000016784668,2|2,0:2|1:2,0:0:0:0:
102,104,29608,2,0,L|212:115,1,110.000003356934,2|2,0:2|0:2,0:0:0:0:
257,134,30164,1,2,1:2:0:0:
300,110,30349,2,0,P|365:145|328:210,1,165.0000050354,2|0,0:2|1:1,0:0:0:0:
255,277,31275,6,0,L|260:331,2,55.0000016784668,2|2|2,1:2|0:2|1:2,0:0:0:0:
226,236,31831,1,2,0:2:0:0:
144,292,32201,2,0,L|89:286,1,55.0000016784668,2|2,0:2|1:2,0:0:0:0:
41,301,32571,2,0,P|27:249|42:196,1,110.000003356934,2|2,0:2|0:2,0:0:0:0:
74,159,33127,1,2,1:2:0:0:
105,121,33312,2,0,L|214:124,1,110.000003356934,2|2,0:2|0:2,0:0:0:0:
264,127,33868,1,10,1:2:0:0:
361,144,34238,6,0,L|415:142,1,55.0000016784668,2|2,1:2|0:2,0:0:0:0:
488,74,34794,2,0,P|454:31|401:18,1,110.000003356934,2|2,0:2|0:2,0:0:0:0:
362,47,35349,1,2,1:2:0:0:
264,28,35720,6,0,L|209:26,1,55.0000016784668,0|2,1:2|0:2,0:0:0:0:
112,48,36275,1,2,0:2:0:0:
112,48,36460,2,0,P|116:102|122:157,1,110.000003356934,2|2,1:3|1:3,0:0:0:0:
121,256,37201,6,0,L|66:251,2,55.0000016784668,14|2|2,1:2|0:2|1:2,0:0:0:0:
153,293,37757,1,2,0:2:0:0:
222,223,38127,2,0,L|226:168,2,55.0000016784668,2|2|2,0:2|1:2|0:2,0:0:0:0:
318,243,38868,2,0,L|322:188,2,55.0000016784668,2|2|2,0:2|1:2|0:2,0:0:0:0:
415,257,39608,2,0,L|419:202,2,55.0000016784668,2|2|2,0:2|1:2|0:2,0:0:0:0:
429,304,40164,6,0,P|397:346|343:346,1,110.000003356934,2|2,1:2|1:2,0:0:0:0:
297,330,40720,2,0,L|301:384,2,55.0000016784668,2|2|2,0:2|1:2|0:2,0:0:0:0:
250,313,41275,1,2,1:2:0:0:
173,375,41645,2,0,P|118:369|63:363,1,110.000003356934,2|2,1:2|1:2,0:0:0:0:
20,274,42386,1,2,1:2:0:0:
109,230,42757,1,0,1:0:0:0:
65,141,43127,6,0,P|37:137|10:135,2,55.0000016784668,2|2|2,1:3|1:3|1:3,0:0:0:0:
143,80,43868,2,0,P|132:54|120:29,2,55.0000016784668,2|2|2,1:3|1:3|1:3,0:0:0:0:
234,117,44608,2,0,P|250:94|266:72,2,55.0000016784668,2|2|2,1:3|1:3|1:3,0:0:0:0:
247,214,45349,2,0,P|274:217|301:219,2,55.0000016784668,2|2|2,1:3|1:3|1:3,0:0:0:0:
256,192,46090,12,0,47571,1:0:0:0:
113,323,48683,5,14,3:2:0:0:
194,267,49053,6,0,L|248:272,1,55.0000016784668,6|2,1:2|0:3,0:0:0:0:
287,302,49423,1,4,1:0:0:0:
376,260,49794,2,0,P|396:208|404:154,1,110.000003356934,2|2,1:1|1:1,0:0:0:0:
354,155,50349,1,0,0:0:0:0:
305,158,50534,2,0,P|282:107|249:63,1,110.000003356934,2|2,1:1|1:1,0:0:0:0:
216,101,51090,1,0,0:0:0:0:
181,136,51275,2,0,P|129:116|75:108,1,110.000003356934,2|2,1:1|1:2,0:0:0:0:
13,185,52016,6,0,L|18:239,1,55.0000016784668,2|2,1:2|0:3,0:0:0:0:
42,283,52386,1,2,1:1:0:0:
125,229,52757,2,0,P|179:236|230:256,1,110.000003356934,2|2,1:1|1:1,0:0:0:0:
265,220,53312,1,0,0:0:0:0:
300,184,53498,2,0,P|332:228|355:278,1,110.000003356934,2|2,1:1|1:1,0:0:0:0:
412,358,54238,1,10,3:3:0:0:
451,329,54423,1,10,0:3:0:0:
491,301,54608,1,10,3:3:0:0:
434,221,54979,6,0,P|432:193|438:166,1,55.0000016784668,6|2,1:2|0:3,0:0:0:0:
468,127,55349,1,4,1:0:0:0:
414,44,55720,2,0,P|361:26|308:15,1,110.000003356934,2|2,1:1|1:1,0:0:0:0:
299,63,56275,1,0,0:0:0:0:
291,112,56460,2,0,P|241:136|195:166,1,110.000003356934,2|2,1:1|1:1,0:0:0:0:
226,205,57016,1,0,0:0:0:0:
252,247,57201,2,0,P|234:299|223:352,1,110.000003356934,2|2,1:1|1:2,0:0:0:0:
123,352,57942,6,0,P|119:324|116:297,1,55.0000016784668,2|2,1:2|0:2,0:0:0:0:
33,244,58497,2,0,P|40:189|45:134,1,110.000003356934,2|2,0:2|0:2,0:0:0:0:
34,86,59053,1,2,1:2:0:0:
113,28,59423,2,0,P|140:33|168:38,1,55.0000016784668,2|2,1:2|0:2,0:0:0:0:
234,112,59979,1,2,0:2:0:0:
234,112,60164,2,0,P|260:106|288:101,2,55.0000016784668,0|0|2,1:0|1:0|1:3,0:0:0:0:
167,185,60905,6,0,P|161:211|156:239,1,55.0000016784668,6|2,1:2|0:3,0:0:0:0:
174,285,61275,1,4,1:3:0:0:
267,253,61645,2,0,P|272:281|269:308,2,55.0000016784668,2|2|2,1:1|0:1|1:1,0:0:0:0:
308,225,62201,1,2,0:1:0:0:
349,197,62386,2,0,P|371:213|388:234,2,55.0000016784668,2|2|2,1:1|0:1|1:1,0:0:0:0:
365,99,63127,2,0,P|392:94|419:97,1,55.0000016784668,2|2,1:1|0:1,0:0:0:0:
459,126,63497,1,2,1:2:0:0:
424,219,63868,6,0,L|428:273,1,55.0000016784668,2|2,1:2|0:2,0:0:0:0:
393,308,64238,1,2,1:1:0:0:
310,362,64608,2,0,P|256:355|205:335,1,110.000003356934,2|2,1:1|1:1,0:0:0:0:
209,285,65164,1,0,0:0:0:0:
211,235,65349,2,0,P|179:191|156:141,1,110.000003356934,2|2,1:1|1:1,0:0:0:0:
205,52,66090,1,10,3:3:0:0:
275,122,66460,1,10,3:3:0:0:
340,47,66831,6,0,L|394:50,1,55.0000016784668,2|2,1:2|0:2,0:0:0:0:
443,57,67201,1,4,1:3:0:0:
403,147,67571,2,0,P|425:198|427:252,1,110.000003356934,2|2,1:1|1:1,0:0:0:0:
377,250,68127,1,0,0:0:0:0:
328,242,68312,2,0,P|309:294|275:337,1,110.000003356934,2|2,1:1|1:1,0:0:0:0:
243,298,68868,1,0,0:0:0:0:
212,259,69053,2,0,P|162:284|109:295,1,110.000003356934,2|2,1:1|1:2,0:0:0:0:
36,227,69794,6,0,L|41:172,1,55.0000016784668,2|2,1:2|0:2,0:0:0:0:
111,102,70349,2,0,L|220:112,1,110.000003356934,2|2,0:2|0:2,0:0:0:0:
256,146,70905,1,2,1:2:0:0:
322,73,71275,2,0,L|376:67,1,55.0000016784668,2|2,1:2|0:2,0:0:0:0:
434,148,71831,1,2,0:2:0:0:
434,148,72016,2,0,L|488:153,2,55.0000016784668,0|0|2,1:0|1:0|1:3,0:0:0:0:
403,242,72757,6,0,L|293:231,1,110.000003356934,2|2,1:2|1:2,0:0:0:0:
248,211,73312,2,0,L|242:265,2,55.0000016784668,2|2|2,0:2|1:2|0:2,0:0:0:0:
227,165,73868,1,2,1:2:0:0:
138,209,74238,2,0,P|126:157|146:106,1,110.000003356934,2|2,1:2|1:2,0:0:0:0:
189,81,74794,1,2,0:2:0:0:
231,55,74979,2,0,L|225:0,2,55.0000016784668,2|0|10,1:2|0:0|1:2,0:0:0:0:
310,114,75720,6,0,P|362:126|413:106,1,110.000003356934,2|2,1:2|1:2,0:0:0:0:
456,81,76275,2,0,L|450:26,2,55.0000016784668,2|2|2,0:2|1:2|0:2,0:0:0:0:
497,107,76831,1,2,1:2:0:0:
454,196,77201,2,0,L|443:305,1,110.000003356934,2|2,1:2|1:2,0:0:0:0:
395,317,77757,1,2,0:2:0:0:
346,328,77942,2,0,L|351:382,2,55.0000016784668,2|0|2,1:2|0:0|1:3,0:0:0:0:
249,305,78683,6,0,L|243:359,2,55.0000016784668,6|2|2,1:2|0:3|1:3,0:0:0:0:
182,231,79423,2,0,L|131:253,2,55.0000016784668,2|2|2,1:3|0:3|1:3,0:0:0:0:
212,135,80164,2,0,L|167:103,2,55.0000016784668,2|2|2,1:3|0:3|1:3,0:0:0:0:
309,113,80905,2,0,L|314:58,2,55.0000016784668,2|2|2,1:3|0:3|1:3,0:0:0:0:
256,192,81645,12,2,83127,1:3:0:0:
332,326,84608,6,0,P|387:328|432:298,1,110.000003356934,2|0,1:1|0:0,0:0:0:0:
469,206,85349,2,0,P|423:176|369:177,1,110.000003356934,8|0,1:2|1:0,0:0:0:0:
329,207,85905,2,0,L|332:97,1,110.000003356934,2|0,1:1|1:0,0:0:0:0:
305,55,86460,1,2,1:1:0:0:
230,120,86831,2,0,L|231:174,2,55.0000016784668,8|0|0,1:2|0:0|0:0,0:0:0:0:
177,36,87571,6,0,P|125:53|92:95,1,110.000003356934,2|0,1:1|0:0,0:0:0:0:
3,135,88312,2,0,P|36:177|87:194,1,110.000003356934,8|0,1:2|1:0,0:0:0:0:
136,183,88868,2,0,L|132:293,1,110.000003356934,2|0,1:1|1:0,0:0:0:0:
162,323,89423,1,2,1:1:0:0:
256,295,89793,2,0,L|254:240,2,55.0000016784668,8|0|0,3:2|0:0|0:0,0:0:0:0:
297,321,90349,1,2,1:3:0:0:
338,347,90534,6,0,P|391:334|445:323,1,110.000003356934,2|0,1:1|0:0,0:0:0:0:
482,231,91275,2,0,P|428:219|374:207,1,110.000003356934,8|0,1:2|1:0,0:0:0:0:
328,226,91831,2,0,P|301:179|323:131,1,110.000003356934,2|0,1:1|1:0,0:0:0:0:
364,104,92386,1,2,1:1:0:0:
276,57,92757,2,0,L|272:2,2,55.0000016784668,8|0|0,1:2|0:0|0:0,0:0:0:0:
197,117,93497,6,0,L|87:109,1,110.000003356934,2|0,1:1|1:0,0:0:0:0:
44,134,94053,1,2,1:1:0:0:
107,268,94609,2,0,L|216:260,1,110.000003356934,2|0,1:1|1:0,0:0:0:0:
260,285,95164,1,2,3:1:0:0:
387,208,95720,1,2,0:3:0:0:
347,117,96090,1,2,0:3:0:0:
417,47,96460,6,0,P|370:19|316:23,1,110.000003356934,2|0,1:1|0:0,0:0:0:0:
239,86,97201,2,0,P|192:113|138:109,1,110.000003356934,8|0,1:2|1:0,0:0:0:0:
96,82,97757,2,0,P|100:136|103:191,1,110.000003356934,2|0,1:1|1:0,0:0:0:0:
82,236,98312,1,2,1:1:0:0:
170,280,98683,1,8,1:2:0:0:
255,230,99053,2,0,P|282:224|309:219,1,55.0000016784668,0|0,0:0|3:0,0:0:0:0:
351,193,99423,6,0,P|336:246|333:300,1,110.000003356934,2|0,1:1|0:0,0:0:0:0:
432,314,100164,2,0,P|446:260|449:206,1,110.000003356934,8|0,1:2|1:0,0:0:0:0:
441,157,100720,2,0,P|410:113|358:95,1,110.000003356934,2|0,1:1|1:0,0:0:0:0:
310,106,101275,1,2,1:1:0:0:
222,59,101645,2,0,L|223:4,2,55.0000016784668,8|0|0,3:2|0:0|0:0,0:0:0:0:
143,118,102386,6,0,L|146:227,1,110.000003356934,2|0,1:1|0:0,0:0:0:0:
49,208,103127,2,0,L|52:317,1,110.000003356934,8|0,1:2|1:0,0:0:0:0:
88,350,103683,2,0,P|141:366|194:353,1,110.000003356934,2|0,1:1|1:0,0:0:0:0:
229,319,104238,1,2,1:1:0:0:
319,359,104608,1,8,1:2:0:0:
390,291,104979,2,0,P|390:263|383:236,1,55.0000016784668,0|0,0:0|3:0,0:0:0:0:
341,209,105349,6,0,P|394:198|432:159,1,110.000003356934,2|0,1:1|1:0,0:0:0:0:
449,112,105905,1,2,1:1:0:0:
333,19,106460,2,0,P|280:30|242:69,1,110.000003356934,2|0,1:1|1:0,0:0:0:0:
213,109,107016,2,0,P|108:72|145:177,1,275.000008392334,2|2,3:1|0:3,0:0:0:0:
237,205,108312,5,6,0:0:0:0:
