osu file format v14

[General]
AudioFilename: audio.mp3
AudioLeadIn: 0
PreviewTime: 49944
Countdown: 0
SampleSet: Soft
StackLeniency: 0.7
Mode: 0
LetterboxInBreaks: 0
WidescreenStoryboard: 1

[Editor]
Bookmarks: 26478,38257,50036,61815,73594,79484,91263,103042,114821,126600,129545
DistanceSpacing: 0.8
BeatDivisor: 4
GridSize: 4
TimelineZoom: 2

[Metadata]
Title:Hide And Seek
TitleUnicode:Hide And Seek
Artist:James Landino
ArtistUnicode:James Landino
Creator:Mirash
Version:Normal
Source:
Tags:rlc noffy
BeatmapID:2036904
BeatmapSetID:972932

[Difficulty]
HPDrainRate:4
CircleSize:4
OverallDifficulty:5
ApproachRate:5
SliderMultiplier:1.2
SliderTickRate:1

[Events]
//Background and Video events
0,0,"vanlov.jpg",0,0
//Break Periods
//Storyboard Layer 0 (Background)
//Storyboard Layer 1 (Fail)
//Storyboard Layer 2 (Pass)
//Storyboard Layer 3 (Foreground)
//Storyboard Sound Samples

[TimingPoints]
165,368.098159509202,4,2,1,60,1,0
1264,-100,4,2,1,40,0,0
1816,-100,4,2,1,50,0,0
14699,-100,4,2,1,50,0,0
19116,-100,4,2,1,50,0,0
50036,-100,4,2,1,60,0,0
73594,-100,4,2,1,50,0,0
79116,-100,4,2,1,30,0,0
79484,-100,4,2,1,60,0,0
129545,-100,4,2,1,50,0,0

[Colours]
Combo1 : 129,134,121
Combo2 : 36,147,166
Combo3 : 99,173,146
Combo4 : 179,121,15

[HitObjects]
427,180,165,5,0,0:0:0:0:
259,50,717,5,0,0:0:0:0:
85,180,1269,5,2,0:0:0:0:
256,192,1453,12,4,3109,1:0:0:0:
357,140,4029,5,4,3:0:0:0:
357,140,4213,2,0,L|276:135,1,60,8|0,1:0|0:0,0:0:0:0:
267,134,4581,2,0,L|276:215,2,60,0|4|8,1:0|3:0|1:0,0:0:0:0:
183,47,5317,2,0,P|124:60|84:128,1,120,0|8,0:0|1:0,0:0:0:0:
93,134,5869,1,0,0:0:0:0:
100,162,6053,6,0,L|175:177,1,60,0|0,1:0|0:0,0:0:0:0:
171,201,6421,2,0,L|229:189,1,60,8|4,1:0|3:0,0:0:0:0:
300,91,6974,1,4,3:0:0:0:
300,91,7158,2,0,L|363:103,1,60,8|0,1:0|0:0,0:0:0:0:
385,89,7526,2,0,L|397:168,1,60,4|4,1:3|1:3,0:0:0:0:
418,165,7894,1,8,1:0:0:0:
424,194,8078,1,8,1:0:0:0:
445,214,8262,2,0,B|383:222|383:222|355:272|355:272|291:283,1,180,2|2,1:0|1:0,0:0:0:0:
269,267,8998,5,6,1:0:0:0:
176,190,9366,2,0,P|121:197|60:253,2,120,8|0|8,1:0|1:0|1:0,0:0:0:0:
199,171,10286,1,2,0:0:0:0:
224,155,10470,2,0,L|309:168,1,60,2|2,1:0|0:0,0:0:0:0:
302,186,10839,2,0,L|440:171,1,120,8|0,1:0|0:0,0:0:0:0:
447,158,11391,2,0,L|456:227,1,60,4|8,1:3|1:0,0:0:0:0:
376,308,11943,6,0,P|334:294|246:273,1,120,6|8,1:0|1:0,0:0:0:0:
187,180,12679,1,0,1:0:0:0:
187,180,12863,1,0,0:0:0:0:
187,180,13047,1,8,1:0:0:0:
82,238,13415,2,0,L|78:178,1,60,0|0,1:0|1:0,0:0:0:0:
59,154,13783,1,8,1:0:0:0:
40,130,13967,1,8,1:0:0:0:
22,105,14151,2,0,P|86:97|144:83,1,120,2|8,1:0|1:0,0:0:0:0:
241,148,14888,6,0,L|352:170,2,89.9999999999999,4|0|8,1:0|1:0|1:0,0:0:0:0:
228,120,15624,2,0,L|245:31,2,89.9999999999999,0|8|0,1:0|1:0|1:0,0:0:0:0:
207,142,16360,1,4,1:3:0:0:
186,163,16544,1,4,3:3:0:0:
166,185,16728,1,8,1:0:0:0:
186,303,17096,2,0,L|316:282,1,120,0|8,0:0|1:0,0:0:0:0:
367,181,17832,6,0,P|416:192|455:273,2,120,4|8|0,1:2|1:0|0:0,0:0:0:0:
337,189,18753,1,4,3:0:0:0:
308,197,18937,1,8,1:0:0:0:
204,135,19305,2,0,P|157:131|113:87,2,89.9999999999999,4|4|2,1:2|1:3|0:0,0:0:0:0:
223,112,20041,2,0,L|340:125,2,89.9999999999999,4|0|0,3:0|1:0|1:0,0:0:0:0:
206,86,20777,6,0,P|218:49|305:26,1,120,4|8,1:0|1:0,0:0:0:0:
407,8,21513,2,0,P|416:88|426:153,1,120,0|8,0:0|1:0,0:0:0:0:
445,145,22066,1,0,0:0:0:0:
469,162,22250,2,0,L|457:223,2,60,4|4|8,1:3|1:3|1:0,0:0:0:0:
349,155,22986,1,0,0:0:0:0:
302,265,23354,1,8,1:0:0:0:
302,265,23538,1,0,1:0:0:0:
302,265,23722,6,0,P|245:269|191:316,2,120,4|10|2,1:2|1:0|1:0,0:0:0:0:
385,351,24826,1,10,1:0:0:0:
451,251,25194,2,0,L|455:178,1,60,4|0,1:2|0:0,0:0:0:0:
440,164,25562,1,8,1:0:0:0:
424,138,25747,2,0,B|374:158|374:158|309:90,1,120,2|0,1:1|1:0,0:0:0:0:
307,88,26299,1,8,1:0:0:0:
200,32,26667,6,0,L|212:174,1,120,4|8,1:0|1:0,0:0:0:0:
230,173,27219,1,2,0:0:0:0:
248,196,27403,2,0,L|226:294,2,89.9999999999999,4|0|0,3:0|1:0|0:0,0:0:0:0:
277,195,28139,2,0,P|310:190|356:179,2,60,4|4|8,1:3|3:0|1:0,0:0:0:0:
183,120,28875,2,0,P|122:133|73:158,2,89.9999999999999,4|0|2,3:0|1:0|0:0,0:0:0:0:
201,95,29612,6,0,P|273:108|343:103,1,120,4|2,1:0|0:0,0:0:0:0:
436,78,30348,1,2,0:0:0:0:
473,191,30716,1,2,0:0:0:0:
356,221,31084,2,0,P|319:273|307:310,2,89.9999999999999,2|2|2,1:0|1:0|1:0,0:0:0:0:
341,194,31820,2,0,L|358:89,2,89.9999999999999,2|0|2,1:0|1:0|1:0,0:0:0:0:
311,194,32556,6,0,P|255:192|178:159,1,120,4|8,1:0|1:0,0:0:0:0:
108,86,33293,2,0,P|54:114|18:169,1,120,4|8,3:0|1:0,0:0:0:0:
22,191,33845,1,0,0:0:0:0:
26,220,34029,2,0,L|13:292,2,60,4|4|8,1:3|3:0|1:0,0:0:0:0:
141,188,34765,2,0,L|266:209,1,120,4|8,3:0|1:0,0:0:0:0:
275,232,35317,1,0,1:0:0:0:
286,259,35501,6,0,B|381:212|381:212|476:311,1,240,6|4,1:0|3:0,0:0:0:0:
491,333,36421,1,4,3:0:0:0:
507,358,36605,1,8,1:0:0:0:
387,349,36974,2,0,L|329:332,1,60,4|4,1:2|1:3,0:0:0:0:
306,313,37342,2,0,L|231:335,1,60,8|8,1:0|1:0,0:0:0:0:
219,337,37710,1,4,3:0:0:0:
99,346,38078,2,0,P|95:302|103:266,1,60,4|4,1:3|1:3,0:0:0:0:
124,274,38446,6,0,P|122:209|116:132,1,120,6|2,1:0|1:0,0:0:0:0:
95,134,38998,1,2,0:1:0:0:
72,114,39182,2,0,P|111:82|195:75,2,120,0|2|4,1:0|1:3|1:3,0:0:0:0:
50,134,40102,1,4,3:0:0:0:
29,155,40286,1,2,1:0:0:0:
84,261,40655,2,0,L|214:239,1,120,2|0,0:1|1:0,0:0:0:0:
224,220,41207,1,2,1:3:0:0:
247,202,41391,6,0,L|373:232,1,120,4|2,1:2|1:0,0:0:0:0:
482,247,42127,2,0,P|475:193|475:166,2,60,0|0|2,1:0|0:0|1:0,0:0:0:0:
417,348,42863,2,0,P|365:316|294:319,1,120,4|0,1:3|1:0,0:0:0:0:
277,309,43415,1,2,3:0:0:0:
247,301,43599,2,0,L|163:317,1,60,2|0,1:0|0:0,0:0:0:0:
160,301,43967,1,2,1:0:0:0:
54,243,44335,6,0,P|66:173|74:108,1,120,4|0,1:0|0:0,0:0:0:0:
71,94,44888,1,8,1:0:0:0:
66,64,45072,2,0,L|199:100,1,120,0|8,1:0|1:0,0:0:0:0:
255,190,45808,2,0,L|390:168,1,120,4|0,1:2|0:0,0:0:0:0:
399,155,46360,1,8,1:0:0:0:
427,145,46544,2,0,P|406:206|402:276,1,120,0|8,1:0|1:0,0:0:0:0:
300,326,47280,6,0,B|345:191|225:220|287:81,1,240,4|4,3:0|3:0,0:0:0:0:
183,26,48385,1,4,3:0:0:0:
104,116,48753,2,0,L|119:185,1,60,4|4,1:0|1:3,0:0:0:0:
106,202,49121,1,8,1:0:0:0:
95,230,49305,1,8,1:0:0:0:
83,257,49489,1,4,3:0:0:0:
154,353,49857,2,0,L|214:341,1,60,2|0,1:3|1:0,0:0:0:0:
231,317,50225,6,0,L|356:333,1,120,4|8,1:0|1:0,0:0:0:0:
421,236,50961,1,12,3:0:0:0:
421,236,51145,1,0,1:0:0:0:
421,236,51329,2,0,L|429:168,1,60,8|2,1:0|3:0,0:0:0:0:
415,149,51697,2,0,L|424:73,2,60,12|4|8,1:3|3:0|1:0,0:0:0:0:
309,207,52434,2,0,P|254:194|223:131,1,120,4|8,3:0|1:0,0:0:0:0:
112,96,53170,5,4,1:2:0:0:
45,195,53538,2,0,L|70:270,1,60,8|0,1:0|0:0,0:0:0:0:
62,281,53906,2,0,L|196:271,1,120,2|8,3:0|1:0,0:0:0:0:
204,290,54458,1,2,3:0:0:0:
232,300,54642,2,0,P|315:278|335:236,1,120,4|8,1:3|1:0,0:0:0:0:
330,223,55194,1,8,1:0:0:0:
327,193,55378,2,0,P|343:129|376:73,1,120,0|8,0:0|1:0,0:0:0:0:
480,36,56115,6,0,L|497:167,1,120,4|8,1:0|1:0,0:0:0:0:
487,274,56851,2,0,P|443:273|379:325,1,120,4|8,3:0|1:0,0:0:0:0:
357,331,57403,1,2,3:0:0:0:
331,346,57587,2,0,L|255:333,1,60,4|4,1:3|3:0,0:0:0:0:
248,355,57955,2,0,L|172:342,2,60,8|8|4,1:0|3:0|3:0,0:0:0:0:
328,266,58691,1,8,1:0:0:0:
416,346,59059,2,0,P|464:326|498:259,1,120,4|8,1:2|1:0,0:0:0:0:
478,245,59612,2,0,L|483:174,1,60,0|2,0:0|3:0,0:0:0:0:
461,163,59980,1,4,3:0:0:0:
346,198,60348,5,2,3:0:0:0:
346,198,60532,2,0,L|223:187,1,120,4|8,1:3|1:0,0:0:0:0:
201,171,61084,1,8,1:0:0:0:
174,157,61268,2,0,P|116:162|57:202,1,120,0|8,0:0|1:0,0:0:0:0:
39,311,62004,6,0,L|178:283,1,120,4|0,1:0|0:0,0:0:0:0:
182,303,62556,1,2,3:0:0:0:
204,322,62740,2,0,L|343:294,1,120,2|0,3:0|0:0,0:0:0:0:
346,315,63293,1,2,3:0:0:0:
371,330,63477,2,0,L|441:317,2,60,4|4|0,1:3|3:0|0:0,0:0:0:0:
305,229,64213,2,0,P|332:185|413:178,1,120,2|8,3:0|1:0,0:0:0:0:
473,73,64949,6,0,L|334:101,1,120,4|0,1:0|0:0,0:0:0:0:
330,81,65501,1,2,3:0:0:0:
308,62,65685,2,0,L|169:90,1,120,2|0,3:0|0:0,0:0:0:0:
166,69,66238,1,2,3:0:0:0:
141,54,66422,2,0,L|71:67,2,60,4|4|8,1:3|3:0|1:0,0:0:0:0:
207,155,67158,2,0,P|180:199|99:206,1,120,4|8,3:0|1:0,0:0:0:0:
54,315,67894,5,2,1:0:0:0:
5,205,68262,2,0,L|16:142,1,60,8|2,1:0|0:0,0:0:0:0:
11,116,68630,2,0,P|42:90|135:97,1,120,4|8,1:3|1:0,0:0:0:0:
214,159,69366,1,2,1:0:0:0:
301,76,69734,2,0,L|375:89,1,60,8|2,1:0|0:0,0:0:0:0:
386,72,70102,2,0,P|380:127|384:206,1,120,4|10,1:3|1:0,0:0:0:0:
309,287,70839,5,2,1:0:0:0:
193,254,71207,2,0,L|208:184,1,60,8|8,1:0|1:0,0:0:0:0:
225,173,71575,2,0,P|192:160|90:180,1,120,8|8,3:0|1:0,0:0:0:0:
33,261,72311,1,2,1:0:0:0:
135,323,72679,2,0,L|216:304,1,60,8|8,1:0|1:0,0:0:0:0:
202,280,73047,2,0,B|249:324|249:324|305:294,1,120,0|8,3:0|1:0,0:0:0:0:
324,310,73599,1,4,3:0:0:0:
350,324,73783,5,4,1:0:0:0:
437,241,74151,1,8,0:0:0:0:
437,241,74335,1,2,0:0:0:0:
333,180,74704,1,0,1:0:0:0:
333,180,74888,1,8,0:0:0:0:
230,242,75256,2,0,L|153:227,1,60,0|0,1:0|1:0,0:0:0:0:
142,238,75624,1,8,0:0:0:0:
32,188,75992,1,0,0:0:0:0:
32,188,76176,1,0,1:0:0:0:
32,188,76360,1,8,0:0:0:0:
105,93,76728,6,0,B|171:140|171:140|268:84,1,180,0|2,1:0|0:0,0:0:0:0:
280,108,77464,1,0,0:0:0:0:
303,126,77648,1,0,1:0:0:0:
326,144,77832,1,8,0:0:0:0:
444,166,78201,5,0,1:0:0:0:
444,166,78385,1,0,1:0:0:0:
444,166,78569,2,0,L|433:240,1,60,12|0,0:0|1:0,0:0:0:0:
312,356,79305,1,2,0:0:0:0:
192,369,79673,6,0,P|203:288|207:233,1,120,4|8,1:0|1:0,0:0:0:0:
180,234,80225,1,0,0:0:0:0:
153,220,80409,2,0,L|149:154,2,60,4|0|8,3:0|0:0|1:0,0:0:0:0:
267,185,81145,1,4,1:2:0:0:
370,245,81513,1,8,1:0:0:0:
455,159,81882,1,0,1:0:0:0:
449,129,82066,1,0,1:0:0:0:
442,99,82250,2,0,L|359:121,1,60,8|0,1:0|1:0,0:0:0:0:
361,134,82618,6,0,L|229:113,1,120,0|8,1:0|1:0,0:0:0:0:
147,41,83354,1,4,3:0:0:0:
147,41,83538,1,0,1:0:0:0:
147,41,83722,2,0,L|76:59,1,60,8|2,1:0|0:0,0:0:0:0:
60,45,84090,2,0,L|38:109,1,60,4|4,1:3|1:3,0:0:0:0:
18,122,84458,1,8,1:0:0:0:
71,229,84826,2,0,P|187:212|211:211,1,120,4|8,3:0|1:0,0:0:0:0:
281,134,85562,5,4,1:0:0:0:
391,181,85931,2,0,L|377:262,2,60,2|0|0,1:2|0:0|0:0,0:0:0:0:
420,180,86483,1,8,0:0:0:0:
449,180,86667,1,0,0:0:0:0:
387,77,87035,2,0,L|322:92,1,60,4|0,1:2|0:0,0:0:0:0:
310,114,87403,1,8,1:0:0:0:
243,213,87771,2,0,L|184:199,1,60,4|0,3:0|1:0,0:0:0:0:
155,206,88139,1,8,1:0:0:0:
126,213,88323,1,2,0:0:0:0:
97,222,88507,6,0,P|94:177|84:85,1,120,4|8,1:2|1:0,0:0:0:0:
197,56,89243,2,0,P|190:115|186:175,1,120,4|8,3:0|1:0,0:0:0:0:
258,271,89980,6,0,B|292:258|292:258|330:285|330:285|381:268,2,120,4|2|4,1:2|1:2|1:3,0:0:0:0:
229,262,90900,1,4,3:0:0:0:
201,249,91084,2,0,L|133:272,1,60,8|2,1:0|0:0,0:0:0:0:
122,289,91452,6,0,P|124:239|106:164,1,120,4|8,1:0|1:0,0:0:0:0:
42,71,92188,1,4,3:0:0:0:
42,71,92372,1,2,1:3:0:0:
42,71,92556,2,0,L|116:61,1,60,8|2,1:0|0:3,0:0:0:0:
119,38,92924,2,0,L|196:51,1,60,4|6,1:3|3:0,0:0:0:0:
192,74,93293,1,8,1:0:0:0:
291,6,93661,2,0,L|272:138,1,120,4|8,3:0|1:0,0:0:0:0:
330,230,94397,6,0,B|423:186|412:287|512:243,2,180,4|2|8,1:3|0:3|1:0,0:0:0:0:
217,188,95869,2,0,B|159:171|159:171|60:247|60:247|-6:220,1,240,4|4,1:3|1:2,0:0:0:0:
37,109,96974,2,0,L|118:100,1,60,8|0,1:0|1:0,0:0:0:0:
115,80,97342,6,0,P|175:61|230:96,1,120,4|0,1:0|0:0,0:0:0:0:
232,114,97894,1,4,3:0:0:0:
241,142,98078,2,0,P|308:142|385:121,1,120,0|8,1:0|1:0,0:0:0:0:
473,94,98814,2,0,P|454:161|439:228,1,120,4|8,1:2|1:0,0:0:0:0:
437,239,99366,1,4,1:3:0:0:
431,268,99550,1,4,1:2:0:0:
340,346,99918,2,0,P|335:296|329:269,1,60,8|0,1:0|1:0,0:0:0:0:
343,258,100287,6,0,P|295:189|146:209,2,240,4|0|4,1:0|1:0|1:0,0:0:0:0:
353,286,101943,1,4,1:3:0:0:
360,315,102127,2,0,L|432:334,1,60,8|8,1:0|1:0,0:0:0:0:
446,340,102495,2,0,B|450:293|450:293|472:273|472:273|477:216,1,120,8|8,1:0|1:0,0:0:0:0:
398,138,103231,6,0,P|332:151|299:212,1,120,4|8,1:0|1:0,0:0:0:0:
274,307,103967,1,12,3:0:0:0:
274,307,104151,1,0,1:0:0:0:
274,307,104335,1,8,1:0:0:0:
158,342,104704,2,0,L|149:271,1,60,12|4,1:3|3:0,0:0:0:0:
123,268,105072,2,0,L|142:139,1,120,8|4,1:0|3:0,0:0:0:0:
158,125,105624,1,2,1:3:0:0:
151,95,105808,1,8,1:0:0:0:
254,33,106176,6,0,P|323:47|365:135,1,120,4|8,1:2|1:0,0:0:0:0:
346,111,106728,1,0,0:0:0:0:
339,140,106912,2,0,L|351:207,2,60,2|4|8,3:0|3:0|1:0,0:0:0:0:
229,189,107648,2,0,P|166:177|139:118,1,120,12|8,1:3|1:0,0:0:0:0:
139,101,108201,2,0,L|58:91,2,60,8|0|8,1:0|0:0|1:0,0:0:0:0:
164,85,108753,1,8,1:0:0:0:
257,10,109121,6,0,P|315:22|358:98,1,120,4|8,1:0|1:0,0:0:0:0:
346,96,109673,1,8,3:0:0:0:
336,124,109857,2,0,L|357:246,1,120,4|8,3:0|1:0,0:0:0:0:
444,323,110593,2,0,P|496:286|504:219,2,120,12|8|4,1:3|1:0|3:0,0:0:0:0:
414,322,111513,1,2,1:3:0:0:
384,317,111697,2,0,L|313:333,1,60,8|2,1:0|3:0,0:0:0:0:
296,323,112066,5,4,1:2:0:0:
182,360,112434,2,0,P|171:311|167:268,1,60,8|0,1:0|0:0,0:0:0:0:
185,275,112802,2,0,P|225:256|240:164,1,120,2|8,3:0|1:0,0:0:0:0:
237,160,113354,1,2,3:0:0:0:
225,132,113538,2,0,L|161:132,2,60,4|4|8,1:3|1:3|1:0,0:0:0:0:
304,41,114274,2,0,L|431:68,1,120,0|8,0:0|1:0,0:0:0:0:
496,159,115010,6,0,P|436:169|400:227,1,120,4|0,1:0|0:0,0:0:0:0:
392,242,115562,1,2,3:0:0:0:
362,247,115747,2,0,P|302:257|266:315,1,120,2|0,3:0|0:0,0:0:0:0:
258,330,116299,1,2,3:0:0:0:
266,358,116483,2,0,L|115:333,1,120,4|8,1:3|1:0,0:0:0:0:
56,260,117219,2,0,L|207:235,1,120,2|8,3:0|1:0,0:0:0:0:
222,130,117955,6,0,P|181:122|141:49,1,120,4|0,1:0|0:0,0:0:0:0:
165,43,118507,1,2,3:0:0:0:
192,30,118691,2,0,L|323:50,1,120,2|8,3:0|1:0,0:0:0:0:
336,62,119243,1,2,3:0:0:0:
354,85,119428,2,0,P|335:134|335:205,1,120,4|8,1:3|1:0,0:0:0:0:
259,295,120164,2,0,L|410:320,1,120,4|8,3:0|1:0,0:0:0:0:
487,266,120900,5,2,1:0:0:0:
433,158,121268,2,0,L|361:176,1,60,8|2,1:0|0:0,0:0:0:0:
360,198,121636,2,0,L|230:184,1,120,4|8,1:3|1:0,0:0:0:0:
138,248,122372,5,2,1:0:0:0:
98,134,122740,2,0,L|178:151,2,60,8|2|4,1:0|0:0|1:3,0:0:0:0:
202,73,123477,1,10,1:0:0:0:
240,185,123845,5,2,1:0:0:0:
346,130,124213,2,0,L|460:157,1,60,8|8,1:0|1:0,0:0:0:0:
425,122,124581,2,0,L|450:275,1,120,8|8,3:0|1:0,0:0:0:0:
490,351,125317,5,2,1:0:0:0:
370,363,125685,2,0,L|276:350,1,60,8|8,1:0|1:0,0:0:0:0:
296,328,126053,2,0,L|151:354,1,120,8|8,3:0|1:0,0:0:0:0:
58,342,126789,6,0,B|67:307|67:307|42:262|42:262|56:218,1,120,2|8,1:0|1:0,0:0:0:0:
79,218,127342,1,8,1:0:0:0:
107,209,127526,2,0,L|81:81,1,120,8|8,3:0|1:0,0:0:0:0:
179,20,128262,1,2,1:0:0:0:
179,20,128446,1,0,1:0:0:0:
179,20,128630,2,0,L|246:32,1,60,8|8,1:0|1:0,0:0:0:0:
266,19,128998,2,0,B|298:71|298:71|257:138,1,120,4|8,3:0|1:0,0:0:0:0:
325,225,129734,6,0,P|401:225|440:275,1,120,6|8,1:0|1:0,0:0:0:0:
368,355,130470,1,0,1:0:0:0:
368,355,130655,1,0,0:0:0:0:
368,355,130839,1,8,1:0:0:0:
260,301,131207,2,0,L|131:314,1,120,2|8,1:0|1:0,0:0:0:0:
116,295,131759,1,2,0:0:0:0:
91,277,131943,2,0,L|112:210,1,60,0|4,1:0|1:3,0:0:0:0:
101,190,132311,1,8,1:0:0:0:
30,92,132679,5,6,1:0:0:0:
129,25,133047,1,8,1:0:0:0:
200,121,133415,1,0,1:0:0:0:
200,121,133599,1,0,0:0:0:0:
200,121,133783,1,8,1:0:0:0:
296,50,134151,2,0,L|365:66,1,60,0|0,1:0|1:0,0:0:0:0:
368,90,134520,2,0,L|437:106,1,60,8|8,1:0|1:0,0:0:0:0:
447,125,134888,1,2,1:0:0:0:
374,220,135256,1,8,1:0:0:0:
256,192,135624,5,0,1:0:0:0:
