osu file format v14

[General]
AudioFilename: audio.mp3
AudioLeadIn: 0
PreviewTime: 49944
Countdown: 0
SampleSet: Soft
StackLeniency: 0.7
Mode: 0
LetterboxInBreaks: 0
WidescreenStoryboard: 1

[Editor]
Bookmarks: 26478,38257,50036,61815,73594,79484,91263,103042,114821,126600,129545
DistanceSpacing: 0.8
BeatDivisor: 4
GridSize: 8
TimelineZoom: 2

[Metadata]
Title:Hide And Seek
TitleUnicode:Hide And Seek
Artist:James Landino
ArtistUnicode:James Landino
Creator:Mirash
Version:Extra
Source:
Tags:rlc noffy
BeatmapID:2036902
BeatmapSetID:972932

[Difficulty]
HPDrainRate:7
CircleSize:4
OverallDifficulty:8
ApproachRate:9
SliderMultiplier:2
SliderTickRate:1

[Events]
//Background and Video events
0,0,"vanlov.jpg",0,0
//Break Periods
//Storyboard Layer 0 (Background)
//Storyboard Layer 1 (Fail)
//Storyboard Layer 2 (Pass)
//Storyboard Layer 3 (Foreground)
//Storyboard Sound Samples

[TimingPoints]
165,368.098159509202,4,2,1,60,1,0
1264,-100,4,2,1,40,0,0
1816,-100,4,2,1,50,0,0
14699,-133.333333333333,4,2,1,50,0,0
19116,-100,4,2,1,50,0,0
20588,-133.333333333333,4,2,1,50,0,0
23533,-100,4,2,1,50,0,0
50036,-83.3333333333333,4,2,1,60,0,0
61815,-100,4,2,1,60,0,0
73594,-133.333333333333,4,2,1,50,0,0
79116,-333.333333333333,4,2,1,30,0,0
79484,-83.3333333333333,4,2,1,60,0,0
129545,-100,4,2,1,50,0,0

[Colours]
Combo1 : 129,134,121
Combo2 : 36,147,166
Combo3 : 99,173,146
Combo4 : 179,121,15

[HitObjects]
52,96,165,5,0,0:0:0:0:
52,96,717,5,0,0:0:0:0:
52,96,1269,5,2,0:0:0:0:
256,192,1454,12,0,2742,0:0:0:0:
421,80,3110,5,4,1:0:0:0:
352,151,3294,1,0,0:0:0:0:
352,151,3386,1,0,0:0:0:0:
352,151,3478,1,8,1:1:0:0:
314,59,3662,2,0,P|264:78|162:104,1,150,4|8,3:0|1:0,0:0:0:0:
155,83,4030,1,4,3:0:0:0:
77,195,4214,2,0,P|135:191|190:191,1,100,8|0,1:0|0:0,0:0:0:0:
357,203,4582,5,0,1:0:0:0:
342,290,4766,1,4,3:0:0:0:
421,251,4950,1,8,1:0:0:0:
431,334,5134,2,0,P|434:279|445:174,1,150,4|8,3:0|1:0,0:0:0:0:
465,178,5502,1,4,3:0:0:0:
400,71,5686,2,0,P|341:87|286:92,1,100,8|0,1:0|0:0,0:0:0:0:
157,49,6054,6,0,P|166:100|173:214,1,150,0|0,1:0|0:0,0:0:0:0:
155,211,6422,1,8,1:0:0:0:
241,275,6606,1,4,3:0:0:0:
294,185,6790,1,0,0:0:0:0:
294,185,6883,1,8,1:0:0:0:
294,185,6975,1,4,3:0:0:0:
211,112,7159,1,8,1:0:0:0:
94,280,7343,5,0,0:0:0:0:
94,280,7435,1,0,1:0:0:0:
94,280,7527,1,4,1:3:0:0:
180,348,7711,1,4,1:3:0:0:
253,260,7895,1,8,1:0:0:0:
167,186,8079,1,8,1:0:0:0:
172,270,8263,5,2,1:0:0:0:
191,266,8355,1,0,1:0:0:0:
210,262,8447,1,0,0:0:0:0:
229,258,8539,1,2,1:0:0:0:
265,292,8631,5,0,1:0:0:0:
284,288,8723,1,0,0:0:0:0:
303,284,8815,1,2,1:0:0:0:
322,280,8907,1,0,1:0:0:0:
356,304,8999,6,0,P|364:229|371:178,1,100,6|2,1:0|0:0,0:0:0:0:
348,192,9275,1,0,1:0:0:0:
322,187,9367,2,0,P|314:112|307:61,1,100,8|2,1:0|0:0,0:0:0:0:
224,36,9735,1,0,1:0:0:0:
224,36,9827,1,2,1:2:0:0:
224,36,9919,1,0,0:0:0:0:
353,2,10103,1,8,1:0:0:0:
388,134,10287,1,2,0:0:0:0:
247,163,10471,5,2,1:0:0:0:
302,87,10656,1,2,0:0:0:0:
331,191,10840,2,0,P|337:245|350:307,1,100,8|2,1:0|0:0,0:0:0:0:
233,365,11208,1,0,0:0:0:0:
233,365,11300,1,8,1:0:0:0:
233,365,11392,1,4,1:3:0:0:
160,256,11576,2,0,P|169:206|174:157,1,100,8|4,1:0|1:3,0:0:0:0:
26,335,11944,6,0,P|87:311|177:298,1,150,6|0,1:0|1:0,0:0:0:0:
186,260,12312,2,0,P|252:265|288:263,1,100,8|2,1:0|0:0,0:0:0:0:
374,187,12680,1,0,1:0:0:0:
374,187,12772,1,2,1:2:0:0:
374,187,12864,1,0,0:0:0:0:
468,246,13048,2,0,P|452:176|444:116,1,100,8|2,1:0|0:0,0:0:0:0:
256,12,13416,5,0,1:0:0:0:
200,128,13600,1,0,1:0:0:0:
186,52,13784,5,8,1:0:0:0:
272,165,13968,1,8,1:0:0:0:
175,248,14152,1,2,1:0:0:0:
175,248,14244,1,0,1:0:0:0:
175,248,14336,1,0,0:0:0:0:
175,248,14429,1,2,1:0:0:0:
155,278,14521,5,8,1:0:0:0:
105,269,14613,1,0,0:0:0:0:
55,260,14705,1,10,1:0:0:0:
5,251,14797,1,0,0:0:0:0:
1,222,14889,6,0,P|65:195|119:148,2,112.500004291535,4|0|8,1:0|1:0|1:0,0:0:0:0:
133,91,15625,1,0,1:0:0:0:
133,91,15717,1,8,1:0:0:0:
133,91,15809,2,0,P|187:97|229:108,1,75.0000028610231,0|8,0:0|1:0,0:0:0:0:
263,177,16177,1,0,1:0:0:0:
365,78,16361,5,4,1:3:0:0:
404,161,16545,1,4,3:3:0:0:
453,76,16729,2,0,P|446:144|447:236,1,150.000005722046,8|0,1:0|0:0,0:0:0:0:
462,239,17189,1,8,1:0:0:0:
419,336,17373,1,0,1:0:0:0:
406,312,17465,1,8,1:0:0:0:
369,319,17557,1,0,0:0:0:0:
332,326,17649,1,0,0:0:0:0:
295,333,17741,1,0,0:0:0:0:
267,362,17833,6,0,P|275:291|273:182,1,150.000005722046,4|8,1:2|1:0,0:0:0:0:
189,163,18386,1,4,3:0:0:0:
280,71,18570,1,0,0:0:0:0:
280,71,18662,1,8,1:0:0:0:
280,71,18754,2,0,P|319:102|366:123,2,75.0000028610231,4|8|0,3:0|1:0|0:0,0:0:0:0:
127,17,19306,5,4,1:2:0:0:
33,110,19490,1,0,0:0:0:0:
122,198,19674,1,8,1:0:0:0:
122,113,19858,1,2,0:0:0:0:
26,217,20042,5,4,3:0:0:0:
34,240,20134,1,8,1:0:0:0:
42,263,20226,1,0,0:0:0:0:
50,286,20318,1,0,1:0:0:0:
69,301,20410,5,8,1:0:0:0:
61,324,20502,1,0,0:0:0:0:
53,347,20594,1,0,1:0:0:0:
45,370,20686,1,0,0:0:0:0:
81,383,20778,6,0,L|204:369,2,112.500004291535,4|4|2,1:0|1:3|0:0,0:0:0:0:
238,288,21514,1,0,0:0:0:0:
238,288,21606,1,8,1:0:0:0:
238,288,21698,2,0,P|297:302|336:316,1,75.0000028610231,4|8,3:0|1:0,0:0:0:0:
410,247,22067,1,0,0:0:0:0:
284,190,22251,5,4,1:3:0:0:
372,111,22435,1,4,1:3:0:0:
256,90,22619,2,0,P|317:80|423:53,1,150.000005722046,8|0,1:0|0:0,0:0:0:0:
421,41,23079,1,8,1:0:0:0:
500,156,23263,1,0,0:0:0:0:
499,178,23355,1,8,1:0:0:0:
461,174,23447,1,0,0:0:0:0:
423,170,23539,1,0,1:0:0:0:
385,166,23631,1,8,1:0:0:0:
357,144,23723,6,0,P|374:231|383:343,1,200,4|10,1:2|1:0,0:0:0:0:
282,383,24275,1,0,0:0:0:0:
235,284,24459,1,2,1:0:0:0:
235,284,24551,1,8,1:0:0:0:
235,284,24643,1,0,0:0:0:0:
330,232,24827,1,10,1:0:0:0:
320,311,25011,1,0,0:0:0:0:
143,357,25195,5,4,1:2:0:0:
184,213,25379,1,0,0:0:0:0:
205,293,25563,5,8,1:0:0:0:
106,181,25748,1,2,1:1:0:0:
75,262,25932,1,4,3:0:0:0:
75,262,26024,1,8,1:0:0:0:
202,162,26208,1,4,3:0:0:0:
202,162,26300,1,8,1:0:0:0:
251,168,26392,1,0,0:0:0:0:
300,174,26484,1,8,1:0:0:0:
349,181,26576,1,0,1:0:0:0:
373,164,26668,6,0,P|379:230|391:318,1,150,4|0,1:0|1:0,0:0:0:0:
384,332,27036,2,0,P|434:321|503:314,1,100,8|2,1:0|0:0,0:0:0:0:
505,202,27404,1,4,3:0:0:0:
505,202,27496,1,0,1:0:0:0:
505,202,27588,1,0,0:0:0:0:
357,91,27772,2,0,P|284:107|222:114,1,100,8|0,1:0|0:0,0:0:0:0:
146,43,28140,5,4,1:3:0:0:
120,139,28324,1,4,3:0:0:0:
50,61,28508,1,8,1:0:0:0:
17,223,28692,5,2,0:0:0:0:
86,301,28876,1,4,3:0:0:0:
86,301,28968,1,2,1:2:0:0:
86,301,29060,1,0,0:0:0:0:
161,219,29244,1,8,1:0:0:0:
185,223,29336,1,0,0:0:0:0:
209,227,29429,1,2,0:0:0:0:
233,231,29521,1,0,0:0:0:0:
256,207,29613,6,0,P|266:269|284:328,1,100,4|0,1:0|0:0,0:0:0:0:
505,311,29981,1,2,0:0:0:0:
480,315,30073,1,2,0:0:0:0:
455,319,30165,1,0,0:0:0:0:
430,323,30257,1,2,0:0:0:0:
422,360,30349,5,2,0:0:0:0:
402,356,30441,1,0,0:0:0:0:
382,353,30533,1,2,0:0:0:0:
362,350,30625,1,2,0:0:0:0:
328,317,30717,5,2,0:0:0:0:
312,320,30809,1,0,0:0:0:0:
296,322,30901,1,2,0:0:0:0:
280,324,30993,1,0,0:0:0:0:
268,342,31085,5,2,1:0:0:0:
136,289,31269,1,4,3:0:0:0:
145,375,31453,5,8,1:0:0:0:
268,257,31637,1,2,1:0:0:0:
192,212,31821,5,2,1:0:0:0:
192,212,31913,1,0,0:0:0:0:
354,254,32097,1,0,1:0:0:0:
354,254,32189,1,10,1:0:0:0:
343,205,32281,1,0,0:0:0:0:
332,156,32373,1,2,1:0:0:0:
321,107,32465,1,0,0:0:0:0:
336,82,32557,6,0,P|400:98|483:130,1,150,4|0,1:0|1:0,0:0:0:0:
498,129,32925,2,0,P|475:200|468:239,1,100,8|2,1:0|0:0,0:0:0:0:
354,254,33294,1,4,3:0:0:0:
354,254,33386,1,0,1:0:0:0:
354,254,33478,1,0,0:0:0:0:
327,139,33662,1,8,1:0:0:0:
184,246,33846,5,0,0:0:0:0:
184,246,33938,1,0,0:0:0:0:
184,246,34030,2,0,P|121:222|74:193,1,100,4|4,1:3|3:0,0:0:0:0:
38,355,34398,2,0,P|122:336|251:327,1,200,8|4,1:0|3:0,0:0:0:0:
235,326,34858,1,0,1:0:0:0:
235,326,34950,1,0,0:0:0:0:
417,330,35134,1,8,1:0:0:0:
392,332,35226,1,0,0:0:0:0:
367,334,35318,1,0,1:0:0:0:
342,337,35410,1,0,1:0:0:0:
325,360,35502,6,0,P|319:272|301:146,1,200,6|8,1:0|1:0,0:0:0:0:
411,211,36054,1,2,0:0:0:0:
471,107,36238,1,4,3:0:0:0:
471,107,36330,1,8,1:0:0:0:
471,107,36422,2,0,P|410:105|362:107,1,100,4|8,3:0|1:0,0:0:0:0:
237,205,36790,1,0,0:0:0:0:
142,78,36975,5,4,1:2:0:0:
340,21,37159,1,4,1:3:0:0:
287,72,37343,5,8,1:0:0:0:
183,15,37527,1,8,1:0:0:0:
90,139,37711,5,4,3:0:0:0:
90,139,37803,1,0,1:0:0:0:
235,222,37987,1,0,0:0:0:0:
235,222,38079,1,4,1:3:0:0:
284,213,38171,1,4,1:3:0:0:
333,204,38263,1,4,1:3:0:0:
382,195,38355,1,4,3:0:0:0:
400,168,38447,6,0,P|408:254|431:370,1,200,6|2,1:0|1:0,0:0:0:0:
315,370,38999,1,2,0:1:0:0:
215,314,39183,1,0,1:0:0:0:
215,314,39275,1,2,3:0:0:0:
215,314,39367,1,0,0:0:0:0:
222,195,39551,2,0,P|142:219|80:223,1,100,2|2,1:3|0:1,0:0:0:0:
90,73,39919,5,4,1:3:0:0:
187,94,40103,1,4,3:0:0:0:
282,65,40287,2,0,P|352:82|413:78,1,100,2|0,1:0|0:0,0:0:0:0:
501,154,40656,1,2,0:1:0:0:
477,160,40748,1,0,1:0:0:0:
454,167,40840,1,2,3:0:0:0:
431,174,40932,1,0,0:0:0:0:
407,180,41024,1,0,1:0:0:0:
241,222,41208,2,0,L|250:179,2,33.3333333333333,2|2|0,1:3|1:1|0:0,0:0:0:0:
223,234,41392,6,0,P|282:253|395:320,2,150,4|2|2,1:2|1:0|0:1,0:0:0:0:
66,329,42128,1,0,1:0:0:0:
66,329,42220,1,2,3:0:0:0:
66,329,42312,1,0,0:0:0:0:
22,192,42496,2,0,P|80:214|143:220,1,100,2|2,1:0|3:0,0:0:0:0:
298,111,42864,5,4,1:3:0:0:
187,141,43048,1,4,3:0:0:0:
176,288,43232,5,0,1:0:0:0:
287,258,43416,1,2,3:0:0:0:
221,216,43600,5,2,1:0:0:0:
221,216,43692,1,2,3:0:0:0:
342,335,43876,1,2,3:0:0:0:
342,335,43968,1,2,1:0:0:0:
391,325,44060,1,0,1:0:0:0:
440,315,44152,1,2,1:0:0:0:
489,305,44244,1,0,0:0:0:0:
496,281,44336,6,0,P|462:174|459:154,1,100,4|6,1:0|3:0,0:0:0:0:
437,192,44613,1,8,1:0:0:0:
437,192,44705,1,0,0:0:0:0:
314,204,44889,1,8,1:0:0:0:
314,204,44981,1,0,0:0:0:0:
314,204,45073,1,0,1:0:0:0:
314,204,45165,1,2,3:0:0:0:
314,204,45257,1,4,0:3:0:0:
378,40,45441,2,0,P|369:108|366:161,1,100,8|4,1:0|3:0,0:0:0:0:
254,278,45809,5,4,1:2:0:0:
77,223,45993,1,6,3:0:0:0:
96,295,46177,5,0,0:0:0:0:
231,206,46361,1,8,1:0:0:0:
313,342,46545,5,0,1:0:0:0:
313,342,46637,1,2,3:0:0:0:
313,342,46729,1,4,0:3:0:0:
313,342,46821,1,2,3:0:0:0:
313,342,46913,1,8,1:0:0:0:
370,288,47097,1,4,3:0:0:0:
488,366,47281,6,0,P|434:348|395:295,1,100,4|0,3:0|0:0,0:0:0:0:
210,211,47649,2,0,P|252:173|317:165,1,100,4|2,3:0|0:0,0:0:0:0:
483,47,48017,1,4,3:0:0:0:
483,47,48109,1,4,3:0:0:0:
483,47,48202,1,0,0:0:0:0:
429,216,48386,2,0,P|419:130|408:76,1,100,4|2,3:0|0:0,0:0:0:0:
257,5,48754,5,4,1:0:0:0:
85,29,48938,1,4,1:3:0:0:
109,201,49122,1,8,1:0:0:0:
281,177,49306,1,8,1:0:0:0:
188,87,49490,5,4,3:0:0:0:
188,87,49582,1,8,1:0:0:0:
149,300,49766,1,0,1:0:0:0:
149,300,49858,1,2,1:3:0:0:
198,293,49950,1,4,3:0:0:0:
247,287,50042,1,0,1:0:0:0:
296,281,50134,1,0,3:0:0:0:
314,252,50226,6,0,P|416:280|454:314,1,119.999996337891,4|0,1:0|0:0,0:0:0:0:
442,324,50502,2,0,P|445:231|453:162,2,119.999996337891,12|8|0,1:3|1:0|0:0,0:0:0:0:
442,324,50962,1,12,3:0:0:0:
442,324,51054,1,8,1:0:0:0:
442,324,51146,1,0,1:0:0:0:
401,73,51330,5,8,1:0:0:0:
401,73,51514,1,2,3:0:0:0:
324,206,51698,5,12,1:3:0:0:
163,177,51883,1,4,3:0:0:0:
254,62,52067,1,8,1:0:0:0:
250,153,52251,5,8,3:0:0:0:
168,91,52435,1,4,3:0:0:0:
168,91,52527,1,8,1:0:0:0:
168,91,52619,1,2,1:3:0:0:
89,148,52803,2,0,P|81:84|68:23,1,119.999996337891,8|2,1:0|3:0,0:0:0:0:
27,261,53171,5,4,1:2:0:0:
161,221,53355,1,12,1:3:0:0:
161,221,53447,1,0,0:0:0:0:
161,221,53539,2,0,P|194:290|209:338,1,119.999996337891,8|0,1:0|0:0,0:0:0:0:
260,230,53907,1,2,3:0:0:0:
260,230,53999,1,8,1:0:0:0:
260,230,54091,1,4,3:0:0:0:
283,378,54275,2,0,P|302:321|329:267,1,119.999996337891,8|2,1:0|3:0,0:0:0:0:
476,236,54643,5,4,1:3:0:0:
319,160,54827,1,4,1:3:0:0:
414,283,55011,5,8,1:0:0:0:
380,112,55195,1,8,1:0:0:0:
339,262,55379,5,0,0:0:0:0:
339,262,55471,1,8,1:3:0:0:
339,262,55563,2,0,P|323:223|297:187,1,59.9999981689454,8|0,1:0|0:0,0:0:0:0:
455,133,55748,1,8,1:0:0:0:
455,133,55840,1,0,0:0:0:0:
455,133,55932,2,0,P|471:172|497:208,1,59.9999981689454,8|4,1:3|3:0,0:0:0:0:
372,56,56116,6,0,P|301:75|238:76,1,119.999996337891,4|0,1:0|0:0,0:0:0:0:
240,48,56391,2,0,P|233:113|229:189,2,119.999996337891,12|8|0,1:3|1:0|0:0,0:0:0:0:
240,48,56852,1,4,3:0:0:0:
240,48,56944,1,8,1:0:0:0:
240,48,57036,1,8,1:3:0:0:
304,203,57220,1,8,1:0:0:0:
152,186,57404,1,2,3:0:0:0:
331,288,57588,5,4,1:3:0:0:
440,171,57772,1,4,3:0:0:0:
298,146,57956,1,8,1:0:0:0:
362,207,58140,1,8,3:0:0:0:
390,51,58324,5,4,3:0:0:0:
390,51,58416,1,8,1:0:0:0:
390,51,58508,1,0,1:0:0:0:
204,30,58692,2,0,P|227:142|229:180,1,119.999996337891,8|2,1:0|3:0,0:0:0:0:
40,336,59060,5,4,1:2:0:0:
91,224,59244,1,12,1:3:0:0:
91,224,59336,1,0,0:0:0:0:
91,224,59429,2,0,P|157:244|224:268,1,119.999996337891,8|8,1:0|1:0,0:0:0:0:
307,226,59797,1,2,3:0:0:0:
307,226,59889,1,8,1:0:0:0:
307,226,59981,1,4,3:0:0:0:
183,359,60165,2,0,P|239:339|297:322,1,119.999996337891,8|2,1:0|3:0,0:0:0:0:
390,250,60533,5,4,1:3:0:0:
499,370,60717,1,4,1:3:0:0:
381,379,60901,5,8,1:0:0:0:
496,192,61085,1,8,1:0:0:0:
356,144,61269,5,0,0:0:0:0:
356,144,61361,1,8,1:3:0:0:
356,144,61453,2,0,P|345:112|339:73,1,59.9999981689454,8|0,1:0|0:0,0:0:0:0:
122,139,61637,1,8,1:0:0:0:
117,168,61729,1,4,3:0:0:0:
112,197,61821,1,4,1:2:0:0:
107,226,61913,1,0,0:0:0:0:
89,251,62005,6,0,P|60:220|38:207,1,50,4|0,1:0|0:0,0:0:0:0:
37,143,62189,1,0,0:0:0:0:
37,143,62281,1,2,3:0:0:0:
37,143,62373,2,0,P|68:114|81:92,1,50,0|0,0:0|0:0,0:0:0:0:
149,115,62557,2,0,P|178:146|200:159,1,50,2|0,3:0|0:0,0:0:0:0:
255,288,62741,5,2,3:0:0:0:
255,288,62833,1,4,3:0:0:0:
255,288,62925,2,0,P|274:272|290:252,1,50,0|2,1:0|3:0,0:0:0:0:
367,231,63109,2,0,P|382:250|402:266,1,50,0|0,0:0|0:0,0:0:0:0:
396,345,63294,2,0,P|376:360|360:380,1,50,2|0,3:0|0:0,0:0:0:0:
173,361,63478,5,4,1:3:0:0:
173,361,63570,1,8,1:0:0:0:
173,361,63662,1,4,3:0:0:0:
314,307,63846,1,0,0:0:0:0:
192,208,64030,1,8,1:3:0:0:
226,289,64214,5,2,3:0:0:0:
226,289,64306,1,4,3:0:0:0:
226,289,64398,1,0,1:0:0:0:
88,208,64582,1,8,1:0:0:0:
222,110,64766,1,8,1:0:0:0:
423,250,64950,6,0,P|438:231|458:215,1,50,4|0,1:0|0:0,0:0:0:0:
475,143,65134,1,0,0:0:0:0:
475,143,65226,1,2,3:0:0:0:
474,142,65318,2,0,P|455:127|439:107,1,50,0|0,0:0|0:0,0:0:0:0:
362,115,65502,2,0,P|347:134|327:150,1,50,2|0,3:0|0:0,0:0:0:0:
257,288,65686,5,2,3:0:0:0:
257,288,65778,1,4,3:0:0:0:
257,287,65870,2,0,P|237:272|221:252,1,50,0|2,1:0|3:0,0:0:0:0:
144,230,66054,2,0,P|129:250|109:266,1,50,0|0,0:0|0:0,0:0:0:0:
116,345,66239,2,0,P|135:360|151:380,1,50,2|0,3:0|0:0,0:0:0:0:
339,361,66423,5,4,1:3:0:0:
339,361,66515,1,8,1:0:0:0:
339,361,66607,1,4,3:0:0:0:
426,245,66790,2,0,P|414:282|415:319,1,50,8|0,1:0|0:0,0:0:0:0:
272,159,66975,2,0,P|284:196|283:233,1,50,8|0,1:3|0:0,0:0:0:0:
439,144,67159,1,4,3:0:0:0:
439,144,67251,1,0,1:0:0:0:
432,119,67343,1,8,1:0:0:0:
425,94,67435,1,0,0:0:0:0:
431,51,67527,5,8,1:0:0:0:
382,61,67619,1,0,3:0:0:0:
332,66,67711,1,0,1:0:0:0:
282,64,67803,1,0,1:0:0:0:
240,28,67895,5,2,1:0:0:0:
240,28,67987,2,0,P|171:48|118:52,1,100,2|0,1:0|0:0,0:0:0:0:
125,37,68263,2,0,P|145:106|149:159,1,100,8|2,1:0|0:0,0:0:0:0:
49,236,68631,1,4,1:3:0:0:
49,236,68723,1,8,1:0:0:0:
49,236,68815,1,0,1:0:0:0:
145,337,68999,2,0,P|152:287|168:240,1,100,8|0,1:0|0:0,0:0:0:0:
327,211,69367,5,2,1:0:0:0:
327,211,69459,1,2,1:0:0:0:
327,211,69551,1,0,0:0:0:0:
452,247,69735,1,8,1:0:0:0:
416,372,69919,1,2,0:0:0:0:
291,336,70103,1,4,1:3:0:0:
284,311,70195,1,10,1:0:0:0:
277,286,70287,1,0,1:0:0:0:
270,261,70379,1,0,0:0:0:0:
297,231,70471,6,0,P|304:181|320:134,1,100,10|0,1:0|0:0,0:0:0:0:
98,37,70840,5,2,1:0:0:0:
98,37,70932,2,0,P|151:44|210:46,1,100,0|0,0:0|0:0,0:0:0:0:
218,35,71208,2,0,P|211:88|209:147,1,100,8|8,1:0|1:0,0:0:0:0:
70,214,71576,1,8,3:0:0:0:
70,214,71668,1,4,3:0:0:0:
70,214,71760,1,0,0:0:0:0:
184,328,71944,2,0,P|181:278|174:228,1,100,8|0,1:0|0:0,0:0:0:0:
296,185,72312,5,2,1:0:0:0:
481,270,72496,1,0,1:0:0:0:
459,199,72680,5,8,1:0:0:0:
320,256,72864,1,8,1:0:0:0:
381,123,73048,5,0,3:0:0:0:
381,123,73140,1,8,1:0:0:0:
403,343,73324,1,0,1:0:0:0:
403,343,73416,1,8,1:0:0:0:
353,335,73508,1,4,3:0:0:0:
303,328,73600,1,4,3:0:0:0:
253,321,73692,1,4,3:0:0:0:
219,288,73784,6,0,P|136:307|45:337,1,150.000005722046,4|8,1:0|0:0,0:0:0:0:
24,260,74336,1,2,0:0:0:0:
61,178,74521,1,0,0:0:0:0:
61,178,74613,1,8,0:0:0:0:
61,178,74705,1,0,1:0:0:0:
150,175,74889,2,0,P|164:136|177:89,1,75.0000028610231,8|0,0:0|0:0,0:0:0:0:
348,31,75257,5,0,1:0:0:0:
256,76,75441,1,0,1:0:0:0:
198,9,75625,2,0,P|149:26|96:35,1,75.0000028610231,8|2,0:0|0:0,0:0:0:0:
20,18,75993,1,0,0:0:0:0:
20,18,76085,1,8,0:0:0:0:
20,18,76177,1,0,1:0:0:0:
59,120,76361,2,0,P|76:169|85:222,1,75.0000028610231,8|0,0:0|0:0,0:0:0:0:
41,298,76729,6,0,P|120:279|216:273,1,150.000005722046,0|8,1:0|0:0,0:0:0:0:
240,202,77281,1,2,0:0:0:0:
331,230,77465,1,0,0:0:0:0:
331,230,77557,1,8,0:0:0:0:
331,230,77649,1,0,1:0:0:0:
315,320,77833,2,0,P|271:331|230:351,1,75.0000028610231,8|0,0:0|0:0,0:0:0:0:
490,280,78202,5,0,1:0:0:0:
401,341,78386,1,0,1:0:0:0:
254,215,78570,5,12,0:0:0:0:
343,154,78754,1,0,1:0:0:0:
492,199,79306,6,0,L|453:185,1,29.9999990844727,2|0,0:0|0:0,0:0:0:0:
413,246,79674,6,0,P|329:241|295:89,1,239.999992675781,4|8,1:0|1:0,0:0:0:0:
280,97,80134,1,0,0:0:0:0:
277,85,80226,1,0,0:0:0:0:
275,73,80318,1,0,0:0:0:0:
274,52,80410,5,4,3:0:0:0:
244,58,80502,1,8,1:0:0:0:
214,64,80594,1,0,0:0:0:0:
184,70,80686,1,0,0:0:0:0:
154,77,80778,1,8,1:0:0:0:
124,84,80870,1,0,0:0:0:0:
95,93,80962,1,2,0:0:0:0:
66,102,81054,1,0,0:0:0:0:
40,92,81146,5,4,1:2:0:0:
0,173,81330,1,2,0:0:0:0:
140,253,81514,5,8,1:0:0:0:
100,172,81698,1,8,3:0:0:0:
29,329,81883,5,0,1:0:0:0:
29,329,82067,1,0,1:0:0:0:
58,333,82159,1,4,3:0:0:0:
87,337,82251,1,8,1:0:0:0:
116,341,82343,1,0,0:0:0:0:
145,345,82435,1,0,1:0:0:0:
174,349,82527,1,0,1:0:0:0:
203,355,82619,2,0,P|270:336|451:318,1,239.999992675781,0|8,1:0|1:0,0:0:0:0:
492,234,83171,5,2,0:0:0:0:
384,193,83355,1,4,3:0:0:0:
460,114,83539,1,0,1:0:0:0:
460,114,83631,1,0,0:0:0:0:
460,114,83723,1,8,1:0:0:0:
460,114,83815,1,0,0:0:0:0:
460,114,83907,1,2,0:0:0:0:
460,114,83999,1,2,0:0:0:0:
460,114,84091,1,4,1:3:0:0:
321,63,84275,1,4,1:3:0:0:
396,162,84459,1,8,1:0:0:0:
384,14,84643,1,8,1:0:0:0:
261,165,84827,5,4,3:0:0:0:
231,159,84919,1,0,0:0:0:0:
201,154,85011,1,8,1:3:0:0:
171,149,85103,1,0,1:0:0:0:
150,127,85195,5,8,1:0:0:0:
114,134,85287,1,0,0:0:0:0:
78,140,85379,1,8,1:3:0:0:
42,146,85471,1,0,0:0:0:0:
17,180,85563,6,0,P|115:241|64:372,1,239.999992675781,4|2,1:0|1:2,0:0:0:0:
65,342,86024,2,0,P|19:329|22:236,2,119.999996337891,8|8|2,0:0|0:0|1:2,0:0:0:0:
93,350,86484,1,8,0:0:0:0:
122,355,86576,1,2,0:0:0:0:
151,361,86668,1,0,0:0:0:0:
211,262,86852,1,8,0:0:0:0:
313,365,87036,5,4,1:2:0:0:
341,191,87220,1,8,0:0:0:0:
464,297,87404,1,8,1:0:0:0:
367,281,87588,1,2,0:0:0:0:
367,281,87680,1,2,0:0:0:0:
367,281,87772,1,4,3:0:0:0:
374,251,87864,1,8,1:0:0:0:
381,221,87956,1,0,1:0:0:0:
388,192,88048,1,0,0:0:0:0:
397,151,88140,1,8,1:0:0:0:
390,109,88232,1,2,0:0:0:0:
361,78,88324,1,2,0:0:0:0:
322,62,88416,1,2,0:0:0:0:
287,86,88508,6,0,P|224:82|144:65,1,119.999996337891,4|2,1:2|0:0,0:0:0:0:
168,71,88784,1,2,0:0:0:0:
168,71,88876,1,8,1:0:0:0:
68,177,89060,1,2,0:0:0:0:
68,177,89152,1,2,0:0:0:0:
68,177,89244,2,0,P|117:176|157:167,1,59.9999981689454,4|8,3:0|1:0,0:0:0:0:
272,226,89429,1,8,1:3:0:0:
272,226,89521,1,2,0:0:0:0:
272,226,89613,1,8,1:0:0:0:
272,226,89705,1,2,0:0:0:0:
272,226,89797,2,0,P|223:225|183:216,1,59.9999981689454,8|2,0:3|0:0,0:0:0:0:
136,222,89981,5,4,1:2:0:0:
100,293,90103,1,2,1:2:0:0:
81,368,90226,1,4,1:2:0:0:
157,374,90349,5,2,1:2:0:0:
231,351,90471,1,4,1:2:0:0:
184,288,90594,1,2,1:2:0:0:
103,319,90717,5,4,1:3:0:0:
108,317,90809,1,2,0:0:0:0:
113,316,90901,1,4,3:0:0:0:
118,315,90993,1,2,0:0:0:0:
149,282,91085,5,8,1:0:0:0:
168,290,91177,1,2,0:0:0:0:
191,293,91269,1,2,0:0:0:0:
213,298,91361,1,2,0:0:0:0:
253,275,91453,6,0,P|279:303|296:336,3,59.9999981689454,4|0|2|0,1:0|0:0|0:3|0:0,0:0:0:0:
304,217,91821,1,8,1:0:0:0:
339,222,91913,1,2,0:3:0:0:
374,224,92005,1,0,0:0:0:0:
409,219,92097,1,0,0:0:0:0:
439,199,92189,1,4,3:0:0:0:
451,165,92281,1,8,1:0:0:0:
447,129,92373,1,2,1:3:0:0:
426,99,92465,1,0,0:0:0:0:
396,77,92557,5,8,1:0:0:0:
342,87,92649,1,0,0:0:0:0:
288,94,92741,1,2,0:3:0:0:
234,95,92833,1,0,0:0:0:0:
205,73,92925,6,0,P|162:85|126:99,1,59.9999981689454,4|0,1:3|0:0,0:0:0:0:
94,183,93109,2,0,P|137:195|173:209,1,59.9999981689454,6|0,3:0|0:0,0:0:0:0:
211,276,93294,1,8,1:0:0:0:
234,271,93386,1,2,0:3:0:0:
257,266,93478,1,2,0:0:0:0:
280,261,93570,1,0,0:0:0:0:
318,281,93662,5,4,3:0:0:0:
333,248,93754,1,8,1:0:0:0:
338,212,93846,1,2,1:3:0:0:
334,176,93938,1,0,0:0:0:0:
324,141,94030,1,8,1:0:0:0:
306,109,94122,1,0,0:0:0:0:
299,73,94214,1,2,0:3:0:0:
303,37,94306,1,0,0:0:0:0:
343,12,94398,5,4,1:3:0:0:
386,33,94490,1,2,0:3:0:0:
409,74,94582,1,0,0:0:0:0:
412,121,94674,1,2,0:3:0:0:
388,163,94766,1,8,1:0:0:0:
344,183,94858,1,0,0:0:0:0:
296,181,94950,1,2,0:3:0:0:
250,165,95042,1,0,0:0:0:0:
219,113,95134,5,4,3:0:0:0:
162,93,95226,1,8,1:0:0:0:
110,123,95318,1,2,1:3:0:0:
95,181,95410,1,0,0:0:0:0:
121,234,95502,1,8,1:0:0:0:
163,276,95594,1,0,0:0:0:0:
170,335,95686,1,2,0:3:0:0:
124,373,95778,1,0,0:0:0:0:
67,351,95870,6,0,L|29:359,6,29.9999990844727,4|2|0|2|4|2|0,1:3|0:0|0:0|0:0|1:3|0:0|0:0,0:0:0:0:
109,280,96238,2,0,L|121:243,6,29.9999990844727,8|2|0|2|8|2|0,1:0|0:0|0:0|0:0|1:0|0:0|1:0,0:0:0:0:
149,351,96606,2,0,P|191:340|273:328,1,119.999996337891,4|6,1:2|3:0,0:0:0:0:
289,335,96883,1,4,3:0:0:0:
312,340,96975,1,8,1:0:0:0:
335,345,97067,1,2,0:3:0:0:
358,350,97159,1,0,1:0:0:0:
381,355,97251,1,8,1:0:0:0:
403,373,97343,6,0,P|420:337|444:312,2,59.9999981689454,4|0|0,1:0|0:0|1:0,0:0:0:0:
367,272,97619,1,8,1:0:0:0:
367,272,97711,2,0,P|350:236|326:211,1,59.9999981689454,0|8,0:0|1:0,0:0:0:0:
405,175,97895,1,4,3:0:0:0:
405,175,97987,1,2,0:0:0:0:
411,145,98079,5,0,1:0:0:0:
417,115,98171,1,8,1:0:0:0:
423,85,98263,1,4,3:0:0:0:
430,55,98355,1,0,1:0:0:0:
397,19,98447,5,8,1:0:0:0:
351,33,98539,1,0,0:0:0:0:
305,48,98631,1,0,1:0:0:0:
259,63,98723,1,8,1:0:0:0:
215,43,98815,6,0,P|174:65|141:74,1,59.9999981689454,4|0,1:2|0:0,0:0:0:0:
108,150,98999,2,0,P|149:172|182:181,1,59.9999981689454,4|0,1:3|1:0,0:0:0:0:
258,149,99183,1,8,1:0:0:0:
265,202,99275,1,0,0:0:0:0:
272,255,99367,1,4,1:3:0:0:
279,308,99459,1,8,1:0:0:0:
286,361,99551,1,4,1:2:0:0:
16,253,99735,5,0,0:0:0:0:
22,223,99827,1,0,1:0:0:0:
10,195,99919,5,8,1:0:0:0:
62,208,100011,1,0,0:0:0:0:
114,221,100103,1,0,1:0:0:0:
166,234,100195,1,8,1:0:0:0:
218,247,100287,5,4,1:0:0:0:
277,206,100410,1,4,1:2:0:0:
341,173,100533,1,2,1:2:0:0:
353,244,100656,5,8,1:3:0:0:
346,315,100778,1,2,1:3:0:0:
277,292,100901,1,8,1:0:0:0:
226,240,101024,5,0,1:0:0:0:
294,217,101146,1,4,1:2:0:0:
352,174,101269,1,2,1:2:0:0:
361,245,101392,5,8,1:3:0:0:
365,316,101514,1,0,1:0:0:0:
293,303,101637,1,8,1:0:0:0:
213,317,101760,6,0,P|201:328|173:371,1,59.9999981689454,4|0,1:0|0:0,0:0:0:0:
59,339,101944,2,0,P|48:327|5:299,1,59.9999981689454,4|0,1:3|0:0,0:0:0:0:
37,185,102128,2,0,P|49:174|77:131,1,59.9999981689454,8|0,1:0|0:0,0:0:0:0:
191,163,102312,2,0,P|202:175|245:203,1,59.9999981689454,8|0,1:0|1:0,0:0:0:0:
122,252,102496,5,8,1:0:0:0:
122,252,102588,1,0,0:0:0:0:
141,68,102772,1,4,3:0:0:0:
141,68,102864,1,8,1:0:0:0:
194,76,102956,1,4,1:3:0:0:
247,84,103048,1,12,3:0:0:0:
300,93,103140,1,0,0:0:0:0:
328,76,103232,6,0,P|328:149|339:210,1,119.999996337891,4|0,1:0|0:0,0:0:0:0:
365,207,103508,2,0,P|280:237|226:269,2,119.999996337891,12|8|0,1:3|1:0|0:0,0:0:0:0:
365,207,103968,1,12,3:0:0:0:
365,207,104060,1,8,1:0:0:0:
365,207,104152,1,0,1:0:0:0:
508,272,104336,5,8,1:0:0:0:
508,272,104520,1,2,3:0:0:0:
407,357,104705,5,12,1:3:0:0:
241,320,104889,1,4,3:0:0:0:
346,212,105073,1,8,1:0:0:0:
336,299,105257,1,8,3:0:0:0:
203,242,105441,1,4,3:0:0:0:
173,248,105533,1,8,1:0:0:0:
143,254,105625,1,2,1:3:0:0:
113,261,105717,1,0,0:0:0:0:
84,268,105809,1,8,1:0:0:0:
9,183,105993,5,2,3:0:0:0:
9,183,106085,1,0,0:0:0:0:
9,183,106177,2,0,P|74:187|141:186,1,119.999996337891,4|12,1:2|1:3,0:0:0:0:
141,159,106453,2,0,P|162:172|204:193,1,59.9999981689454,0|8,0:0|1:0,0:0:0:0:
241,251,106637,2,0,P|262:238|304:217,1,59.9999981689454,8|0,3:0|0:0,0:0:0:0:
338,161,106821,1,0,1:0:0:0:
338,161,106913,1,2,3:0:0:0:
338,161,107005,1,8,1:0:0:0:
338,161,107097,1,4,3:0:0:0:
495,213,107281,2,0,P|405:226|350:242,1,119.999996337891,8|2,1:0|3:0,0:0:0:0:
200,353,107649,5,12,1:3:0:0:
65,322,107833,1,4,1:3:0:0:
158,206,108017,5,8,1:0:0:0:
293,237,108201,1,8,1:0:0:0:
186,280,108386,5,0,0:0:0:0:
186,280,108478,1,8,1:3:0:0:
266,122,108662,1,0,0:0:0:0:
266,122,108754,1,8,1:0:0:0:
218,125,108846,1,0,0:0:0:0:
170,128,108938,1,8,1:3:0:0:
122,131,109030,1,4,3:0:0:0:
96,120,109122,6,0,P|111:68|181:37,1,119.999996337891,4|0,1:0|0:0,0:0:0:0:
185,11,109398,2,0,L|334:33,2,119.999996337891,12|8|0,1:3|1:0|0:0,0:0:0:0:
185,11,109858,1,4,3:0:0:0:
185,11,109950,1,8,1:0:0:0:
185,11,110042,1,0,1:0:0:0:
237,182,110226,1,8,1:0:0:0:
301,108,110410,1,2,3:0:0:0:
333,248,110594,5,12,1:3:0:0:
278,352,110778,1,4,3:0:0:0:
197,270,110962,1,8,1:0:0:0:
252,166,111146,1,8,3:0:0:0:
364,329,111330,5,4,3:0:0:0:
364,329,111422,1,8,1:0:0:0:
364,329,111514,1,2,1:3:0:0:
177,189,111698,1,8,1:0:0:0:
134,383,111883,5,2,3:0:0:0:
134,383,111975,1,0,0:0:0:0:
134,383,112067,2,0,P|121:320|103:262,1,119.999996337891,4|12,1:2|1:3,0:0:0:0:
81,260,112343,2,0,P|86:226|93:194,1,59.9999981689454,0|8,0:0|1:0,0:0:0:0:
154,153,112527,2,0,P|149:119|142:87,1,59.9999981689454,8|0,3:0|0:0,0:0:0:0:
83,46,112711,1,0,1:0:0:0:
83,46,112803,1,2,3:0:0:0:
83,46,112895,1,8,1:0:0:0:
83,46,112987,1,4,3:0:0:0:
226,8,113171,2,0,P|292:39|354:48,1,119.999996337891,8|2,1:0|3:0,0:0:0:0:
490,131,113539,5,4,1:3:0:0:
394,253,113723,1,4,1:3:0:0:
272,157,113907,1,8,1:0:0:0:
368,35,114091,1,8,1:0:0:0:
412,173,114275,5,0,0:0:0:0:
412,173,114367,1,8,1:3:0:0:
202,204,114551,1,0,0:0:0:0:
202,204,114643,1,8,1:0:0:0:
214,250,114735,1,4,3:0:0:0:
226,296,114827,1,4,1:2:0:0:
238,342,114919,1,0,0:0:0:0:
262,355,115011,6,0,P|274:338|307:312,1,59.9999981689454,4|0,1:0|0:0,0:0:0:0:
150,299,115195,1,0,0:0:0:0:
150,299,115287,1,2,3:0:0:0:
150,299,115379,2,0,P|158:317|164:359,1,59.9999981689454,0|0,0:0|0:0,0:0:0:0:
254,230,115563,2,0,P|233:228|194:212,1,59.9999981689454,2|0,3:0|0:0,0:0:0:0:
385,228,115748,5,2,3:0:0:0:
385,228,115840,1,4,3:0:0:0:
385,228,115932,2,0,P|373:211|340:185,1,59.9999981689454,0|2,1:0|3:0,0:0:0:0:
497,172,116116,2,0,P|488:190|482:232,1,59.9999981689454,0|0,0:0|0:0,0:0:0:0:
393,103,116300,2,0,P|413:101|452:85,1,59.9999981689454,2|0,3:0|0:0,0:0:0:0:
293,73,116484,5,4,1:3:0:0:
165,157,116668,1,4,3:0:0:0:
149,20,116852,1,8,1:0:0:0:
149,20,116944,1,0,0:0:0:0:
149,20,117036,1,8,1:3:0:0:
211,77,117220,5,2,3:0:0:0:
36,139,117404,1,0,1:0:0:0:
139,272,117588,1,8,1:0:0:0:
139,272,117680,1,0,0:0:0:0:
139,272,117772,1,8,1:0:0:0:
338,236,117956,6,0,P|326:219|293:193,1,59.9999981689454,4|0,1:0|0:0,0:0:0:0:
450,180,118140,1,0,0:0:0:0:
450,180,118232,1,2,3:0:0:0:
450,180,118324,2,0,P|441:198|435:240,1,59.9999981689454,0|0,0:0|0:0,0:0:0:0:
346,111,118508,2,0,P|366:109|405:93,1,59.9999981689454,2|0,3:0|0:0,0:0:0:0:
179,324,118693,5,2,3:0:0:0:
179,324,118785,1,4,3:0:0:0:
179,324,118877,2,0,P|191:307|224:281,1,59.9999981689454,0|2,1:0|3:0,0:0:0:0:
67,268,119061,2,0,P|75:286|81:328,1,59.9999981689454,0|0,0:0|0:0,0:0:0:0:
171,199,119245,2,0,P|150:197|111:181,1,59.9999981689454,2|0,3:0|0:0,0:0:0:0:
237,17,119429,5,4,1:3:0:0:
311,191,119613,1,4,3:0:0:0:
311,191,119705,1,0,1:0:0:0:
311,191,119797,2,0,P|293:228|288:266,1,59.9999981689454,8|0,1:0|0:0,0:0:0:0:
152,114,119981,2,0,P|170:77|175:39,1,59.9999981689454,8|0,1:3|0:0,0:0:0:0:
359,18,120165,5,4,3:0:0:0:
359,18,120257,1,0,1:0:0:0:
404,33,120349,1,8,1:0:0:0:
449,48,120441,1,0,0:0:0:0:
494,62,120533,1,8,1:0:0:0:
446,237,120717,1,0,1:0:0:0:
245,175,120901,5,2,1:0:0:0:
230,165,120993,2,0,P|184:206|139:267,1,119.999996337891,2|0,1:0|0:0,0:0:0:0:
122,273,121269,2,0,P|180:292|255:300,1,119.999996337891,8|2,1:0|0:0,0:0:0:0:
325,230,121637,1,4,1:3:0:0:
325,230,121729,1,8,1:0:0:0:
325,230,121821,1,0,1:0:0:0:
471,295,122005,2,0,P|419:290|366:349,1,119.999996337891,8|0,1:0|0:0,0:0:0:0:
164,370,122373,5,2,1:0:0:0:
164,370,122465,1,2,1:0:0:0:
164,370,122557,1,0,0:0:0:0:
66,266,122741,1,8,1:0:0:0:
171,180,122925,1,2,0:0:0:0:
269,279,123109,5,4,1:3:0:0:
269,279,123202,1,10,1:0:0:0:
269,279,123294,1,0,1:0:0:0:
164,284,123478,1,10,1:0:0:0:
171,180,123662,1,0,0:0:0:0:
379,189,123846,5,2,1:0:0:0:
406,197,123938,2,0,P|397:128|334:74,1,119.999996337891,0|0,0:0|0:0,0:0:0:0:
341,62,124214,2,0,P|285:104|270:185,1,119.999996337891,8|8,1:0|1:0,0:0:0:0:
146,224,124582,1,8,3:0:0:0:
146,224,124674,1,4,3:0:0:0:
146,224,124766,1,0,0:0:0:0:
59,104,124950,2,0,P|130:122|203:117,1,119.999996337891,8|0,1:0|0:0,0:0:0:0:
264,15,125318,5,2,1:0:0:0:
264,15,125410,1,0,0:0:0:0:
264,15,125502,1,0,0:0:0:0:
88,16,125686,1,8,1:0:0:0:
179,42,125870,1,8,1:0:0:0:
104,212,126054,5,8,3:0:0:0:
104,212,126146,1,4,3:0:0:0:
104,212,126238,1,0,0:0:0:0:
280,213,126422,1,8,1:0:0:0:
189,239,126606,1,0,0:0:0:0:
311,108,126790,5,2,1:0:0:0:
341,140,126883,2,0,P|385:126|470:101,1,119.999996337891,0|0,0:0|1:0,0:0:0:0:
490,104,127159,2,0,P|480:149|459:235,1,119.999996337891,8|8,1:0|1:0,0:0:0:0:
368,273,127527,1,8,3:0:0:0:
368,273,127619,1,4,3:0:0:0:
368,273,127711,1,8,1:0:0:0:
474,340,127895,1,8,1:0:0:0:
361,380,128079,1,0,0:0:0:0:
207,275,128263,5,2,1:0:0:0:
207,275,128355,1,0,0:0:0:0:
207,275,128447,1,0,1:0:0:0:
90,362,128631,1,8,1:0:0:0:
48,221,128815,1,8,1:0:0:0:
176,118,128999,5,0,3:0:0:0:
176,118,129091,1,8,1:0:0:0:
133,261,129275,1,0,1:0:0:0:
133,261,129367,1,8,1:0:0:0:
123,214,129459,1,4,3:0:0:0:
113,167,129551,1,4,3:0:0:0:
103,119,129643,1,4,3:0:0:0:
71,107,129735,6,0,P|108:71|147:15,1,100,6|2,1:0|0:0,0:0:0:0:
163,20,130011,1,0,1:0:0:0:
187,37,130103,2,0,P|240:43|305:42,1,100,8|2,1:0|0:0,0:0:0:0:
385,6,130471,1,0,1:0:0:0:
385,6,130563,1,2,1:2:0:0:
385,6,130656,1,0,0:0:0:0:
430,102,130840,1,8,1:0:0:0:
330,144,131024,1,2,0:0:0:0:
317,312,131208,5,2,1:0:0:0:
421,273,131392,1,2,0:0:0:0:
343,215,131576,1,8,1:0:0:0:
394,363,131760,5,2,0:0:0:0:
452,196,131944,1,0,1:0:0:0:
452,196,132036,1,8,1:0:0:0:
452,196,132128,1,4,1:3:0:0:
261,242,132312,1,8,1:0:0:0:
394,363,132496,1,4,1:3:0:0:
333,137,132680,5,6,1:0:0:0:
262,14,132864,1,2,0:0:0:0:
262,14,132956,1,0,1:0:0:0:
262,14,133048,1,8,1:0:0:0:
141,96,133232,1,2,0:0:0:0:
233,219,133416,1,0,1:0:0:0:
233,219,133508,1,2,1:2:0:0:
233,219,133600,1,0,0:0:0:0:
233,219,133692,1,2,1:2:0:0:
233,219,133784,1,8,1:0:0:0:
246,122,133968,1,2,0:0:0:0:
6,195,134152,5,0,1:0:0:0:
36,314,134336,1,0,1:0:0:0:
193,365,134521,5,8,1:0:0:0:
163,246,134705,1,8,1:0:0:0:
327,214,134889,5,2,1:0:0:0:
327,214,134981,1,0,1:0:0:0:
381,371,135165,1,2,1:0:0:0:
381,371,135257,1,8,1:0:0:0:
417,355,135349,1,0,0:0:0:0:
454,340,135441,1,10,1:0:0:0:
491,325,135533,1,0,0:0:0:0:
501,280,135625,5,0,1:0:0:0:
