osu file format v14

[General]
AudioFilename: audio.mp3
AudioLeadIn: 0
PreviewTime: 49944
Countdown: 0
SampleSet: Soft
StackLeniency: 0.7
Mode: 0
LetterboxInBreaks: 0
WidescreenStoryboard: 1

[Editor]
Bookmarks: 26478,38257,50036,61815,73594,79484,91263,103042,114821,126600,129545
DistanceSpacing: 0.1
BeatDivisor: 4
GridSize: 8
TimelineZoom: 2

[Metadata]
Title:Hide And Seek
TitleUnicode:Hide And Seek
Artist:James Landino
ArtistUnicode:James Landino
Creator:Mirash
Version:Expert
Source:
Tags:rlc noffy
BeatmapID:2036903
BeatmapSetID:972932

[Difficulty]
HPDrainRate:6
CircleSize:5
OverallDifficulty:9
ApproachRate:9.4
SliderMultiplier:2.2
SliderTickRate:1

[Events]
//Background and Video events
0,0,"vanlov.jpg",0,0
//Break Periods
//Storyboard Layer 0 (Background)
//Storyboard Layer 1 (Fail)
//Storyboard Layer 2 (Pass)
//Storyboard Layer 3 (Foreground)
//Storyboard Sound Samples

[TimingPoints]
165,368.098159509202,4,2,1,60,1,0
1264,-100,4,2,1,40,0,0
1816,-100,4,2,1,50,0,0
14699,-133.333333333333,4,2,1,50,0,0
19116,-100,4,2,1,50,0,0
20588,-133.333333333333,4,2,1,50,0,0
23533,-100,4,2,1,50,0,0
50036,-83.3333333333333,4,2,1,60,0,0
61815,-100,4,2,1,60,0,0
73594,-133.333333333333,4,2,1,50,0,0
79116,-333.333333333333,4,2,1,30,0,0
79484,-83.3333333333333,4,2,1,60,0,0
129545,-100,4,2,1,50,0,0

[Colours]
Combo1 : 129,134,121
Combo2 : 36,147,166
Combo3 : 99,173,146
Combo4 : 179,121,15

[HitObjects]
255,191,165,5,0,0:0:0:0:
455,193,717,5,0,0:0:0:0:
57,193,1269,5,2,0:0:0:0:
256,192,1453,12,0,2741,0:0:0:0:
498,130,3109,6,0,B|417:135|417:135|375:184|375:184|281:192,1,220,4|8,1:0|1:1,0:0:0:0:
96,85,3661,2,0,L|206:103,1,110,4|0,3:0|0:0,0:0:0:0:
204,102,3937,1,8,1:0:0:0:
204,102,4029,1,4,3:0:0:0:
185,211,4213,1,8,1:0:0:0:
329,354,4397,5,0,0:0:0:0:
329,354,4489,1,4,3:0:0:0:
329,354,4581,1,0,1:0:0:0:
348,245,4765,1,4,3:0:0:0:
83,187,4949,2,0,L|92:303,2,110,8|4|0,1:0|3:0|0:0,0:0:0:0:
83,187,5409,1,8,1:0:0:0:
83,187,5501,1,4,3:0:0:0:
10,104,5685,1,8,1:0:0:0:
219,26,5869,5,0,0:0:0:0:
219,26,5961,1,4,3:0:0:0:
219,26,6053,2,0,L|210:142,1,110,0|0,1:0|0:0,0:0:0:0:
384,275,6421,1,8,1:0:0:0:
376,166,6605,1,4,3:0:0:0:
281,221,6789,1,0,0:0:0:0:
281,221,6882,1,8,1:0:0:0:
281,221,6974,1,4,3:0:0:0:
281,330,7158,1,8,1:0:0:0:
281,330,7434,5,0,1:0:0:0:
281,330,7526,2,0,L|215:348,1,55,4|0,1:3|0:0,0:0:0:0:
231,330,7710,2,0,L|297:348,1,55,4|0,1:3|0:0,0:0:0:0:
334,287,7894,2,0,B|342:261|342:261|333:234,1,55,8|0,1:0|1:0,0:0:0:0:
179,217,8078,2,0,B|170:242|170:242|179:269,1,55,8|0,1:0|0:0,0:0:0:0:
273,173,8262,5,2,1:0:0:0:
262,147,8354,1,0,1:0:0:0:
273,112,8446,1,0,0:0:0:0:
263,86,8538,1,2,1:0:0:0:
230,27,8630,5,0,1:0:0:0:
220,53,8722,1,0,0:0:0:0:
231,88,8814,1,2,1:0:0:0:
220,114,8906,1,0,1:0:0:0:
171,162,8998,5,6,1:0:0:0:
109,137,9182,1,2,0:0:0:0:
109,137,9274,2,0,L|122:190,1,55,0|8,1:0|1:0,0:0:0:0:
83,245,9458,1,0,0:0:0:0:
83,245,9550,2,0,L|70:298,1,55,2|0,0:0|0:0,0:0:0:0:
127,335,9734,1,0,1:0:0:0:
126,362,9826,2,0,L|193:347,1,55,2|0,1:2|0:0,0:0:0:0:
201,278,10010,1,2,1:2:0:0:
224,265,10102,2,0,L|177:214,1,55,8|0,1:0|0:0,0:0:0:0:
208,159,10286,2,0,L|255:108,1,55,2|0,0:0|0:0,0:0:0:0:
478,232,10470,5,2,1:0:0:0:
401,152,10655,1,2,0:0:0:0:
401,152,10747,2,0,L|408:217,1,55,0|8,1:0|1:0,0:0:0:0:
358,255,10931,1,0,0:0:0:0:
358,255,11023,2,0,L|351:320,1,55,2|0,0:0|0:0,0:0:0:0:
398,363,11207,1,0,0:0:0:0:
424,356,11299,1,8,1:0:0:0:
444,373,11391,6,0,L|438:318,1,55,4|0,1:3|0:0,0:0:0:0:
289,353,11575,2,0,L|292:298,1,55,8|0,1:0|0:0,0:0:0:0:
139,306,11759,2,0,L|152:252,1,55,4|0,1:3|0:0,0:0:0:0:
327,94,11943,5,6,1:0:0:0:
290,146,12127,1,2,0:0:0:0:
290,146,12219,2,0,L|276:92,1,55,0|8,1:0|1:0,0:0:0:0:
336,226,12403,1,0,0:0:0:0:
336,226,12495,2,0,L|349:172,1,55,2|0,0:0|0:0,0:0:0:0:
239,191,12679,1,0,1:0:0:0:
218,209,12771,2,0,L|204:155,1,55,2|0,1:2|0:0,0:0:0:0:
101,138,12955,1,2,1:2:0:0:
122,120,13047,2,0,L|135:173,1,55,8|0,1:0|0:0,0:0:0:0:
105,237,13231,1,2,0:0:0:0:
331,257,13415,6,0,B|339:285|339:285|326:319,1,55,0|0,1:0|0:0,0:0:0:0:
182,332,13599,2,0,B|172:307|172:307|180:279,1,55,0|0,1:0|0:0,0:0:0:0:
242,73,13783,5,8,1:0:0:0:
258,95,13875,1,0,1:0:0:0:
260,73,13967,5,8,1:0:0:0:
244,95,14059,1,0,1:0:0:0:
211,67,14151,5,2,1:0:0:0:
226,108,14243,1,0,1:0:0:0:
233,151,14335,1,0,0:0:0:0:
238,195,14428,1,2,1:0:0:0:
252,231,14520,5,8,1:0:0:0:
258,169,14613,1,0,0:0:0:0:
268,109,14704,1,10,1:0:0:0:
289,51,14797,1,0,0:0:0:0:
244,95,14888,6,0,B|184:112|184:112|130:50,2,123.750004720688,4|0|8,1:0|1:0|1:0,0:0:0:0:
353,233,15624,2,0,L|485:191,2,123.750004720688,0|8|0,1:0|1:0|1:0,0:0:0:0:
186,199,16360,5,4,1:3:0:0:
148,280,16544,1,4,3:3:0:0:
86,214,16728,1,8,1:0:0:0:
255,373,16912,5,2,0:0:0:0:
307,263,17096,1,0,0:0:0:0:
307,263,17188,1,8,1:0:0:0:
389,361,17372,1,0,1:0:0:0:
389,361,17464,1,8,1:0:0:0:
315,334,17648,1,0,0:0:0:0:
501,200,17832,5,4,1:2:0:0:
443,270,18016,1,0,0:0:0:0:
415,137,18201,1,8,1:0:0:0:
357,207,18385,1,4,3:0:0:0:
191,105,18569,5,0,0:0:0:0:
191,105,18661,1,8,1:0:0:0:
191,105,18753,1,4,3:0:0:0:
269,22,18937,1,8,1:0:0:0:
349,104,19121,1,0,0:0:0:0:
0,193,19305,6,0,B|51:174|51:174|112:220,1,110,4|0,1:2|0:0,0:0:0:0:
93,232,19581,1,4,1:3:0:0:
93,232,19673,1,8,1:0:0:0:
186,174,19857,1,2,0:0:0:0:
357,332,20041,5,4,3:0:0:0:
333,317,20133,1,8,1:0:0:0:
306,325,20225,1,0,0:0:0:0:
264,277,20317,5,0,1:0:0:0:
288,262,20409,1,8,1:0:0:0:
315,270,20501,1,0,0:0:0:0:
338,256,20593,1,0,1:0:0:0:
365,260,20685,1,0,0:0:0:0:
417,306,20777,6,0,L|438:187,1,82.5000031471254,4|0,1:0|0:0,0:0:0:0:
431,224,21053,1,4,1:3:0:0:
431,224,21145,1,8,1:0:0:0:
484,342,21329,1,2,0:0:0:0:
356,167,21513,5,0,0:0:0:0:
356,167,21605,1,8,1:0:0:0:
356,167,21697,1,4,3:0:0:0:
479,124,21882,1,8,1:0:0:0:
381,32,22066,1,0,0:0:0:0:
381,32,22158,1,0,0:0:0:0:
381,32,22250,2,0,L|391:102,1,41.2500015735627,4|0,1:3|0:0,0:0:0:0:
447,255,22434,2,0,L|441:214,1,41.2500015735627,4|0,1:3|0:0,0:0:0:0:
224,143,22618,5,8,1:0:0:0:
330,107,22802,1,2,0:0:0:0:
249,241,22986,1,0,0:0:0:0:
235,222,23078,1,8,1:0:0:0:
185,223,23170,1,4,1:3:0:0:
199,242,23262,1,0,0:0:0:0:
216,309,23354,5,8,1:0:0:0:
235,300,23446,1,0,0:0:0:0:
275,308,23538,1,0,1:0:0:0:
294,299,23630,1,8,1:0:0:0:
352,343,23722,6,0,B|300:327|300:327|262:379,1,110,4|0,1:2|0:0,0:0:0:0:
400,232,24090,5,10,1:0:0:0:
469,329,24274,2,0,L|486:195,1,110,0|2,0:0|1:0,0:0:0:0:
482,219,24550,1,8,1:0:0:0:
482,219,24642,1,0,0:0:0:0:
364,320,24826,1,10,1:0:0:0:
400,232,25010,1,0,0:0:0:0:
117,125,25194,5,4,1:2:0:0:
296,78,25378,1,0,0:0:0:0:
296,78,25470,1,2,1:0:0:0:
296,78,25562,1,8,1:0:0:0:
343,257,25747,1,2,1:1:0:0:
198,310,25931,5,4,3:0:0:0:
204,283,26023,1,8,1:0:0:0:
217,306,26115,1,0,1:0:0:0:
160,334,26207,5,4,3:0:0:0:
154,307,26299,1,8,1:0:0:0:
141,330,26391,1,0,0:0:0:0:
92,270,26483,5,8,1:0:0:0:
170,277,26575,1,0,1:0:0:0:
248,284,26667,1,4,1:0:0:0:
382,128,26943,1,0,1:0:0:0:
382,128,27035,1,8,1:0:0:0:
412,233,27219,1,2,0:0:0:0:
270,197,27403,5,4,3:0:0:0:
250,183,27495,1,0,1:0:0:0:
180,120,27679,1,0,1:0:0:0:
163,135,27771,1,8,1:0:0:0:
120,220,27955,1,0,0:0:0:0:
259,378,28139,5,4,1:3:0:0:
329,293,28323,1,4,3:0:0:0:
221,266,28507,1,8,1:0:0:0:
155,354,28691,1,2,0:0:0:0:
161,211,28875,5,4,3:0:0:0:
181,197,28967,1,2,1:2:0:0:
251,134,29151,1,0,1:0:0:0:
268,149,29243,1,8,1:0:0:0:
367,188,29428,1,2,0:0:0:0:
483,188,29612,6,0,B|406:181|406:181|359:229|359:229|276:220,1,220,4|2,1:0|0:0,0:0:0:0:
260,190,30072,1,2,0:0:0:0:
222,199,30164,1,0,0:0:0:0:
184,208,30256,1,2,0:0:0:0:
166,248,30348,5,2,0:0:0:0:
144,241,30440,1,0,0:0:0:0:
122,235,30532,1,2,0:0:0:0:
100,229,30624,1,2,0:0:0:0:
90,203,30716,5,2,0:0:0:0:
79,205,30808,1,0,0:0:0:0:
68,208,30900,1,2,0:0:0:0:
57,211,30992,1,0,0:0:0:0:
29,242,31084,5,2,1:0:0:0:
111,143,31268,1,4,3:0:0:0:
111,143,31360,1,2,1:0:0:0:
150,172,31452,1,8,1:0:0:0:
150,172,31544,1,0,0:0:0:0:
182,133,31636,1,2,1:0:0:0:
405,196,31820,5,2,1:0:0:0:
368,208,31912,1,0,0:0:0:0:
351,185,32004,5,4,3:0:0:0:
387,197,32096,1,0,1:0:0:0:
423,208,32188,1,10,1:0:0:0:
459,220,32280,1,0,0:0:0:0:
495,232,32372,1,2,1:0:0:0:
256,47,32556,5,4,1:0:0:0:
256,47,32832,1,0,1:0:0:0:
256,47,32924,1,8,1:0:0:0:
175,131,33108,1,2,0:0:0:0:
287,176,33293,1,4,3:0:0:0:
287,176,33385,1,0,1:0:0:0:
372,91,33569,1,0,1:0:0:0:
372,91,33661,1,8,1:0:0:0:
271,110,33845,1,0,0:0:0:0:
373,359,34029,5,4,1:3:0:0:
278,267,34213,1,4,3:0:0:0:
243,381,34397,1,8,1:0:0:0:
297,337,34581,1,2,0:0:0:0:
348,225,34765,5,4,3:0:0:0:
348,225,34857,1,0,1:0:0:0:
487,277,35041,1,0,1:0:0:0:
487,277,35133,1,8,1:0:0:0:
472,241,35225,1,0,0:0:0:0:
491,208,35317,1,0,1:0:0:0:
477,171,35409,1,0,1:0:0:0:
509,206,35501,6,0,B|434:198|434:198|400:138|400:138|299:123,1,220,6|8,1:0|1:0,0:0:0:0:
225,173,36053,1,2,0:0:0:0:
232,282,36237,1,4,3:0:0:0:
232,282,36329,1,8,1:0:0:0:
232,282,36421,1,4,3:0:0:0:
330,234,36605,1,8,1:0:0:0:
61,170,36789,5,0,0:0:0:0:
61,170,36882,1,0,0:0:0:0:
61,170,36974,1,4,1:2:0:0:
249,120,37158,1,4,1:3:0:0:
298,309,37342,1,8,1:0:0:0:
110,358,37526,1,8,1:0:0:0:
156,233,37710,1,4,3:0:0:0:
156,233,37802,1,0,1:0:0:0:
197,248,37894,1,8,1:0:0:0:
197,248,37986,1,0,0:0:0:0:
226,215,38078,5,4,1:3:0:0:
171,223,38170,1,4,1:3:0:0:
116,232,38262,1,4,1:3:0:0:
61,241,38354,1,4,3:0:0:0:
41,256,38446,6,0,P|52:186|201:151,1,220,6|2,1:0|1:0,0:0:0:0:
245,227,38998,1,2,0:1:0:0:
339,170,39182,1,0,1:0:0:0:
357,182,39274,1,2,3:0:0:0:
435,258,39458,1,0,0:0:0:0:
453,246,39550,1,2,1:3:0:0:
505,149,39734,1,2,0:1:0:0:
255,48,39918,5,4,1:3:0:0:
266,157,40102,1,4,3:0:0:0:
360,91,40286,2,0,P|325:28|183:27,1,220,2|2,1:0|0:1,0:0:0:0:
137,80,40747,1,0,1:0:0:0:
158,80,40839,1,2,3:0:0:0:
166,118,40931,1,0,0:0:0:0:
187,118,41023,1,0,1:0:0:0:
359,160,41207,1,2,1:3:0:0:
357,163,41268,1,2,1:1:0:0:
355,166,41329,1,0,0:0:0:0:
353,169,41391,6,0,P|294:160|219:284,1,220,4|2,1:2|1:0,0:0:0:0:
136,352,41943,1,2,0:1:0:0:
60,272,42127,1,0,1:0:0:0:
60,272,42219,1,2,3:0:0:0:
60,272,42311,1,0,0:0:0:0:
145,202,42495,1,2,1:0:0:0:
146,275,42679,1,2,3:0:0:0:
6,189,42863,5,4,1:3:0:0:
100,133,43047,1,4,3:0:0:0:
301,192,43231,5,0,1:0:0:0:
207,248,43415,1,2,3:0:0:0:
108,200,43599,5,2,1:0:0:0:
133,183,43691,1,2,3:0:0:0:
158,168,43783,1,0,0:0:0:0:
172,186,43875,5,2,3:0:0:0:
129,176,43967,1,2,1:0:0:0:
86,166,44059,1,0,1:0:0:0:
43,156,44151,1,2,1:0:0:0:
266,57,44335,5,4,1:0:0:0:
359,124,44520,1,6,3:0:0:0:
376,139,44612,1,8,1:0:0:0:
269,184,44796,1,2,1:3:0:0:
252,199,44888,1,8,1:0:0:0:
359,325,45072,1,0,1:0:0:0:
354,294,45164,1,2,3:0:0:0:
349,263,45256,1,4,0:3:0:0:
344,232,45348,1,2,3:0:0:0:
339,201,45440,1,8,1:0:0:0:
436,247,45624,1,4,3:0:0:0:
255,377,45808,5,4,1:2:0:0:
270,268,45992,1,6,3:0:0:0:
283,242,46084,1,8,1:0:0:0:
160,200,46268,1,2,1:3:0:0:
173,226,46360,1,8,1:0:0:0:
264,133,46544,1,0,1:0:0:0:
232,123,46636,1,2,3:0:0:0:
200,114,46728,1,4,0:3:0:0:
167,106,46820,1,2,3:0:0:0:
134,98,46912,1,8,1:0:0:0:
41,157,47096,1,4,3:0:0:0:
118,324,47280,5,4,3:0:0:0:
120,319,47372,1,0,0:0:0:0:
122,314,47464,1,0,0:0:0:0:
124,309,47556,1,2,0:0:0:0:
126,303,47648,1,4,3:0:0:0:
127,297,47740,1,0,0:0:0:0:
128,291,47832,1,2,0:0:0:0:
129,285,47924,1,2,0:0:0:0:
118,252,48016,5,4,3:0:0:0:
161,263,48108,2,0,P|161:219|172:189,1,55,4|0,3:0|0:0,0:0:0:0:
146,146,48293,1,2,0:0:0:0:
146,146,48385,1,4,3:0:0:0:
178,142,48477,1,0,0:0:0:0:
216,173,48569,1,2,0:0:0:0:
277,149,48661,1,2,0:0:0:0:
336,192,48753,5,4,1:0:0:0:
508,153,48937,1,4,1:3:0:0:
409,55,49121,5,8,1:0:0:0:
441,305,49305,1,8,1:0:0:0:
256,105,49489,5,4,3:0:0:0:
256,105,49581,1,8,1:0:0:0:
256,349,49765,5,0,1:0:0:0:
256,349,49857,1,2,1:3:0:0:
242,305,49949,1,4,3:0:0:0:
268,263,50041,1,0,1:0:0:0:
237,222,50133,1,0,3:0:0:0:
270,169,50226,6,0,P|251:104|191:80,1,131.99999597168,4|0,1:0|0:0,0:0:0:0:
182,67,50502,2,0,P|116:87|43:95,2,131.99999597168,12|8|0,1:3|1:0|0:0,0:0:0:0:
179,60,50961,1,12,3:0:0:0:
178,53,51053,1,8,1:0:0:0:
176,46,51145,1,0,1:0:0:0:
312,127,51329,5,8,1:0:0:0:
432,64,51513,1,2,3:0:0:0:
374,216,51697,1,12,1:3:0:0:
374,216,51789,1,0,0:0:0:0:
416,236,51882,1,4,3:0:0:0:
452,207,51974,1,8,0:3:0:0:
452,207,52066,1,8,1:0:0:0:
504,327,52250,1,8,3:0:0:0:
320,358,52434,5,4,3:0:0:0:
282,346,52526,1,8,1:0:0:0:
262,311,52618,1,2,1:3:0:0:
224,323,52710,1,0,0:0:0:0:
199,353,52802,1,8,1:0:0:0:
77,300,52986,1,2,3:0:0:0:
258,112,53170,5,4,1:2:0:0:
155,195,53354,1,12,1:3:0:0:
191,177,53446,1,0,0:0:0:0:
216,208,53538,1,8,1:0:0:0:
252,190,53630,1,8,3:0:0:0:
364,258,53814,1,0,1:0:0:0:
325,247,53906,5,2,3:0:0:0:
364,241,53998,1,8,1:0:0:0:
403,235,54090,1,4,3:0:0:0:
492,331,54274,1,8,1:0:0:0:
258,374,54458,5,2,3:0:0:0:
155,275,54642,2,0,B|143:243|143:243|161:207,1,65.9999979858399,4|0,1:3|0:0,0:0:0:0:
340,157,54826,2,0,B|352:189|352:189|337:217,1,65.9999979858399,4|0,1:3|0:0,0:0:0:0:
242,206,55010,5,8,1:0:0:0:
258,212,55102,1,0,0:0:0:0:
244,238,55194,5,8,1:0:0:0:
247,184,55286,1,0,1:0:0:0:
253,131,55378,1,0,0:0:0:0:
231,149,55470,5,8,1:3:0:0:
274,153,55562,1,8,1:0:0:0:
256,111,55655,1,0,0:0:0:0:
241,48,55747,5,8,1:0:0:0:
280,51,55839,1,0,0:0:0:0:
319,54,55931,1,8,1:3:0:0:
358,57,56023,1,4,3:0:0:0:
417,28,56115,6,0,P|432:90|447:165,1,131.99999597168,4|0,1:0|0:0,0:0:0:0:
469,162,56391,2,0,P|443:237|426:293,2,131.99999597168,12|8|0,1:3|1:0|0:0,0:0:0:0:
475,164,56851,1,4,3:0:0:0:
481,164,56944,1,8,1:0:0:0:
487,165,57036,1,8,1:3:0:0:
218,122,57219,5,8,1:0:0:0:
349,104,57403,1,2,3:0:0:0:
349,235,57587,1,4,1:3:0:0:
349,235,57679,1,0,0:0:0:0:
305,214,57771,1,4,3:0:0:0:
280,256,57863,1,0,0:0:0:0:
280,256,57955,1,8,1:0:0:0:
172,206,58139,1,8,3:0:0:0:
170,382,58323,5,4,3:0:0:0:
201,373,58415,1,8,1:0:0:0:
230,331,58507,1,0,1:0:0:0:
261,339,58599,1,0,0:0:0:0:
287,360,58691,1,8,1:0:0:0:
334,170,58875,5,2,3:0:0:0:
334,170,58967,1,0,0:0:0:0:
334,170,59059,1,4,1:2:0:0:
444,302,59243,1,12,1:3:0:0:
405,292,59335,1,0,0:0:0:0:
378,261,59428,1,8,1:0:0:0:
339,271,59520,1,8,3:0:0:0:
224,205,59704,1,0,1:0:0:0:
206,180,59796,5,2,3:0:0:0:
208,219,59888,1,8,1:0:0:0:
211,258,59980,1,4,3:0:0:0:
111,194,60164,1,8,1:0:0:0:
186,102,60348,1,2,3:0:0:0:
351,155,60532,6,0,L|432:178,1,65.9999979858399,4|0,1:3|0:0,0:0:0:0:
211,258,60716,2,0,L|274:239,1,65.9999979858399,4|0,1:3|0:0,0:0:0:0:
112,114,60900,5,8,1:0:0:0:
134,125,60992,1,0,0:0:0:0:
149,165,61084,1,8,1:0:0:0:
171,154,61176,1,0,1:0:0:0:
193,143,61268,1,0,0:0:0:0:
212,101,61360,5,8,1:3:0:0:
252,113,61452,1,8,1:0:0:0:
292,126,61544,1,0,0:0:0:0:
338,78,61636,5,8,1:0:0:0:
273,98,61728,1,4,3:0:0:0:
209,119,61820,1,4,1:2:0:0:
109,293,62004,5,4,1:0:0:0:
198,357,62188,1,0,0:0:0:0:
198,357,62280,1,2,3:0:0:0:
261,267,62464,1,0,0:0:0:0:
261,267,62556,1,2,3:0:0:0:
182,167,62740,5,2,3:0:0:0:
182,167,62832,1,4,3:0:0:0:
141,153,62924,1,0,1:0:0:0:
141,153,63016,1,2,3:0:0:0:
3,200,63200,1,0,0:0:0:0:
3,200,63292,1,2,3:0:0:0:
31,133,63477,5,4,1:3:0:0:
122,237,63661,1,4,3:0:0:0:
154,231,63753,1,2,3:0:0:0:
186,225,63845,1,0,0:0:0:0:
268,151,64029,1,8,1:3:0:0:
329,242,64213,1,2,3:0:0:0:
325,274,64305,1,4,3:0:0:0:
322,306,64397,1,0,1:0:0:0:
319,338,64489,1,0,0:0:0:0:
306,369,64581,5,8,1:0:0:0:
301,320,64673,1,0,0:0:0:0:
297,270,64765,1,8,1:0:0:0:
291,221,64857,1,0,1:0:0:0:
275,224,64949,5,4,1:0:0:0:
176,174,65133,1,0,0:0:0:0:
176,174,65225,1,2,3:0:0:0:
239,84,65409,1,0,0:0:0:0:
239,84,65501,1,2,3:0:0:0:
388,127,65685,5,2,3:0:0:0:
356,117,65777,1,4,3:0:0:0:
341,146,65869,1,0,1:0:0:0:
309,136,65961,1,2,3:0:0:0:
233,216,66145,1,0,0:0:0:0:
203,204,66237,1,2,3:0:0:0:
106,97,66421,5,4,1:3:0:0:
33,186,66605,1,4,3:0:0:0:
38,202,66697,1,0,1:0:0:0:
94,227,66789,1,8,1:0:0:0:
126,281,66882,1,0,0:0:0:0:
117,297,66974,1,8,1:3:0:0:
264,339,67158,5,4,3:0:0:0:
259,306,67250,1,0,1:0:0:0:
290,273,67342,1,8,1:0:0:0:
278,231,67434,1,0,0:0:0:0:
236,204,67526,5,8,1:0:0:0:
256,155,67618,5,0,3:0:0:0:
240,92,67710,5,0,1:0:0:0:
251,27,67802,5,0,1:0:0:0:
186,56,67894,5,2,1:0:0:0:
186,56,67986,2,0,B|259:88|259:88|333:35,1,165,2|8,1:0|1:0,0:0:0:0:
383,73,68446,1,2,0:0:0:0:
477,17,68630,1,4,1:3:0:0:
458,42,68722,1,8,1:0:0:0:
494,82,68814,1,0,1:0:0:0:
475,107,68906,1,0,0:0:0:0:
458,111,68998,6,0,L|473:232,1,110,8|0,1:0|0:0,0:0:0:0:
214,360,69366,5,2,1:0:0:0:
214,360,69458,2,0,L|233:191,1,165,2|8,1:0|1:0,0:0:0:0:
188,146,69918,1,2,0:0:0:0:
123,234,70102,1,4,1:3:0:0:
96,221,70194,1,10,1:0:0:0:
74,193,70286,1,0,1:0:0:0:
47,206,70378,1,0,0:0:0:0:
34,226,70470,6,0,B|109:195|109:195|169:265,1,165,10|0,1:0|0:0,0:0:0:0:
173,275,70839,6,0,L|177:212,1,55,2|0,1:0|0:0,1:1:0:0:
303,165,71023,2,0,L|315:308,1,110,0|8,0:0|1:0,0:0:0:0:
297,289,71299,1,0,1:0:0:0:
283,307,71391,2,0,L|279:244,1,55,8|0,1:0|0:0,0:0:0:0:
367,163,71575,1,8,3:0:0:0:
386,155,71667,2,0,L|382:209,2,55,4|0|0,3:0|0:0|3:0,0:0:0:0:
436,108,71943,2,0,B|379:136|379:136|286:78,1,165,8|0,1:0|0:0,0:0:0:0:
272,64,72311,6,0,L|276:135,1,55,2|0,1:0|0:0,1:1:0:0:
106,214,72495,2,0,L|110:152,1,55,0|0,1:0|0:0,0:0:0:0:
217,164,72679,5,8,1:0:0:0:
178,153,72771,1,0,0:0:0:0:
216,151,72863,5,8,1:0:0:0:
177,168,72955,1,0,1:0:0:0:
193,105,73047,5,0,3:0:0:0:
199,174,73139,1,8,1:0:0:0:
205,243,73231,1,4,3:0:0:0:
205,243,73323,1,0,1:0:0:0:
249,293,73415,5,8,1:0:0:0:
219,233,73507,1,4,3:0:0:0:
159,263,73599,1,4,3:0:0:0:
189,323,73691,1,4,3:0:0:0:
286,237,73783,6,0,P|289:150|297:65,1,165.000006294251,4|8,1:0|0:0,0:0:0:0:
324,14,74335,1,2,0:0:0:0:
390,46,74520,1,0,0:0:0:0:
390,46,74612,1,8,0:0:0:0:
390,46,74704,1,0,1:0:0:0:
359,108,74888,2,0,P|365:162|366:208,1,82.5000031471254,8|0,0:0|0:0,0:0:0:0:
227,291,75256,5,0,1:0:0:0:
256,361,75440,1,0,1:0:0:0:
301,302,75624,1,8,0:0:0:0:
330,372,75808,1,2,0:0:0:0:
267,225,75992,5,0,0:0:0:0:
267,225,76084,1,8,0:0:0:0:
267,225,76176,1,0,1:0:0:0:
176,352,76360,1,8,0:0:0:0:
66,253,76544,1,0,0:0:0:0:
214,276,76728,5,0,1:0:0:0:
163,219,76912,1,0,0:0:0:0:
138,285,77096,1,8,0:0:0:0:
285,293,77280,5,2,0:0:0:0:
168,152,77464,1,0,0:0:0:0:
168,152,77556,1,8,0:0:0:0:
168,152,77648,1,0,1:0:0:0:
88,327,77832,1,8,0:0:0:0:
181,256,78016,1,0,0:0:0:0:
276,185,78201,5,0,1:0:0:0:
76,137,78385,1,0,1:0:0:0:
28,337,78569,1,12,0:0:0:0:
228,384,78753,1,0,1:0:0:0:
164,362,79305,6,0,L|153:317,1,32.99999899292,2|0,0:0|0:0,0:0:0:0:
221,322,79673,6,0,B|228:256|228:256|271:207|271:207|276:119,1,197.99999395752,4|0,1:0|0:0,0:0:0:0:
299,148,80041,1,8,1:0:0:0:
324,156,80133,1,0,0:0:0:0:
348,164,80225,1,0,0:0:0:0:
372,172,80317,1,0,0:0:0:0:
391,189,80409,5,4,3:0:0:0:
401,164,80501,1,8,1:0:0:0:
404,138,80593,1,0,0:0:0:0:
398,113,80685,1,0,0:0:0:0:
366,59,80777,5,8,1:0:0:0:
339,88,80869,1,0,0:0:0:0:
322,124,80961,1,2,0:0:0:0:
317,163,81053,1,0,0:0:0:0:
269,210,81145,5,4,1:2:0:0:
203,192,81329,1,2,0:0:0:0:
84,306,81513,1,8,1:0:0:0:
150,324,81697,1,8,3:0:0:0:
269,210,81882,5,0,1:0:0:0:
269,210,82066,1,0,1:0:0:0:
263,170,82158,1,4,3:0:0:0:
257,130,82250,1,8,1:0:0:0:
251,90,82342,1,0,0:0:0:0:
282,59,82434,5,0,1:0:0:0:
271,110,82526,1,0,1:0:0:0:
260,161,82618,1,0,1:0:0:0:
385,185,82802,1,4,3:0:0:0:
361,310,82986,1,8,1:0:0:0:
236,286,83170,1,2,0:0:0:0:
450,211,83354,5,4,3:0:0:0:
450,211,83446,1,8,1:0:0:0:
450,211,83538,1,0,1:0:0:0:
414,229,83630,1,0,0:0:0:0:
378,212,83722,1,8,1:0:0:0:
344,233,83814,1,0,0:0:0:0:
290,206,83906,5,2,0:0:0:0:
246,235,83998,1,2,0:0:0:0:
207,198,84090,2,0,B|180:220|180:220|131:201,1,65.9999979858399,4|0,1:3|0:0,0:0:0:0:
0,73,84274,2,0,B|27:51|27:51|76:70,1,65.9999979858399,4|0,1:3|0:0,0:0:0:0:
117,137,84458,5,8,1:0:0:0:
73,154,84550,1,0,0:0:0:0:
115,153,84642,5,8,1:0:0:0:
71,140,84734,1,8,1:3:0:0:
116,77,84826,5,4,3:0:0:0:
156,65,84918,1,0,0:0:0:0:
196,73,85010,1,8,1:3:0:0:
224,104,85102,1,0,1:0:0:0:
273,162,85194,5,8,1:0:0:0:
225,147,85286,1,0,0:0:0:0:
176,158,85378,1,8,1:3:0:0:
142,195,85470,1,0,0:0:0:0:
84,231,85562,6,0,B|155:293|155:293|271:234,1,197.99999395752,4|2,1:0|0:0,0:0:0:0:
246,270,85931,1,2,1:2:0:0:
265,261,86023,1,8,0:0:0:0:
368,343,86207,5,8,0:0:0:0:
472,252,86391,1,2,1:2:0:0:
453,243,86483,1,8,0:0:0:0:
434,234,86575,1,2,0:0:0:0:
328,170,86759,5,8,0:0:0:0:
432,79,86943,1,2,1:2:0:0:
413,70,87035,1,4,1:2:0:0:
394,61,87127,1,8,0:0:0:0:
263,8,87311,5,8,0:0:0:0:
244,17,87403,1,8,1:0:0:0:
154,109,87587,1,2,0:0:0:0:
127,97,87679,1,2,0:0:0:0:
108,170,87771,5,4,3:0:0:0:
114,167,87863,1,8,1:0:0:0:
120,164,87955,1,0,1:0:0:0:
126,161,88047,1,0,0:0:0:0:
183,125,88139,5,8,1:0:0:0:
210,137,88231,1,2,0:0:0:0:
238,152,88323,1,2,0:0:0:0:
266,165,88415,1,2,0:0:0:0:
332,146,88507,6,0,B|358:169|358:169|408:153,1,65.9999979858399,4|0,1:2|0:0,0:0:0:0:
492,147,88691,1,2,0:0:0:0:
501,115,88783,1,2,0:0:0:0:
485,85,88875,2,0,B|459:108|459:108|409:92,1,65.9999979858399,8|0,1:0|0:0,0:0:0:0:
279,100,89059,1,2,0:0:0:0:
262,56,89151,1,2,0:0:0:0:
295,24,89243,2,0,B|321:47|321:47|371:31,1,65.9999979858399,4|8,3:0|1:0,0:0:0:0:
370,106,89428,5,8,1:3:0:0:
376,140,89520,1,2,0:0:0:0:
345,193,89612,1,8,1:0:0:0:
359,240,89704,1,2,0:0:0:0:
327,293,89796,1,8,0:3:0:0:
344,354,89888,1,2,0:0:0:0:
271,330,89980,5,4,1:2:0:0:
416,288,90102,5,2,1:2:0:0:
289,201,90225,5,4,1:2:0:0:
392,347,90348,5,2,1:2:0:0:
231,270,90470,5,4,1:2:0:0:
385,187,90593,5,2,1:2:0:0:
337,284,90716,5,4,1:3:0:0:
330,286,90808,1,2,0:0:0:0:
324,284,90900,1,4,3:0:0:0:
322,277,90992,1,2,0:0:0:0:
324,271,91084,1,8,1:0:0:0:
330,269,91176,1,2,0:0:0:0:
337,271,91268,1,2,0:0:0:0:
339,277,91360,1,2,0:0:0:0:
401,295,91452,5,4,1:0:0:0:
397,248,91544,1,0,0:0:0:0:
393,201,91636,1,2,0:3:0:0:
390,154,91728,1,0,0:0:0:0:
398,101,91820,5,8,1:0:0:0:
361,95,91912,1,2,0:3:0:0:
327,111,92004,1,0,0:0:0:0:
303,139,92096,1,0,0:0:0:0:
294,170,92188,5,4,3:0:0:0:
265,177,92280,1,8,1:0:0:0:
235,174,92372,1,2,1:3:0:0:
206,166,92464,1,0,0:0:0:0:
184,120,92556,5,8,1:0:0:0:
236,132,92648,1,0,0:0:0:0:
265,177,92740,1,2,0:3:0:0:
280,230,92832,1,0,0:0:0:0:
312,297,92924,5,4,1:3:0:0:
246,305,93016,1,0,0:0:0:0:
180,314,93108,1,6,3:0:0:0:
114,323,93201,1,0,0:0:0:0:
48,274,93293,5,8,1:0:0:0:
54,275,93385,1,2,0:3:0:0:
60,276,93477,1,2,0:0:0:0:
66,277,93569,1,0,0:0:0:0:
114,323,93661,5,4,3:0:0:0:
155,302,93753,1,8,1:0:0:0:
196,281,93845,1,2,1:3:0:0:
237,260,93937,1,0,0:0:0:0:
246,194,94029,5,8,1:0:0:0:
284,210,94121,1,0,0:0:0:0:
256,176,94213,1,2,0:3:0:0:
294,192,94305,1,0,0:0:0:0:
333,142,94397,5,4,1:3:0:0:
376,157,94489,1,2,0:3:0:0:
410,188,94581,1,0,0:0:0:0:
436,225,94673,1,2,0:3:0:0:
391,276,94765,5,8,1:0:0:0:
380,222,94857,1,0,0:0:0:0:
392,168,94949,1,2,0:3:0:0:
415,118,95041,1,0,0:0:0:0:
495,134,95133,5,4,3:0:0:0:
445,178,95225,1,8,1:0:0:0:
382,198,95317,1,2,1:3:0:0:
316,204,95409,1,0,0:0:0:0:
267,155,95501,5,8,1:0:0:0:
268,148,95593,1,0,0:0:0:0:
269,141,95685,1,2,0:3:0:0:
270,134,95777,1,0,0:0:0:0:
204,148,95869,6,0,L|168:133,1,32.99999899292,4|2,1:3|0:0,0:0:0:0:
198,159,95961,2,0,L|162:144,1,32.99999899292,0|2,0:0|0:0,0:0:0:0:
196,201,96053,6,0,L|232:186,1,32.99999899292,4|2,1:3|0:0,0:0:0:0:
202,212,96145,2,0,L|238:197,1,32.99999899292,0|2,0:0|0:0,0:0:0:0:
204,254,96237,6,0,L|168:239,1,32.99999899292,8|2,1:0|0:0,0:0:0:0:
198,265,96329,2,0,L|162:250,1,32.99999899292,0|2,0:0|0:0,0:0:0:0:
196,307,96421,6,0,L|232:292,1,32.99999899292,8|2,1:0|0:0,0:0:0:0:
202,318,96513,2,0,L|238:303,1,32.99999899292,0|2,1:0|0:0,0:0:0:0:
279,248,96605,5,4,1:2:0:0:
314,303,96697,1,8,1:0:0:0:
366,261,96789,1,6,3:0:0:0:
384,293,96882,1,4,3:0:0:0:
424,288,96974,1,8,1:0:0:0:
441,300,97066,1,2,0:3:0:0:
474,278,97158,5,0,1:0:0:0:
483,292,97250,1,8,1:0:0:0:
497,280,97342,6,0,B|485:248|485:248|496:209,1,65.9999979858399,4|0,1:0|0:0,0:0:0:0:
432,191,97526,1,0,1:0:0:0:
371,165,97618,2,0,B|383:133|383:133|372:94,1,65.9999979858399,8|0,1:0|0:0,0:0:0:0:
202,53,97802,6,0,B|193:83|193:83|205:115,1,65.9999979858399,8|4,1:0|3:0,0:0:0:0:
268,133,97986,1,2,0:0:0:0:
241,193,98078,1,0,1:0:0:0:
300,220,98170,2,0,B|308:250|308:250|296:282,1,65.9999979858399,8|4,1:0|3:0,0:0:0:0:
118,350,98354,5,0,1:0:0:0:
183,345,98446,1,8,1:0:0:0:
206,283,98538,1,0,0:0:0:0:
168,228,98630,1,0,1:0:0:0:
102,238,98722,1,8,1:0:0:0:
72,297,98814,6,0,B|60:265|60:265|68:234,1,65.9999979858399,4|0,1:2|0:0,0:0:0:0:
40,174,98998,1,4,1:3:0:0:
104,158,99090,1,0,1:0:0:0:
87,94,99182,2,0,B|99:62|99:62|90:31,1,65.9999979858399,8|0,1:0|0:0,0:0:0:0:
151,6,99366,5,4,1:3:0:0:
194,55,99458,1,8,1:0:0:0:
234,3,99550,2,0,L|257:182,1,131.99999597168,4|0,1:2|0:0,0:0:0:0:
214,188,99826,5,0,1:0:0:0:
268,225,99918,1,8,1:0:0:0:
316,180,100010,1,0,0:0:0:0:
373,212,100102,1,0,1:0:0:0:
437,179,100194,1,8,1:0:0:0:
510,207,100286,5,4,1:0:0:0:
376,131,100409,5,4,1:2:0:0:
332,261,100532,5,2,1:2:0:0:
240,128,100655,5,8,1:3:0:0:
188,281,100777,5,2,1:3:0:0:
30,192,100900,5,8,1:0:0:0:
162,195,101023,5,0,1:0:0:0:
42,307,101145,5,4,1:2:0:0:
248,358,101268,5,2,1:2:0:0:
200,124,101391,5,8,1:3:0:0:
319,236,101513,5,0,1:0:0:0:
114,287,101636,5,8,1:0:0:0:
239,190,101759,6,0,L|326:210,1,65.9999979858399,4|0,1:0|0:0,0:0:0:0:
340,260,101943,2,0,L|404:274,1,65.9999979858399,4|0,1:3|0:0,0:0:0:0:
441,329,102127,5,8,1:0:0:0:
490,336,102219,1,0,0:0:0:0:
483,313,102311,5,8,1:0:0:0:
447,348,102403,1,0,1:0:0:0:
386,373,102495,5,8,1:0:0:0:
348,360,102587,1,0,0:0:0:0:
310,347,102679,1,8,0:3:0:0:
266,293,102771,5,4,3:0:0:0:
201,307,102863,1,8,1:0:0:0:
136,322,102955,1,4,1:3:0:0:
71,337,103047,1,12,3:0:0:0:
13,304,103139,5,0,0:0:0:0:
13,304,103232,2,0,L|24:152,1,131.99999597168,4|0,1:0|0:0,0:0:0:0:
13,145,103508,2,0,P|76:163|163:162,2,131.99999597168,12|8|0,1:3|1:0|0:0,0:0:0:0:
16,139,103967,1,12,3:0:0:0:
19,133,104059,1,8,1:0:0:0:
23,128,104151,1,0,1:0:0:0:
167,246,104336,5,8,1:0:0:0:
238,142,104520,1,2,3:0:0:0:
336,220,104704,1,12,1:3:0:0:
336,220,104796,1,0,0:0:0:0:
371,244,104888,1,4,3:0:0:0:
408,218,104980,1,8,0:3:0:0:
408,218,105072,1,8,1:0:0:0:
394,86,105256,1,8,3:0:0:0:
269,129,105440,5,4,3:0:0:0:
232,145,105532,1,8,1:0:0:0:
201,119,105624,1,2,1:3:0:0:
164,135,105716,1,0,0:0:0:0:
127,119,105808,1,8,1:0:0:0:
12,184,105992,1,2,3:0:0:0:
85,293,106176,5,4,1:2:0:0:
197,223,106360,1,12,1:3:0:0:
223,250,106452,1,0,0:0:0:0:
261,234,106544,1,8,1:0:0:0:
287,261,106636,1,8,3:0:0:0:
309,365,106820,1,0,1:0:0:0:
301,343,106912,5,2,3:0:0:0:
352,350,107004,1,8,1:0:0:0:
404,357,107096,1,4,3:0:0:0:
493,301,107280,1,8,1:0:0:0:
349,197,107464,5,2,3:0:0:0:
382,91,107648,2,0,B|392:58|392:58|374:26,1,65.9999979858399,12|0,1:3|0:0,0:0:0:0:
184,75,107832,2,0,B|168:102|168:102|178:135,1,65.9999979858399,4|8,1:3|0:3,0:0:0:0:
298,94,108016,5,8,1:0:0:0:
261,80,108108,1,0,0:0:0:0:
300,83,108201,5,8,1:0:0:0:
263,97,108293,1,0,1:0:0:0:
293,157,108385,5,0,0:0:0:0:
332,150,108477,1,8,1:3:0:0:
371,144,108569,1,8,1:0:0:0:
431,113,108661,5,0,0:0:0:0:
428,198,108753,5,8,1:0:0:0:
367,207,108845,1,0,0:0:0:0:
307,218,108937,1,8,1:3:0:0:
265,285,109029,5,4,3:0:0:0:
265,285,109122,2,0,L|124:258,1,131.99999597168,4|0,1:0|0:0,0:0:0:0:
115,278,109398,2,0,P|96:201|71:136,2,131.99999597168,12|8|0,1:3|1:0|0:0,0:0:0:0:
109,281,109857,1,4,3:0:0:0:
104,285,109950,1,8,1:0:0:0:
99,289,110041,1,0,1:0:0:0:
163,139,110225,5,8,1:0:0:0:
182,25,110409,1,2,3:0:0:0:
296,69,110593,1,12,1:3:0:0:
296,69,110685,1,0,0:0:0:0:
342,67,110777,1,4,3:0:0:0:
359,114,110869,1,8,0:3:0:0:
359,114,110961,1,8,1:0:0:0:
315,238,111145,1,8,3:0:0:0:
440,280,111329,5,4,3:0:0:0:
428,242,111421,1,8,1:0:0:0:
456,215,111513,1,2,1:3:0:0:
443,176,111605,1,0,0:0:0:0:
459,139,111697,1,8,1:0:0:0:
508,261,111882,1,2,3:0:0:0:
331,339,112066,5,4,1:2:0:0:
304,209,112250,1,12,1:3:0:0:
268,231,112342,1,0,0:0:0:0:
232,203,112434,1,8,1:0:0:0:
196,225,112526,1,8,3:0:0:0:
114,330,112710,1,0,1:0:0:0:
92,332,112802,5,2,3:0:0:0:
104,267,112894,1,8,1:0:0:0:
116,202,112986,1,4,3:0:0:0:
33,99,113170,1,8,1:0:0:0:
139,21,113354,1,2,3:0:0:0:
224,121,113538,6,0,L|241:207,1,65.9999979858399,4|0,1:3|0:0,0:0:0:0:
394,226,113722,2,0,L|377:312,1,65.9999979858399,4|0,1:3|0:0,0:0:0:0:
304,233,113906,5,8,1:0:0:0:
323,193,113998,1,0,0:0:0:0:
322,233,114090,5,8,1:0:0:0:
303,193,114182,1,0,1:0:0:0:
323,128,114274,5,0,0:0:0:0:
367,139,114366,1,8,1:3:0:0:
411,149,114458,1,8,1:0:0:0:
412,215,114550,5,0,0:0:0:0:
369,164,114642,1,8,1:0:0:0:
358,98,114734,1,4,3:0:0:0:
384,37,114826,1,4,1:2:0:0:
442,8,114918,1,0,0:0:0:0:
510,64,115010,5,4,1:0:0:0:
502,195,115194,1,0,0:0:0:0:
502,195,115286,1,2,3:0:0:0:
371,169,115470,1,0,0:0:0:0:
371,169,115562,1,2,3:0:0:0:
241,71,115747,5,2,3:0:0:0:
241,71,115839,1,4,3:0:0:0:
196,88,115931,1,0,1:0:0:0:
196,88,116023,1,2,3:0:0:0:
53,36,116207,1,0,0:0:0:0:
53,36,116299,1,2,3:0:0:0:
7,201,116483,5,4,1:3:0:0:
125,141,116667,1,4,3:0:0:0:
162,152,116759,1,2,3:0:0:0:
199,163,116851,1,8,1:0:0:0:
278,268,117035,1,8,1:3:0:0:
373,177,117219,1,2,3:0:0:0:
404,185,117311,1,4,3:0:0:0:
435,194,117403,1,0,1:0:0:0:
466,203,117495,1,0,0:0:0:0:
497,173,117587,5,8,1:0:0:0:
450,185,117679,1,0,0:0:0:0:
404,198,117771,1,8,1:0:0:0:
357,212,117863,1,0,1:0:0:0:
297,183,117955,5,4,1:0:0:0:
335,56,118139,1,0,0:0:0:0:
335,56,118231,1,2,3:0:0:0:
205,32,118415,1,0,0:0:0:0:
205,32,118507,1,2,3:0:0:0:
64,145,118691,5,2,3:0:0:0:
92,156,118783,1,4,3:0:0:0:
120,137,118875,1,0,1:0:0:0:
148,148,118967,1,2,3:0:0:0:
227,253,119151,1,0,0:0:0:0:
255,242,119243,1,2,3:0:0:0:
329,132,119428,5,4,1:3:0:0:
444,166,119612,1,4,3:0:0:0:
438,202,119704,1,0,1:0:0:0:
383,238,119796,1,8,1:0:0:0:
341,287,119888,1,0,0:0:0:0:
357,315,119980,1,8,1:3:0:0:
247,228,120164,5,4,3:0:0:0:
230,185,120256,1,0,1:0:0:0:
261,151,120348,1,8,1:0:0:0:
244,108,120440,1,0,0:0:0:0:
256,42,120532,5,8,1:0:0:0:
227,100,120624,5,0,3:0:0:0:
277,156,120716,5,0,1:0:0:0:
223,209,120808,5,0,1:0:0:0:
270,269,120900,5,2,1:0:0:0:
270,269,120992,2,0,B|344:311|344:311|434:226,1,197.99999395752,2|8,1:0|1:0,0:0:0:0:
469,283,121452,1,2,0:0:0:0:
239,340,121636,1,4,1:3:0:0:
200,360,121728,1,8,1:0:0:0:
169,333,121820,1,0,1:0:0:0:
130,353,121912,1,0,0:0:0:0:
120,367,122004,6,0,L|130:223,1,131.99999597168,8|0,1:0|0:0,0:0:0:0:
261,49,122372,5,2,1:0:0:0:
261,49,122464,2,0,L|277:260,1,197.99999395752,2|8,1:0|1:0,0:0:0:0:
210,215,122924,1,2,0:0:0:0:
335,118,123108,1,4,1:3:0:0:
366,152,123201,1,10,1:0:0:0:
404,126,123293,1,0,1:0:0:0:
435,160,123386,1,0,0:0:0:0:
444,171,123477,6,0,B|377:112|377:112|257:157,1,197.99999395752,10|0,1:0|0:0,0:0:0:0:
257,139,123845,6,0,L|271:215,1,65.9999979858399,2|0,1:0|0:0,1:1:0:0:
100,334,124029,2,0,L|125:192,1,131.99999597168,0|8,0:0|1:0,0:0:0:0:
89,209,124305,1,0,1:0:0:0:
55,218,124397,2,0,L|43:153,1,65.9999979858399,8|0,1:0|0:0,0:0:0:0:
130,69,124581,1,8,3:0:0:0:
170,59,124673,2,0,L|158:123,2,65.9999979858399,4|0|0,3:0|0:0|3:0,0:0:0:0:
236,77,124949,2,0,B|302:113|302:113|403:40,1,197.99999395752,8|0,1:0|0:0,0:0:0:0:
407,18,125317,6,0,L|413:93,1,65.9999979858399,2|0,1:0|0:0,1:1:0:0:
240,302,125501,2,0,L|253:160,1,131.99999597168,0|8,0:0|1:0,0:0:0:0:
284,188,125777,1,0,1:0:0:0:
314,204,125869,2,0,L|308:138,1,65.9999979858399,8|0,1:0|0:0,0:0:0:0:
473,168,126053,1,8,3:0:0:0:
432,177,126145,1,4,3:0:0:0:
397,183,126237,2,0,L|391:248,1,65.9999979858399,0|0,0:0|3:0,0:0:0:0:
433,297,126421,2,0,B|358:303|358:303|328:346|328:346|245:350,1,197.99999395752,8|0,1:0|0:0,0:0:0:0:
241,332,126789,5,2,1:0:0:0:
207,336,126882,2,0,L|224:262,1,65.9999979858399,0|0,0:0|0:0,0:0:0:0:
109,365,127066,1,0,1:0:0:0:
143,369,127158,2,0,L|126:295,1,65.9999979858399,8|0,1:0|1:0,0:0:0:0:
158,244,127342,2,0,L|166:164,1,65.9999979858399,8|0,1:0|0:0,0:0:0:0:
143,120,127526,1,8,3:0:0:0:
175,104,127618,1,4,3:0:0:0:
145,87,127710,1,8,1:0:0:0:
415,17,127894,6,0,B|345:92|345:92|387:194,1,197.99999395752,8|0,1:0|0:0,0:0:0:0:
408,178,128262,6,0,L|389:250,1,65.9999979858399,2|0,1:0|0:0,1:1:0:0:
196,356,128446,2,0,L|179:292,1,65.9999979858399,0|0,1:0|0:0,0:0:0:0:
256,209,128630,5,8,1:0:0:0:
291,234,128722,1,0,0:0:0:0:
255,233,128814,5,8,1:0:0:0:
290,208,128906,1,0,1:0:0:0:
267,146,128998,5,0,3:0:0:0:
208,154,129090,1,8,1:0:0:0:
149,162,129182,1,4,3:0:0:0:
202,119,129274,5,0,1:0:0:0:
213,183,129366,1,8,1:0:0:0:
224,247,129458,1,4,3:0:0:0:
236,311,129550,1,4,3:0:0:0:
307,337,129642,5,4,3:0:0:0:
307,337,129734,1,6,1:0:0:0:
364,297,129918,1,2,0:0:0:0:
395,306,130010,2,0,L|384:238,1,55,0|8,1:0|1:0,0:0:0:0:
318,245,130194,1,0,0:0:0:0:
287,254,130286,2,0,L|298:186,1,55,2|0,0:0|0:0,0:0:0:0:
367,177,130470,1,0,1:0:0:0:
398,186,130562,2,0,L|387:118,1,55,2|0,1:2|0:0,0:0:0:0:
314,123,130747,1,2,1:2:0:0:
283,132,130839,2,0,L|294:64,1,55,8|0,1:0|0:0,0:0:0:0:
369,59,131023,2,0,L|358:-9,1,55,2|0,0:0|0:0,0:0:0:0:
121,54,131207,5,2,1:0:0:0:
56,30,131391,1,2,0:0:0:0:
32,49,131483,2,0,L|48:118,1,55,0|8,1:0|1:0,0:0:0:0:
108,124,131667,1,0,0:0:0:0:
132,143,131759,2,0,L|116:212,1,55,2|0,0:0|0:0,0:0:0:0:
286,146,131943,1,0,1:0:0:0:
257,157,132035,2,0,L|205:108,1,55,8|4,1:0|1:3,0:0:0:0:
178,286,132219,1,0,0:0:0:0:
182,255,132311,2,0,L|249:234,1,55,8|0,1:0|0:0,0:0:0:0:
287,286,132495,2,0,L|354:306,1,55,4|0,1:3|0:0,0:0:0:0:
500,14,132679,5,6,1:0:0:0:
391,31,132863,1,2,0:0:0:0:
391,31,132955,1,0,1:0:0:0:
391,31,133047,1,8,1:0:0:0:
281,45,133231,1,2,0:0:0:0:
172,64,133415,1,0,1:0:0:0:
172,64,133507,1,2,1:2:0:0:
172,64,133599,1,0,0:0:0:0:
172,64,133691,1,2,1:2:0:0:
172,64,133783,1,8,1:0:0:0:
64,89,133967,1,2,0:0:0:0:
109,138,134151,6,0,L|105:207,1,55,0|0,1:0|0:0,0:0:0:0:
217,113,134335,2,0,L|213:182,1,55,0|0,1:0|0:0,0:0:0:0:
326,94,134520,2,0,L|322:163,1,55,8|0,1:0|1:0,0:0:0:0:
436,80,134704,2,0,L|432:149,1,55,8|0,1:0|1:0,0:0:0:0:
470,190,134888,5,2,1:0:0:0:
415,199,134980,1,0,1:0:0:0:
361,209,135072,1,0,0:0:0:0:
307,218,135164,1,2,1:0:0:0:
253,228,135256,1,8,1:0:0:0:
199,237,135348,1,0,0:0:0:0:
145,247,135440,1,10,1:0:0:0:
93,341,135624,5,0,1:0:0:0:
