osu file format v14

[General]
AudioFilename: audio.mp3
AudioLeadIn: 0
PreviewTime: 49944
Countdown: 0
SampleSet: Soft
StackLeniency: 0.7
Mode: 0
LetterboxInBreaks: 0
WidescreenStoryboard: 1

[Editor]
Bookmarks: 26478,38257,50036,61815,73594,79484,91263,103042,114821,126600,129545
DistanceSpacing: 0.8
BeatDivisor: 4
GridSize: 8
TimelineZoom: 2

[Metadata]
Title:Hide And Seek
TitleUnicode:Hide And Seek
Artist:James Landino
ArtistUnicode:James Landino
Creator:Mirash
Version:Easy
Source:
Tags:rlc noffy
BeatmapID:2036901
BeatmapSetID:972932

[Difficulty]
HPDrainRate:3
CircleSize:3
OverallDifficulty:3
ApproachRate:3
SliderMultiplier:1
SliderTickRate:1

[Events]
//Background and Video events
0,0,"vanlov.jpg",0,0
//Break Periods
//Storyboard Layer 0 (Background)
//Storyboard Layer 1 (Fail)
//Storyboard Layer 2 (Pass)
//Storyboard Layer 3 (Foreground)
//Storyboard Sound Samples

[TimingPoints]
165,368.098159509202,4,2,1,60,1,0
1264,-100,4,2,1,40,0,0
1816,-100,4,2,1,50,0,0
14699,-100,4,2,1,50,0,0
19116,-100,4,2,1,50,0,0
50036,-100,4,2,1,60,0,0
73594,-100,4,2,1,50,0,0
79116,-100,4,2,1,30,0,0
79484,-100,4,2,1,60,0,0
129545,-100,4,2,1,50,0,0

[Colours]
Combo1 : 129,134,121
Combo2 : 36,147,166
Combo3 : 99,173,146
Combo4 : 179,121,15

[HitObjects]
312,30,165,6,0,L|156:59,1,150
86,185,1269,1,2,0:0:0:0:
256,192,1454,12,4,3110,1:0:0:0:
397,129,4214,5,8,1:0:0:0:
308,82,4582,2,0,L|211:104,1,100,0|8,1:0|1:0,0:0:0:0:
113,78,5318,1,0,0:0:0:0:
53,158,5686,1,8,1:0:0:0:
118,233,6054,6,0,L|215:211,2,100,0|8|0,1:0|1:0|0:0,0:0:0:0:
88,328,7159,1,8,1:0:0:0:
183,357,7527,2,0,L|186:295,2,50,4|4|8,1:3|1:3|1:0,0:0:0:0:
282,361,8263,2,0,P|339:340|379:302,1,100,2|0,1:0|1:0,0:0:0:0:
340,219,8999,6,0,P|336:154|335:93,1,100,6|8,1:0|1:0,0:0:0:0:
254,60,9735,1,0,1:0:0:0:
188,135,10103,1,8,1:0:0:0:
107,75,10471,2,0,P|35:96|17:125,1,100,2|8,1:0|1:0,0:0:0:0:
29,213,11208,1,0,0:0:0:0:
116,262,11576,1,8,1:0:0:0:
195,201,11944,6,0,L|304:213,2,100,6|8|0,1:0|1:0|1:0,0:0:0:0:
116,262,13048,1,8,1:0:0:0:
180,338,13416,1,0,1:0:0:0:
275,308,13784,2,0,L|291:370,2,50,8|8|2,1:0|1:0|1:0,0:0:0:0:
294,211,14521,1,8,1:0:0:0:
203,167,14889,6,0,P|205:100|321:50,1,200,4|0,1:0|1:0,0:0:0:0:
407,80,15993,1,0,0:0:0:0:
377,175,16361,2,0,P|382:240|386:278,1,100,4|8,1:3|1:0,0:0:0:0:
321,351,17097,2,0,P|256:338|199:314,2,100,0|8|4,0:0|1:0|1:2,0:0:0:0:
420,363,18202,5,8,1:0:0:0:
477,281,18570,1,0,0:0:0:0:
420,198,18938,1,8,1:0:0:0:
320,209,19306,2,0,L|102:228,1,200,4|4,1:2|3:0,0:0:0:0:
41,165,20410,1,8,1:0:0:0:
90,77,20778,6,0,L|217:101,1,100,4|8,1:0|1:0,0:0:0:0:
276,48,21514,1,0,0:0:0:0:
356,107,21883,1,8,1:0:0:0:
440,53,22251,2,0,P|477:114|472:159,1,100,4|8,1:3|1:0,0:0:0:0:
390,191,22987,2,0,P|363:237|365:298,1,100,0|8,0:0|1:0,0:0:0:0:
382,380,23723,6,0,P|445:345|462:206,1,200,4|2,1:2|1:0,0:0:0:0:
420,140,24827,1,10,1:0:0:0:
336,84,25195,2,0,P|267:111|181:227,1,200,4|4,1:2|3:0,0:0:0:0:
175,305,26300,1,8,1:0:0:0:
269,346,26668,6,0,L|397:323,2,100,4|8|4,1:0|1:0|3:0,0:0:0:0:
169,341,27772,1,8,1:0:0:0:
70,358,28140,2,0,P|73:291|67:211,1,100,4|8,1:3|1:0,0:0:0:0:
12,177,28876,2,0,P|48:138|103:114,2,100,4|8|4,3:0|1:0|1:0,0:0:0:0:
71,258,29981,5,2,0:0:0:0:
162,217,30349,1,2,0:0:0:0:
250,263,30717,1,2,0:0:0:0:
331,204,31085,2,0,L|451:228,2,100,2|8|2,1:0|1:0|1:0,0:0:0:0:
250,263,32189,1,10,1:0:0:0:
162,217,32557,6,0,L|42:241,2,100,4|8|4,1:0|1:0|3:0,0:0:0:0:
250,263,33662,1,8,1:0:0:0:
278,167,34030,2,0,P|283:108|404:47,1,200,4|4,1:3|3:0,0:0:0:0:
475,106,35134,1,8,1:0:0:0:
430,195,35502,6,0,P|412:260|398:332,1,100,6|8,1:0|1:0,0:0:0:0:
315,336,36238,2,0,P|303:287|290:239,1,100,4|8,3:0|1:0,0:0:0:0:
195,272,36975,1,4,1:2:0:0:
116,209,37343,2,0,P|113:151|101:101,1,100,8|4,1:0|3:0,0:0:0:0:
197,76,38079,1,4,1:3:0:0:
213,174,38447,6,0,P|308:150|351:109,2,150,6|2|2,1:0|0:1|1:3,0:0:0:0:
114,156,39919,1,4,1:3:0:0:
65,243,40287,1,2,1:0:0:0:
138,311,40656,2,0,P|191:289|241:286,1,100,2|0,0:1|1:0,0:0:0:0:
313,226,41392,5,4,1:2:0:0:
374,305,41760,1,2,1:0:0:0:
453,244,42128,2,0,P|432:192|456:44,1,200,0|4,1:0|1:3,0:0:0:0:
351,42,43232,1,0,1:0:0:0:
293,123,43600,2,0,L|175:103,1,100,2|2,1:0|1:0,0:0:0:0:
102,67,44336,6,0,B|116:140|116:140|85:188|85:188|105:273,1,200,4|0,1:0|1:0,0:0:0:0:
182,313,45441,1,8,1:0:0:0:
281,314,45809,2,0,B|296:247|296:247|265:199|265:199|279:126,1,200,4|0,1:2|1:0,0:0:0:0:
363,71,46913,1,8,1:0:0:0:
456,107,47281,6,0,P|503:141|493:271,1,200,4|4,3:0|3:0,0:0:0:0:
398,300,48386,1,4,3:0:0:0:
359,207,48754,2,0,L|373:135,2,50,4|4|8,1:0|1:3|1:0,0:0:0:0:
272,257,49490,2,0,L|256:359,1,100,4|2,3:0|1:3,0:0:0:0:
156,359,50226,6,0,P|100:338|82:271,1,100,4|8,1:0|1:0,0:0:0:0:
135,220,50962,1,12,3:0:0:0:
76,138,51330,2,0,L|35:86,2,50,8|2|12,1:0|3:0|1:3,0:0:0:0:
174,119,52067,2,0,L|301:147,1,100,8|4,1:0|3:0,0:0:0:0:
365,104,52803,1,8,1:0:0:0:
444,164,53171,6,0,P|408:233|392:270,1,100,4|8,1:2|1:0,0:0:0:0:
299,257,53907,1,2,3:0:0:0:
212,206,54275,1,8,1:0:0:0:
212,106,54643,2,0,P|158:53|28:87,1,200,4|2,1:3|3:0,0:0:0:0:
19,168,55748,1,8,1:0:0:0:
105,217,56116,6,0,L|119:323,1,100,4|8,1:0|1:0,0:0:0:0:
207,360,56852,1,4,3:0:0:0:
289,303,57220,2,0,L|351:325,2,50,8|2|4,1:0|3:0|1:3,0:0:0:0:
224,227,57956,2,0,L|239:114,1,100,8|4,1:0|3:0,0:0:0:0:
315,65,58692,1,8,1:0:0:0:
399,118,59060,6,0,P|453:155|457:302,1,200,4|2,1:2|3:0,0:0:0:0:
370,297,60165,1,8,1:0:0:0:
298,226,60533,2,0,L|179:255,1,100,4|8,1:3|1:0,0:0:0:0:
101,235,61269,1,0,0:0:0:0:
60,143,61637,1,8,1:0:0:0:
136,78,62005,6,0,L|267:96,1,100,4|0,1:0|0:0,0:0:0:0:
303,164,62741,2,0,L|172:182,1,100,2|0,3:0|0:0,0:0:0:0:
134,249,63478,2,0,L|265:267,1,100,4|0,1:3|0:0,0:0:0:0:
256,359,64214,1,2,3:0:0:0:
349,324,64582,1,8,1:0:0:0:
413,247,64950,6,0,L|282:229,1,100,4|0,1:0|0:0,0:0:0:0:
246,161,65686,2,0,L|377:143,1,100,2|0,3:0|0:0,0:0:0:0:
415,76,66423,2,0,L|284:58,1,100,4|8,1:3|1:0,0:0:0:0:
231,8,67159,1,4,3:0:0:0:
144,58,67527,1,8,1:0:0:0:
44,45,67895,6,0,P|60:122|70:260,1,200,2|4,1:0|1:3,0:0:0:0:
151,301,68999,1,8,1:0:0:0:
225,234,69367,2,0,L|339:268,2,100,2|8|4,1:0|1:0|1:3,0:0:0:0:
150,167,70471,1,10,1:0:0:0:
208,85,70840,6,0,P|258:67|363:163,1,200,2|8,1:0|3:0,0:0:0:0:
412,236,71944,1,8,1:0:0:0:
373,328,72312,2,0,L|496:362,2,100,2|8|0,1:0|1:0|3:0,0:0:0:0:
278,295,73416,1,8,1:0:0:0:
191,344,73784,6,0,B|185:292|185:292|201:248|201:248|190:174,2,150,4|2|8,1:0|0:0|0:0,0:0:0:0:
91,333,75257,1,0,1:0:0:0:
54,239,75625,1,8,0:0:0:0:
101,151,75993,2,0,P|135:117|162:55,1,100,0|8,0:0|0:0,0:0:0:0:
239,13,76729,6,0,B|297:68|297:68|384:26,2,150,0|2|8,1:0|0:0|0:0,0:0:0:0:
140,32,78202,2,0,L|152:113,2,50,0|0|12,1:0|1:0|0:0,0:0:0:0:
15,188,79306,1,2,0:0:0:0:
97,244,79674,6,0,L|236:222,1,100,4|8,1:0|1:0,0:0:0:0:
286,271,80410,1,4,3:0:0:0:
345,190,80778,1,8,1:0:0:0:
257,142,81146,2,0,P|259:93|252:23,2,100,4|8|0,1:2|1:0|1:0,0:0:0:0:
186,212,82251,1,8,1:0:0:0:
266,271,82619,6,0,P|348:267|404:159,1,200,0|4,1:0|3:0,0:0:0:0:
349,90,83723,1,8,1:0:0:0:
448,76,84091,2,0,P|469:101|506:123,2,50,4|4|8,1:3|1:3|1:0,0:0:0:0:
388,0,84827,2,0,P|308:18|253:137,1,200,4|4,3:0|1:0,0:0:0:0:
152,106,85932,5,2,1:2:0:0:
120,196,86300,2,0,L|149:319,1,100,4|8,3:0|1:0,0:0:0:0:
214,363,87036,1,4,1:2:0:0:
243,267,87404,2,0,P|294:258|370:257,2,100,8|4|8,1:0|3:0|1:0,0:0:0:0:
143,294,88508,6,0,P|107:252|137:105,1,200,4|4,1:2|3:0,0:0:0:0:
101,19,89613,1,8,1:0:0:0:
199,35,89981,2,0,P|252:45|316:52,2,100,4|2|4,1:2|1:2|1:3,0:0:0:0:
101,19,91085,1,8,1:0:0:0:
124,116,91453,6,0,P|135:196|144:250,1,100,4|8,1:0|1:0,0:0:0:0:
228,257,92189,2,0,P|235:207|242:157,1,100,4|8,3:0|1:0,0:0:0:0:
306,81,92925,2,0,L|436:116,1,100,4|8,1:3|1:0,0:0:0:0:
452,194,93662,2,0,L|355:219,1,100,4|8,3:0|1:0,0:0:0:0:
313,309,94398,6,0,L|203:278,1,100,4|8,1:3|1:0,0:0:0:0:
143,350,95134,1,4,3:0:0:0:
62,290,95502,1,8,1:0:0:0:
62,190,95870,2,0,B|117:208|117:208|187:174|187:174|250:193,1,200,4|4,1:3|1:2,0:0:0:0:
339,234,96975,1,8,1:0:0:0:
397,152,97343,6,0,P|350:119|278:131,1,100,4|0,1:0|0:0,0:0:0:0:
245,195,98079,2,0,P|195:194|150:173,1,100,0|8,1:0|1:0,0:0:0:0:
94,90,98815,1,4,1:2:0:0:
174,31,99183,1,8,1:0:0:0:
273,19,99551,2,0,P|280:94|293:137,1,100,4|8,1:2|1:0,0:0:0:0:
257,213,100287,6,0,B|163:209|189:120|86:121,1,200,4|0,1:0|1:0,0:0:0:0:
15,52,101392,1,8,1:3:0:0:
110,23,101760,2,0,L|233:52,1,100,4|8,1:0|1:0,0:0:0:0:
261,130,102496,1,8,1:0:0:0:
356,100,102864,1,4,1:3:0:0:
439,155,103232,6,0,P|477:203|481:272,2,100,4|8|12,1:0|1:0|3:0,0:0:0:0:
376,233,104336,1,8,1:0:0:0:
284,195,104705,2,0,L|150:225,1,100,12|8,1:3|1:0,0:0:0:0:
91,186,105441,1,4,3:0:0:0:
107,87,105809,1,8,1:0:0:0:
201,53,106177,6,0,P|261:77|300:136,1,100,4|8,1:2|1:0,0:0:0:0:
383,111,106913,1,2,3:0:0:0:
373,210,107281,1,8,1:0:0:0:
273,205,107649,2,0,P|162:217|54:253,1,200,12|2,1:3|3:0,0:0:0:0:
28,330,108754,1,8,1:0:0:0:
126,345,109122,6,0,P|186:332|246:330,1,100,4|8,1:0|1:0,0:0:0:0:
319,297,109858,1,4,3:0:0:0:
395,232,110226,2,0,P|426:293|449:329,2,100,8|12|8,1:0|1:3|1:0,0:0:0:0:
298,205,111330,1,4,3:0:0:0:
219,143,111698,1,8,1:0:0:0:
269,56,112067,6,0,P|363:66|407:55,1,100,4|8,1:2|1:0,0:0:0:0:
459,26,112803,1,2,3:0:0:0:
480,123,113171,2,0,P|460:171|457:232,1,100,8|4,1:0|1:3,0:0:0:0:
404,304,113907,1,8,1:0:0:0:
330,236,114275,2,0,P|257:234|222:226,1,100,0|8,0:0|1:0,0:0:0:0:
144,278,115011,6,0,P|126:226|125:61,1,200,4|2,1:0|3:0,0:0:0:0:
196,16,116116,1,0,0:0:0:0:
269,83,116484,2,0,L|344:66,2,50,4|4|8,1:3|3:0|1:0,0:0:0:0:
232,176,117220,1,2,3:0:0:0:
323,216,117588,1,8,1:0:0:0:
378,133,117956,6,0,P|405:187|414:336,1,200,4|2,1:0|3:0,0:0:0:0:
317,338,119060,1,8,1:0:0:0:
247,265,119429,2,0,L|196:280,2,50,4|4|8,1:3|3:0|1:0,0:0:0:0:
240,165,120165,1,4,3:0:0:0:
141,148,120533,1,8,1:0:0:0:
59,206,120901,6,0,P|27:140|49:79,1,100,2|8,1:0|1:0,0:0:0:0:
85,33,121637,2,0,L|227:49,1,100,4|8,1:3|1:0,0:0:0:0:
257,111,122373,1,2,1:0:0:0:
336,50,122741,1,8,1:0:0:0:
429,84,123109,2,0,P|421:147|423:191,1,100,4|10,1:3|1:0,0:0:0:0:
329,222,123846,5,2,1:0:0:0:
331,321,124214,2,0,P|398:344|464:329,2,100,8|8|8,1:0|3:0|1:0,0:0:0:0:
235,290,125318,1,2,1:0:0:0:
160,356,125686,2,0,P|123:306|105:252,1,100,8|8,1:0|3:0,0:0:0:0:
177,197,126422,1,8,1:0:0:0:
136,105,126790,6,0,L|151:50,2,50,2|4|8,1:0|3:0|1:0,0:0:0:0:
55,165,127527,1,8,3:0:0:0:
47,264,127895,1,8,1:0:0:0:
145,278,128263,2,0,P|237:250|280:149,1,200,2|4,1:0|3:0,0:0:0:0:
245,67,129367,1,8,1:0:0:0:
329,13,129735,6,0,L|429:42,1,100,6|8,1:0|1:0,0:0:0:0:
492,115,130471,1,0,1:0:0:0:
446,204,130840,1,8,1:0:0:0:
354,164,131208,2,0,P|304:177|250:217,1,100,2|8,1:0|1:0,0:0:0:0:
224,294,131944,2,0,P|170:281|131:245,1,100,0|8,1:0|1:0,0:0:0:0:
47,207,132680,5,6,1:0:0:0:
63,108,133048,2,0,L|176:137,1,100,8|0,1:0|1:0,0:0:0:0:
256,114,133784,1,8,1:0:0:0:
345,157,134152,2,0,L|435:147,2,50,0|0|8,1:0|1:0|1:0,0:0:0:0:
290,241,134889,2,0,B|240:234|240:234|161:293|161:293|76:282,1,200,2|0,1:0|1:0,0:0:0:0:
