osu file format v14

[General]
AudioFilename: audio.mp3
AudioLeadIn: 0
PreviewTime: 52828
Countdown: 0
SampleSet: Soft
StackLeniency: 0.7
Mode: 3
LetterboxInBreaks: 0
SpecialStyle: 0
WidescreenStoryboard: 1

[Editor]
Bookmarks: 183,15666,28053,40441,52828,65215,77602,89989,102376,114763,127150,139537,145731
DistanceSpacing: 1
BeatDivisor: 4
GridSize: 32
TimelineZoom: 2.1

[Metadata]
Title:Arsene's Bazaar
TitleUnicode:Arsene's Bazaar
Artist:James Landino
ArtistUnicode:James Landino
Creator:Hytex
Version:Ucitysm's Hard
Source:Twin Trials
Tags:osu! original fa featured artist collection vol. 2 album jeff ball rare drop symphonic distribution indoroid tigerinity ucitysm instrumental electronic new age classic piano violin collab collaboration duo contest olsen's olsens shipmates mg mappers' guild
BeatmapID:4092599
BeatmapSetID:1972324

[Difficulty]
HPDrainRate:7.5
CircleSize:4
OverallDifficulty:7.5
ApproachRate:5
SliderMultiplier:1.4
SliderTickRate:1

[Events]
//Background and Video events
0,0,"95638711_p0.jpg",0,0
//Break Periods
//Storyboard Layer 0 (Background)
//Storyboard Layer 1 (Fail)
//Storyboard Layer 2 (Pass)
//Storyboard Layer 3 (Foreground)
//Storyboard Layer 4 (Overlay)
//Storyboard Sound Samples
Sample,52441,0,"kick_minor.wav",40
Sample,52634,0,"kick_minor.wav",40
Sample,57860,0,"kick_minor.wav",40
Sample,58634,0,"kick_minor.wav",40
Sample,70247,0,"kick_minor.wav",40
Sample,71021,0,"kick_minor.wav",40
Sample,83795,0,"cymbal_dramatic.wav",70
Sample,84182,0,"kick_minor.wav",40
Sample,84957,0,"kick_minor.wav",40
Sample,85731,0,"kick_minor.wav",40
Sample,86505,0,"kick_minor.wav",40
Sample,87279,0,"kick_minor.wav",40
Sample,88053,0,"kick_minor.wav",40
Sample,88828,0,"snare.wav",100
Sample,88828,0,"kick_minor.wav",40
Sample,119795,0,"kick_minor.wav",40
Sample,120570,0,"kick_minor.wav",40
Sample,132182,0,"kick_minor.wav",40
Sample,132957,0,"kick_minor.wav",40
Sample,139150,0,"kick_minor.wav",40
Sample,139344,0,"kick_minor.wav",40

[TimingPoints]
183,387.096774193548,4,2,1,50,1,0
183,-100.0,4,2,1,50,0,1
12570,-100.0,4,2,1,50,0,0
52828,-100.0,4,2,1,50,0,1
62118,-100.0,4,2,1,50,0,0
65215,-100.0,4,2,1,50,0,1
77602,-100.0,4,2,1,50,0,0
114763,-100.0,4,2,1,50,0,1
124053,-100.0,4,2,1,50,0,0
127150,-100.0,4,2,1,50,0,1
145731,-100.0,4,2,1,50,0,0

[HitObjects]
320,192,183,1,0,0:0:0:70:kick.wav
448,192,183,1,0,0:0:0:70:cymbal_dramatic.wav
448,192,376,1,0,0:0:0:0:
64,192,570,1,0,0:0:0:100:snare.wav
192,192,570,1,0,0:0:0:0:
320,192,666,1,0,0:0:0:0:
448,192,763,1,0,0:0:0:0:
192,192,860,1,0,0:0:0:0:
320,192,1053,1,0,0:0:0:0:
64,192,1150,1,0,0:0:0:0:
320,192,1344,1,0,0:0:0:100:snare.wav
448,192,1344,1,0,0:0:0:0:
192,192,1441,1,0,0:0:0:0:
64,192,1537,1,0,0:0:0:0:
320,192,1634,1,0,0:0:0:0:
192,192,1828,1,0,0:0:0:0:
448,192,1924,1,0,0:0:0:0:
64,192,2118,1,0,0:0:0:100:snare.wav
192,192,2118,1,0,0:0:0:0:
320,192,2215,1,0,0:0:0:0:
64,192,2312,1,0,0:0:0:0:
448,192,2408,1,0,0:0:0:0:
192,192,2602,1,0,0:0:0:0:
320,192,2699,1,0,0:0:0:0:
64,192,2892,1,0,0:0:0:100:snare.wav
448,192,2892,1,0,0:0:0:0:
320,192,2989,1,0,0:0:0:0:
192,192,3086,1,0,0:0:0:0:
448,192,3279,1,0,0:0:0:70:kick.wav
448,192,3473,1,0,0:0:0:0:
64,192,3666,1,0,0:0:0:100:snare.wav
192,192,3666,1,0,0:0:0:0:
320,192,3763,1,0,0:0:0:0:
448,192,3860,1,0,0:0:0:0:
192,192,3957,1,0,0:0:0:0:
320,192,4150,1,0,0:0:0:0:
64,192,4247,1,0,0:0:0:0:
320,192,4441,1,0,0:0:0:100:snare.wav
448,192,4441,1,0,0:0:0:0:
192,192,4537,1,0,0:0:0:0:
64,192,4634,1,0,0:0:0:0:
448,192,4828,1,0,0:0:0:70:kick.wav
320,192,5021,1,0,0:0:0:40:kick_minor.wav
192,192,5118,1,0,0:0:0:40:kick_minor.wav
320,192,5215,1,0,0:0:0:100:snare.wav
448,192,5215,1,0,0:0:0:40:kick_minor.wav
64,192,5408,1,0,0:0:0:40:kick_minor.wav
192,192,5505,1,0,0:0:0:40:kick_minor.wav
448,192,5699,1,0,0:0:0:40:kick_minor.wav
64,192,5892,1,0,0:0:0:40:kick_minor.wav
320,192,5989,1,0,0:0:0:100:snare.wav
448,192,5989,1,0,0:0:0:40:kick_minor.wav
192,192,6182,1,0,0:0:0:40:kick_minor.wav
64,192,6279,1,0,0:0:0:0:
320,192,6376,1,0,0:0:0:70:kick.wav
448,192,6376,1,0,0:0:0:70:cymbal_dramatic.wav
448,192,6570,1,0,0:0:0:0:
64,192,6763,1,0,0:0:0:100:snare.wav
192,192,6763,1,0,0:0:0:0:
320,192,6860,1,0,0:0:0:0:
448,192,6957,1,0,0:0:0:0:
192,192,7053,1,0,0:0:0:0:
320,192,7247,1,0,0:0:0:0:
64,192,7344,1,0,0:0:0:0:
320,192,7537,1,0,0:0:0:100:snare.wav
448,192,7537,1,0,0:0:0:0:
192,192,7634,1,0,0:0:0:0:
64,192,7731,1,0,0:0:0:0:
320,192,7828,1,0,0:0:0:0:
192,192,8021,1,0,0:0:0:0:
448,192,8118,1,0,0:0:0:0:
64,192,8312,1,0,0:0:0:100:snare.wav
192,192,8312,1,0,0:0:0:0:
320,192,8408,1,0,0:0:0:0:
64,192,8505,1,0,0:0:0:0:
448,192,8602,1,0,0:0:0:0:
192,192,8795,1,0,0:0:0:0:
320,192,8892,1,0,0:0:0:0:
64,192,9086,1,0,0:0:0:100:snare.wav
448,192,9086,1,0,0:0:0:0:
320,192,9182,1,0,0:0:0:0:
192,192,9279,1,0,0:0:0:0:
320,192,9473,1,0,0:0:0:70:kick.wav
448,192,9473,1,0,0:0:0:70:cymbal2.wav
192,192,9763,1,0,0:0:0:70:kick.wav
320,192,9763,1,0,0:0:0:70:cymbal3.wav
64,192,10053,128,0,10441:0:0:0:70:kick.wav
192,192,10053,1,0,0:0:0:70:cymbal_dramatic.wav
320,192,10441,1,0,0:0:0:0:
192,192,10634,1,0,0:0:0:100:snare.wav
448,192,10828,1,0,0:0:0:40:kick_minor.wav
320,192,10924,1,0,0:0:0:40:kick_minor.wav
64,192,11021,1,0,0:0:0:70:kick.wav
192,192,11021,1,0,0:0:0:70:cymbal2.wav
192,192,11312,1,0,0:0:0:70:kick.wav
320,192,11312,1,0,0:0:0:70:cymbal3.wav
320,192,11602,1,0,0:0:0:70:kick.wav
448,192,11602,128,0,11989:0:0:0:70:cymbal_dramatic.wav
64,192,11989,1,0,0:0:0:0:
320,192,12182,1,0,0:0:0:100:snare.wav
192,192,12279,1,0,0:0:0:100:snare.wav
448,192,12376,1,0,0:0:0:100:snare.wav
64,192,12473,1,0,0:0:0:100:snare.wav
320,192,12570,1,0,0:0:0:70:kick.wav
448,192,12570,1,0,0:0:0:70:cymbal_dramatic.wav
448,192,15279,1,0,0:0:0:0:
320,192,15376,1,0,0:0:0:0:
64,192,15473,1,0,0:0:0:0:
192,192,15570,1,0,0:0:0:0:
320,192,15666,1,0,0:0:0:70:kick.wav
448,192,15666,1,0,0:0:0:70:cymbal_dramatic.wav
64,192,15860,1,0,0:0:0:0:
320,192,16053,1,0,0:0:0:0:
192,192,16247,1,0,0:0:0:0:
448,192,16634,1,0,0:0:0:0:
192,192,16731,1,0,0:0:0:0:
64,192,16828,1,0,0:0:0:0:
192,192,17021,1,0,0:0:0:0:
448,192,17408,1,0,0:0:0:0:
64,192,17602,1,0,0:0:0:0:
320,192,17795,128,0,18182:0:0:0:0:
192,192,18182,1,0,0:0:0:0:
64,192,18570,1,0,0:0:0:0:
320,192,18666,1,0,0:0:0:0:
448,192,18763,1,0,0:0:0:0:
320,192,18957,1,0,0:0:0:0:
64,192,19150,1,0,0:0:0:0:
448,192,19344,1,0,0:0:0:0:
192,192,19731,1,0,0:0:0:0:
320,192,19924,1,0,0:0:0:0:
64,192,20118,1,0,0:0:0:0:
448,192,20505,1,0,0:0:0:0:
192,192,20699,1,0,0:0:0:0:
320,192,20892,128,0,21279:0:0:0:0:
192,192,21279,1,0,0:0:0:0:
448,192,21473,1,0,0:0:0:0:
320,192,21570,1,0,0:0:0:0:
64,192,21666,1,0,0:0:0:0:
192,192,21763,1,0,0:0:0:0:
448,192,21860,1,0,0:0:0:0:
64,192,22053,1,0,0:0:0:0:
320,192,22247,1,0,0:0:0:0:
192,192,22441,1,0,0:0:0:0:
64,192,22828,1,0,0:0:0:0:
320,192,23021,1,0,0:0:0:0:
448,192,23215,128,0,23602:0:0:0:0:
64,192,23602,1,0,0:0:0:0:
320,192,23795,1,0,0:0:0:0:
192,192,23989,128,0,24376:0:0:0:0:
64,192,24376,1,0,0:0:0:0:
448,192,24570,1,0,0:0:0:0:
320,192,24666,1,0,0:0:0:0:
64,192,24763,1,0,0:0:0:0:
192,192,24860,1,0,0:0:0:0:
448,192,24957,1,0,0:0:0:0:
64,192,25150,1,0,0:0:0:0:
192,192,25247,1,0,0:0:0:0:
320,192,25344,1,0,0:0:0:0:
192,192,25537,1,0,0:0:0:0:
320,192,25634,1,0,0:0:0:0:
448,192,25731,1,0,0:0:0:0:
64,192,25924,1,0,0:0:0:0:
320,192,26118,1,0,0:0:0:0:
192,192,26312,1,0,0:0:0:0:
64,192,26505,1,0,0:0:0:0:
320,192,26699,1,0,0:0:0:0:
448,192,27086,128,0,27473:0:0:0:0:
192,192,27473,1,0,0:0:0:0:
64,192,27860,1,0,0:0:0:0:
192,192,27957,1,0,0:0:0:0:
320,192,28053,1,0,0:0:0:70:kick.wav
448,192,28053,1,0,0:0:0:70:cymbal_dramatic.wav
192,192,28247,1,0,0:0:0:0:
64,192,28441,1,0,0:0:0:100:snare.wav
448,192,28441,1,0,0:0:0:0:
320,192,28634,1,0,0:0:0:0:
448,192,29021,1,0,0:0:0:70:kick.wav
192,192,29118,1,0,0:0:0:0:
64,192,29215,1,0,0:0:0:100:snare.wav
320,192,29215,1,0,0:0:0:0:
192,192,29408,1,0,0:0:0:0:
320,192,29602,1,0,0:0:0:70:kick.wav
448,192,29795,1,0,0:0:0:0:
64,192,29989,1,0,0:0:0:100:snare.wav
192,192,29989,1,0,0:0:0:0:
320,192,30182,128,0,30570:0:0:0:0:
192,192,30570,1,0,0:0:0:70:kick.wav
320,192,30763,1,0,0:0:0:100:snare.wav
448,192,30763,1,0,0:0:0:0:
64,192,30957,1,0,0:0:0:0:
320,192,31053,1,0,0:0:0:0:
448,192,31150,1,0,0:0:0:70:kick.wav
320,192,31344,1,0,0:0:0:0:
64,192,31537,1,0,0:0:0:100:snare.wav
192,192,31537,1,0,0:0:0:0:
448,192,31731,1,0,0:0:0:0:
192,192,32118,1,0,0:0:0:70:kick.wav
320,192,32312,1,0,0:0:0:100:snare.wav
448,192,32312,1,0,0:0:0:0:
64,192,32505,1,0,0:0:0:0:
192,192,32699,1,0,0:0:0:70:kick.wav
448,192,32892,1,0,0:0:0:0:
64,192,33086,1,0,0:0:0:100:snare.wav
192,192,33086,1,0,0:0:0:0:
320,192,33279,128,0,33666:0:0:0:0:
192,192,33666,1,0,0:0:0:70:kick.wav
64,192,33860,1,0,0:0:0:100:snare.wav
448,192,33860,1,0,0:0:0:0:
320,192,33957,1,0,0:0:0:0:
192,192,34053,1,0,0:0:0:70:kick.wav
64,192,34150,1,0,0:0:0:0:
320,192,34247,1,0,0:0:0:70:kick.wav
448,192,34247,1,0,0:0:0:70:cymbal_dramatic.wav
192,192,34441,1,0,0:0:0:0:
64,192,34634,1,0,0:0:0:100:snare.wav
448,192,34634,1,0,0:0:0:0:
320,192,34828,1,0,0:0:0:0:
64,192,35215,1,0,0:0:0:70:kick.wav
192,192,35408,1,0,0:0:0:100:snare.wav
320,192,35408,1,0,0:0:0:0:
448,192,35602,128,0,35989:0:0:0:0:
192,192,35795,1,0,0:0:0:70:kick.wav
64,192,35989,1,0,0:0:0:0:
320,192,36182,1,0,0:0:0:100:snare.wav
448,192,36182,1,0,0:0:0:0:
192,192,36376,128,0,36763:0:0:0:0:
64,192,36763,1,0,0:0:0:70:kick.wav
320,192,36957,1,0,0:0:0:100:snare.wav
448,192,36957,1,0,0:0:0:0:
64,192,37053,1,0,0:0:0:0:
320,192,37150,1,0,0:0:0:0:
192,192,37247,1,0,0:0:0:0:
448,192,37344,1,0,0:0:0:70:kick.wav
64,192,37537,1,0,0:0:0:0:
192,192,37634,1,0,0:0:0:0:
320,192,37731,1,0,0:0:0:100:snare.wav
448,192,37731,1,0,0:0:0:0:
192,192,37924,1,0,0:0:0:0:
320,192,38021,1,0,0:0:0:0:
448,192,38118,1,0,0:0:0:0:
64,192,38312,1,0,0:0:0:70:kick.wav
320,192,38505,1,0,0:0:0:100:snare.wav
448,192,38505,1,0,0:0:0:0:
192,192,38699,1,0,0:0:0:0:
64,192,38892,1,0,0:0:0:70:kick.wav
320,192,39086,1,0,0:0:0:70:kick.wav
448,192,39086,1,0,0:0:0:70:cymbal3.wav
64,192,39473,1,0,0:0:0:70:kick.wav
320,192,39473,128,0,39860:0:0:0:70:cymbal2.wav
192,192,39860,1,0,0:0:0:70:kick.wav
448,192,40053,1,0,0:0:0:40:kick_minor.wav
192,192,40150,1,0,0:0:0:40:kick_minor.wav
320,192,40247,1,0,0:0:0:40:kick_minor.wav
64,192,40344,1,0,0:0:0:40:kick_minor.wav
320,192,40441,1,0,0:0:0:70:kick.wav
448,192,40441,1,0,0:0:0:70:cymbal_dramatic.wav
192,192,40537,1,0,0:0:0:0:
448,192,40634,1,0,0:0:0:0:
320,192,40731,1,0,0:0:0:0:
64,192,40828,1,0,0:0:0:100:snare.wav
192,192,40828,1,0,0:0:0:0:
448,192,41021,1,0,0:0:0:0:
64,192,41118,1,0,0:0:0:0:
192,192,41215,1,0,0:0:0:70:kick.wav
448,192,41312,1,0,0:0:0:0:
64,192,41602,1,0,0:0:0:100:snare.wav
448,192,41602,1,0,0:0:0:0:
320,192,41699,1,0,0:0:0:0:
192,192,41795,1,0,0:0:0:0:
64,192,41892,1,0,0:0:0:0:
448,192,41989,1,0,0:0:0:70:kick.wav
192,192,42182,1,0,0:0:0:0:
448,192,42279,1,0,0:0:0:0:
64,192,42376,1,0,0:0:0:100:snare.wav
320,192,42376,1,0,0:0:0:0:
192,192,42473,1,0,0:0:0:0:
448,192,42763,128,0,43150:0:0:0:70:kick.wav
64,192,43150,1,0,0:0:0:100:snare.wav
192,192,43150,1,0,0:0:0:0:
320,192,43537,1,0,0:0:0:70:kick.wav
192,192,43634,1,0,0:0:0:0:
64,192,43731,1,0,0:0:0:0:
320,192,43828,1,0,0:0:0:0:
192,192,43924,1,0,0:0:0:100:snare.wav
448,192,43924,1,0,0:0:0:0:
64,192,44118,1,0,0:0:0:0:
192,192,44215,1,0,0:0:0:0:
448,192,44312,1,0,0:0:0:70:kick.wav
64,192,44408,1,0,0:0:0:0:
192,192,44699,1,0,0:0:0:100:snare.wav
448,192,44699,1,0,0:0:0:0:
320,192,44795,1,0,0:0:0:0:
64,192,44892,1,0,0:0:0:0:
192,192,44989,1,0,0:0:0:0:
320,192,45086,1,0,0:0:0:70:kick.wav
448,192,45279,1,0,0:0:0:0:
320,192,45376,1,0,0:0:0:0:
64,192,45473,1,0,0:0:0:100:snare.wav
192,192,45473,1,0,0:0:0:0:
448,192,45570,1,0,0:0:0:0:
192,192,45763,1,0,0:0:0:40:kick_minor.wav
448,192,45860,128,0,46247:0:0:0:70:kick.wav
192,192,45957,1,0,0:0:0:40:kick_minor.wav
64,192,46247,1,0,0:0:0:100:snare.wav
192,192,46247,1,0,0:0:0:40:kick_minor.wav
320,192,46441,1,0,0:0:0:40:kick_minor.wav
64,192,46537,1,0,0:0:0:0:
320,192,46634,1,0,0:0:0:70:kick.wav
448,192,46634,1,0,0:0:0:70:cymbal_dramatic.wav
192,192,46731,1,0,0:0:0:0:
64,192,46828,1,0,0:0:0:0:
448,192,46924,1,0,0:0:0:0:
192,192,47021,1,0,0:0:0:100:snare.wav
320,192,47021,1,0,0:0:0:0:
64,192,47215,1,0,0:0:0:0:
192,192,47312,1,0,0:0:0:0:
448,192,47408,1,0,0:0:0:70:kick.wav
64,192,47505,1,0,0:0:0:0:
192,192,47795,1,0,0:0:0:100:snare.wav
320,192,47795,1,0,0:0:0:0:
448,192,47892,1,0,0:0:0:0:
192,192,47989,1,0,0:0:0:0:
320,192,48086,1,0,0:0:0:0:
64,192,48182,1,0,0:0:0:70:kick.wav
192,192,48376,1,0,0:0:0:0:
64,192,48473,1,0,0:0:0:0:
320,192,48570,1,0,0:0:0:100:snare.wav
448,192,48570,1,0,0:0:0:0:
192,192,48666,1,0,0:0:0:0:
448,192,48957,128,0,49150:0:0:0:70:kick.wav
64,192,49344,1,0,0:0:0:100:snare.wav
320,192,49344,1,0,0:0:0:40:kick_minor.wav
448,192,49441,1,0,0:0:0:40:kick_minor.wav
192,192,49537,1,0,0:0:0:40:kick_minor.wav
64,192,49634,1,0,0:0:0:40:kick_minor.wav
320,192,49731,128,0,50118:0:0:0:70:kick.wav
448,192,49731,1,0,0:0:0:70:cymbal_dramatic.wav
64,192,50118,1,0,0:0:0:100:snare.wav
192,192,50118,128,0,50505:0:0:0:0:
320,192,50505,128,0,50892:0:0:0:0:
64,192,50892,1,0,0:0:0:100:snare.wav
192,192,50892,128,0,51279:0:0:0:0:
448,192,51279,1,0,0:0:0:70:kick.wav
64,192,51473,1,0,0:0:0:40:kick_minor.wav
192,192,51570,1,0,0:0:0:40:kick_minor.wav
320,192,51666,1,0,0:0:0:100:snare.wav
448,192,51666,1,0,0:0:0:40:kick_minor.wav
64,192,51860,128,0,52441:0:0:0:40:kick_minor.wav
320,192,51957,1,0,0:0:0:40:kick_minor.wav
448,192,52053,1,0,0:0:0:40:kick_minor.wav
320,192,52441,1,0,0:0:0:100:snare.wav
448,192,52537,1,0,0:0:0:40:kick_minor.wav
192,192,52634,1,0,0:0:0:100:snare.wav
64,192,52731,1,0,0:0:0:40:kick_minor.wav
320,192,52828,1,0,0:0:0:70:kick.wav
448,192,52828,1,0,0:0:0:70:cymbal_dramatic.wav
192,192,53021,1,0,0:0:0:0:
320,192,53118,1,0,0:0:0:0:
64,192,53215,1,0,0:0:0:100:snare.wav
448,192,53408,1,0,0:0:0:0:
64,192,53602,1,0,0:0:0:70:kick.wav
192,192,53602,1,0,0:0:0:0:
320,192,53795,1,0,0:0:0:0:
192,192,53892,1,0,0:0:0:0:
64,192,53989,1,0,0:0:0:100:snare.wav
320,192,54182,1,0,0:0:0:0:
192,192,54376,1,0,0:0:0:70:kick.wav
448,192,54376,1,0,0:0:0:0:
64,192,54666,1,0,0:0:0:0:
320,192,54763,1,0,0:0:0:100:snare.wav
448,192,54957,128,0,55537:0:0:0:0:
64,192,55150,1,0,0:0:0:70:kick.wav
192,192,55150,1,0,0:0:0:0:
64,192,55537,1,0,0:0:0:100:snare.wav
320,192,55537,1,0,0:0:0:0:
64,192,55924,1,0,0:0:0:70:kick.wav
192,192,55924,1,0,0:0:0:0:
448,192,56118,1,0,0:0:0:0:
64,192,56215,1,0,0:0:0:0:
192,192,56312,1,0,0:0:0:100:snare.wav
320,192,56505,1,0,0:0:0:0:
192,192,56602,1,0,0:0:0:0:
64,192,56699,1,0,0:0:0:70:kick.wav
448,192,56699,1,0,0:0:0:0:
448,192,56892,1,0,0:0:0:0:
64,192,57086,1,0,0:0:0:100:snare.wav
64,192,57279,1,0,0:0:0:0:
320,192,57473,1,0,0:0:0:70:kick.wav
448,192,57473,1,0,0:0:0:0:
192,192,57666,1,0,0:0:0:40:kick_minor.wav
64,192,57763,1,0,0:0:0:40:kick_minor.wav
448,192,57763,1,0,0:0:0:0:
320,192,57860,1,0,0:0:0:100:snare.wav
448,192,58053,128,0,58634:0:0:0:40:kick_minor.wav
64,192,58150,1,0,0:0:0:40:kick_minor.wav
320,192,58247,1,0,0:0:0:70:kick.wav
64,192,58344,1,0,0:0:0:40:kick_minor.wav
64,192,58634,1,0,0:0:0:100:snare.wav
192,192,58731,1,0,0:0:0:0:
448,192,58828,1,0,0:0:0:40:kick_minor.wav
320,192,58924,1,0,0:0:0:0:
64,192,59021,1,0,0:0:0:70:kick.wav
192,192,59021,1,0,0:0:0:0:
320,192,59215,1,0,0:0:0:0:
192,192,59312,1,0,0:0:0:0:
448,192,59408,1,0,0:0:0:100:snare.wav
64,192,59602,1,0,0:0:0:0:
320,192,59795,1,0,0:0:0:70:kick.wav
448,192,59795,1,0,0:0:0:0:
192,192,59989,1,0,0:0:0:0:
320,192,60086,1,0,0:0:0:0:
448,192,60182,1,0,0:0:0:100:snare.wav
192,192,60376,1,0,0:0:0:0:
64,192,60570,1,0,0:0:0:70:kick.wav
320,192,60570,1,0,0:0:0:0:
448,192,60860,1,0,0:0:0:0:
192,192,60957,1,0,0:0:0:100:snare.wav
64,192,61150,128,0,61731:0:0:0:0:
320,192,61344,1,0,0:0:0:70:kick.wav
448,192,61344,1,0,0:0:0:0:
192,192,61731,1,0,0:0:0:100:snare.wav
448,192,61731,1,0,0:0:0:0:
64,192,62118,128,0,62505:0:0:0:70:kick.wav
448,192,62118,1,0,0:0:0:0:
192,192,62505,1,0,0:0:0:100:snare.wav
320,192,62505,1,0,0:0:0:0:
448,192,62795,1,0,0:0:0:0:
448,192,62989,1,0,0:0:0:0:
192,192,63279,1,0,0:0:0:100:snare.wav
320,192,63279,128,0,63473:0:0:0:0:
64,192,63666,128,0,64053:0:0:0:0:
192,192,64053,1,0,0:0:0:100:snare.wav
320,192,64053,1,0,0:0:0:0:
448,192,64247,128,0,64828:0:0:0:0:
64,192,64828,128,0,65215:0:0:0:100:snare.wav
192,192,64828,128,0,65215:0:0:0:0:
320,192,65215,1,0,0:0:0:70:kick.wav
448,192,65215,1,0,0:0:0:70:cymbal_dramatic.wav
192,192,65408,1,0,0:0:0:0:
320,192,65505,1,0,0:0:0:0:
448,192,65505,1,0,0:0:0:0:
64,192,65602,1,0,0:0:0:100:snare.wav
192,192,65795,1,0,0:0:0:0:
64,192,65989,1,0,0:0:0:70:kick.wav
448,192,65989,1,0,0:0:0:0:
320,192,66182,1,0,0:0:0:0:
448,192,66279,1,0,0:0:0:0:
64,192,66376,1,0,0:0:0:100:snare.wav
192,192,66376,1,0,0:0:0:0:
192,192,66570,1,0,0:0:0:0:
64,192,66763,1,0,0:0:0:70:kick.wav
448,192,66763,1,0,0:0:0:0:
192,192,67053,1,0,0:0:0:0:
320,192,67053,1,0,0:0:0:0:
448,192,67150,1,0,0:0:0:100:snare.wav
64,192,67344,128,0,67924:0:0:0:0:
192,192,67344,1,0,0:0:0:0:
320,192,67537,1,0,0:0:0:70:kick.wav
448,192,67537,1,0,0:0:0:0:
192,192,67924,1,0,0:0:0:100:snare.wav
320,192,67924,1,0,0:0:0:0:
64,192,68312,1,0,0:0:0:70:kick.wav
448,192,68312,1,0,0:0:0:0:
192,192,68505,1,0,0:0:0:0:
320,192,68602,1,0,0:0:0:0:
448,192,68602,1,0,0:0:0:0:
64,192,68699,1,0,0:0:0:100:snare.wav
320,192,68892,1,0,0:0:0:0:
192,192,68989,1,0,0:0:0:0:
64,192,69086,1,0,0:0:0:70:kick.wav
448,192,69086,1,0,0:0:0:0:
64,192,69279,1,0,0:0:0:0:
192,192,69473,1,0,0:0:0:100:snare.wav
448,192,69473,1,0,0:0:0:0:
448,192,69666,1,0,0:0:0:0:
64,192,69860,1,0,0:0:0:70:kick.wav
192,192,69860,1,0,0:0:0:0:
320,192,70053,1,0,0:0:0:40:kick_minor.wav
64,192,70150,1,0,0:0:0:40:kick_minor.wav
448,192,70150,1,0,0:0:0:0:
192,192,70247,1,0,0:0:0:100:snare.wav
320,192,70441,1,0,0:0:0:40:kick_minor.wav
448,192,70441,128,0,70634:0:0:0:0:
192,192,70634,1,0,0:0:0:70:kick.wav
64,192,70731,1,0,0:0:0:40:kick_minor.wav
320,192,70828,1,0,0:0:0:0:
448,192,70924,1,0,0:0:0:40:kick_minor.wav
64,192,71021,1,0,0:0:0:100:snare.wav
192,192,71118,1,0,0:0:0:0:
448,192,71215,1,0,0:0:0:40:kick_minor.wav
320,192,71312,1,0,0:0:0:0:
64,192,71408,1,0,0:0:0:70:kick.wav
192,192,71408,1,0,0:0:0:0:
320,192,71602,1,0,0:0:0:0:
64,192,71699,1,0,0:0:0:0:
192,192,71699,1,0,0:0:0:0:
448,192,71795,1,0,0:0:0:100:snare.wav
320,192,71989,1,0,0:0:0:0:
64,192,72182,1,0,0:0:0:70:kick.wav
448,192,72182,1,0,0:0:0:0:
192,192,72376,1,0,0:0:0:0:
64,192,72473,1,0,0:0:0:0:
320,192,72570,1,0,0:0:0:100:snare.wav
448,192,72570,1,0,0:0:0:0:
320,192,72763,1,0,0:0:0:0:
64,192,72957,1,0,0:0:0:70:kick.wav
448,192,72957,1,0,0:0:0:0:
192,192,73247,1,0,0:0:0:0:
448,192,73247,1,0,0:0:0:0:
320,192,73344,1,0,0:0:0:100:snare.wav
64,192,73537,128,0,74118:0:0:0:0:
192,192,73537,1,0,0:0:0:0:
320,192,73731,1,0,0:0:0:70:kick.wav
448,192,73731,1,0,0:0:0:0:
192,192,74118,1,0,0:0:0:100:snare.wav
320,192,74118,1,0,0:0:0:0:
64,192,74505,1,0,0:0:0:70:kick.wav
448,192,74505,128,0,74892:0:0:0:0:
192,192,74892,1,0,0:0:0:100:snare.wav
320,192,74892,1,0,0:0:0:0:
64,192,75182,1,0,0:0:0:0:
448,192,75279,1,0,0:0:0:70:kick.wav
64,192,75376,1,0,0:0:0:0:
320,192,75666,128,0,75860:0:0:0:100:snare.wav
448,192,75666,1,0,0:0:0:0:
64,192,76053,128,0,76247:0:0:0:70:kick.wav
448,192,76053,1,0,0:0:0:0:
320,192,76247,1,0,0:0:0:40:kick_minor.wav
448,192,76344,1,0,0:0:0:40:kick_minor.wav
64,192,76441,1,0,0:0:0:100:snare.wav
192,192,76441,1,0,0:0:0:40:kick_minor.wav
448,192,76634,128,0,77215:0:0:0:40:kick_minor.wav
64,192,76731,1,0,0:0:0:40:kick_minor.wav
320,192,76828,1,0,0:0:0:70:kick.wav
64,192,76924,1,0,0:0:0:40:kick_minor.wav
64,192,77215,128,0,77602:0:0:0:100:snare.wav
192,192,77215,128,0,77602:0:0:0:40:kick_minor.wav
320,192,77602,1,0,0:0:0:70:kick.wav
448,192,77602,1,0,0:0:0:70:cymbal_dramatic.wav
320,192,77892,1,0,0:0:0:0:
448,192,77892,1,0,0:0:0:0:
192,192,77989,1,0,0:0:0:100:snare.wav
64,192,78182,128,0,78376:0:0:0:0:
320,192,78376,1,0,0:0:0:70:kick.wav
448,192,78376,1,0,0:0:0:0:
320,192,78666,1,0,0:0:0:0:
448,192,78666,1,0,0:0:0:0:
192,192,78763,1,0,0:0:0:100:snare.wav
64,192,78957,128,0,79150:0:0:0:0:
320,192,79150,1,0,0:0:0:70:kick.wav
448,192,79150,1,0,0:0:0:0:
320,192,79441,1,0,0:0:0:0:
448,192,79441,1,0,0:0:0:0:
192,192,79537,1,0,0:0:0:100:snare.wav
64,192,79731,128,0,79924:0:0:0:0:
320,192,79924,1,0,0:0:0:70:kick.wav
448,192,79924,1,0,0:0:0:0:
192,192,80312,1,0,0:0:0:100:snare.wav
320,192,80312,1,0,0:0:0:0:
64,192,80699,1,0,0:0:0:70:kick.wav
192,192,80699,1,0,0:0:0:0:
64,192,80989,1,0,0:0:0:0:
192,192,80989,1,0,0:0:0:0:
320,192,81086,1,0,0:0:0:100:snare.wav
448,192,81279,128,0,81473:0:0:0:0:
64,192,81473,1,0,0:0:0:70:kick.wav
192,192,81473,1,0,0:0:0:0:
64,192,81763,1,0,0:0:0:0:
192,192,81763,1,0,0:0:0:0:
320,192,81860,1,0,0:0:0:100:snare.wav
448,192,82053,128,0,82247:0:0:0:0:
64,192,82247,1,0,0:0:0:70:kick.wav
192,192,82247,1,0,0:0:0:0:
64,192,82537,1,0,0:0:0:0:
192,192,82537,1,0,0:0:0:0:
320,192,82634,1,0,0:0:0:100:snare.wav
448,192,82828,128,0,83021:0:0:0:0:
64,192,83021,1,0,0:0:0:70:kick.wav
192,192,83021,1,0,0:0:0:0:
192,192,83408,1,0,0:0:0:100:snare.wav
320,192,83408,1,0,0:0:0:0:
192,192,83795,1,0,0:0:0:70:kick.wav
448,192,83795,1,0,0:0:0:40:kick_minor.wav
320,192,84086,1,0,0:0:0:0:
448,192,84086,1,0,0:0:0:0:
192,192,84182,1,0,0:0:0:100:snare.wav
64,192,84376,128,0,84570:0:0:0:40:kick_minor.wav
320,192,84570,1,0,0:0:0:70:kick.wav
448,192,84570,1,0,0:0:0:40:kick_minor.wav
320,192,84860,1,0,0:0:0:0:
448,192,84860,1,0,0:0:0:0:
192,192,84957,1,0,0:0:0:100:snare.wav
64,192,85150,128,0,85344:0:0:0:40:kick_minor.wav
320,192,85344,1,0,0:0:0:70:kick.wav
448,192,85344,1,0,0:0:0:40:kick_minor.wav
320,192,85634,1,0,0:0:0:0:
448,192,85634,1,0,0:0:0:0:
192,192,85731,1,0,0:0:0:100:snare.wav
64,192,85924,128,0,86118:0:0:0:40:kick_minor.wav
320,192,86118,1,0,0:0:0:70:kick.wav
448,192,86118,1,0,0:0:0:40:kick_minor.wav
320,192,86408,1,0,0:0:0:0:
448,192,86408,1,0,0:0:0:0:
192,192,86505,1,0,0:0:0:100:snare.wav
64,192,86699,128,0,86892:0:0:0:40:kick_minor.wav
320,192,86892,1,0,0:0:0:70:kick.wav
448,192,86892,1,0,0:0:0:40:kick_minor.wav
64,192,87182,1,0,0:0:0:40:kick_minor.wav
192,192,87279,1,0,0:0:0:70:kick.wav
320,192,87279,1,0,0:0:0:100:snare.wav
448,192,87570,1,0,0:0:0:40:kick_minor.wav
64,192,87666,1,0,0:0:0:70:kick.wav
192,192,87666,1,0,0:0:0:40:kick_minor.wav
448,192,87957,1,0,0:0:0:40:kick_minor.wav
192,192,88053,1,0,0:0:0:70:kick.wav
320,192,88053,1,0,0:0:0:100:snare.wav
64,192,88344,1,0,0:0:0:40:kick_minor.wav
320,192,88441,1,0,0:0:0:70:kick.wav
448,192,88441,1,0,0:0:0:40:kick_minor.wav
64,192,88634,1,0,0:0:0:40:kick_minor.wav
192,192,88634,1,0,0:0:0:0:
320,192,88828,1,0,0:0:0:70:kick.wav
192,192,88924,1,0,0:0:0:40:kick_minor.wav
320,192,89021,1,0,0:0:0:40:kick_minor.wav
192,192,89118,1,0,0:0:0:40:kick_minor.wav
64,192,89215,1,0,0:0:0:70:kick.wav
448,192,89215,1,0,0:0:0:0:
320,192,89989,1,0,0:0:0:70:kick.wav
448,192,89989,1,0,0:0:0:0:
192,192,90182,1,0,0:0:0:0:
64,192,90279,1,0,0:0:0:0:
320,192,90376,1,0,0:0:0:0:
448,192,90570,1,0,0:0:0:0:
192,192,90763,1,0,0:0:0:0:
320,192,90957,1,0,0:0:0:0:
64,192,91150,1,0,0:0:0:0:
192,192,91344,1,0,0:0:0:0:
448,192,91537,1,0,0:0:0:0:
64,192,91731,1,0,0:0:0:0:
320,192,91924,1,0,0:0:0:0:
448,192,92118,1,0,0:0:0:0:
192,192,92312,1,0,0:0:0:0:
448,192,92505,128,0,92699:0:0:0:0:
320,192,92699,128,0,92892:0:0:0:0:
64,192,92892,1,0,0:0:0:0:
448,192,93086,128,0,93279:0:0:0:0:
192,192,93279,1,0,0:0:0:0:
64,192,93376,1,0,0:0:0:0:
320,192,93473,1,0,0:0:0:0:
448,192,93666,1,0,0:0:0:0:
64,192,93860,128,0,94053:0:0:0:0:
320,192,94053,1,0,0:0:0:0:
192,192,94247,1,0,0:0:0:0:
320,192,94441,1,0,0:0:0:0:
64,192,94634,128,0,94828:0:0:0:0:
448,192,94828,1,0,0:0:0:0:
64,192,95021,128,0,95215:0:0:0:0:
320,192,95215,1,0,0:0:0:0:
192,192,95408,128,0,95602:0:0:0:0:
448,192,95602,1,0,0:0:0:0:
64,192,95795,1,0,0:0:0:0:
448,192,96182,128,0,96376:0:0:0:0:
64,192,96376,1,0,0:0:0:0:
320,192,96473,1,0,0:0:0:0:
192,192,96570,1,0,0:0:0:0:
448,192,96763,1,0,0:0:0:0:
64,192,96957,128,0,97150:0:0:0:0:
320,192,97150,1,0,0:0:0:0:
448,192,97344,1,0,0:0:0:0:
192,192,97537,128,0,97731:0:0:0:0:
448,192,97731,128,0,97924:0:0:0:0:
64,192,97924,1,0,0:0:0:0:
448,192,98118,128,0,98312:0:0:0:0:
192,192,98312,1,0,0:0:0:0:
64,192,98505,128,0,98699:0:0:0:0:
320,192,98699,1,0,0:0:0:0:
192,192,98892,1,0,0:0:0:0:
64,192,99279,1,0,0:0:0:70:kick.wav
448,192,99279,1,0,0:0:0:70:cymbal_dramatic.wav
192,192,99666,1,0,0:0:0:0:
448,192,99957,1,0,0:0:0:0:
448,192,100150,1,0,0:0:0:0:
192,192,100441,1,0,0:0:0:0:
64,192,100828,1,0,0:0:0:0:
320,192,101215,1,0,0:0:0:0:
448,192,101408,128,0,101989:0:0:0:0:
64,192,101989,128,0,102376:0:0:0:0:
320,192,102376,1,0,0:0:0:70:kick.wav
448,192,102376,128,0,102570:0:0:0:70:cymbal_dramatic.wav
192,192,102570,1,0,0:0:0:0:
320,192,102763,1,0,0:0:0:0:
64,192,102957,1,0,0:0:0:0:
320,192,103344,1,0,0:0:0:0:
448,192,103441,1,0,0:0:0:0:
64,192,103537,1,0,0:0:0:0:
192,192,103731,128,0,104118:0:0:0:0:
448,192,104118,128,0,104312:0:0:0:0:
64,192,104312,1,0,0:0:0:0:
320,192,104505,128,0,104892:0:0:0:0:
192,192,104892,1,0,0:0:0:0:
64,192,105279,1,0,0:0:0:0:
320,192,105376,1,0,0:0:0:0:
448,192,105473,128,0,105666:0:0:0:0:
192,192,105666,1,0,0:0:0:0:
64,192,105860,1,0,0:0:0:0:
448,192,106053,128,0,106247:0:0:0:0:
448,192,106441,128,0,106634:0:0:0:0:
192,192,106634,128,0,106828:0:0:0:0:
64,192,106828,128,0,107215:0:0:0:0:
320,192,107215,128,0,107408:0:0:0:0:
448,192,107408,1,0,0:0:0:0:
64,192,107602,128,0,107989:0:0:0:0:
320,192,107795,1,0,0:0:0:0:
448,192,107892,1,0,0:0:0:0:
320,192,107989,1,0,0:0:0:0:
192,192,108086,1,0,0:0:0:0:
64,192,108182,1,0,0:0:0:0:
448,192,108279,1,0,0:0:0:0:
192,192,108376,1,0,0:0:0:0:
320,192,108473,1,0,0:0:0:0:
448,192,108570,128,0,108763:0:0:0:0:
64,192,108763,1,0,0:0:0:0:
320,192,108957,1,0,0:0:0:0:
192,192,109150,128,0,109537:0:0:0:0:
64,192,109537,1,0,0:0:0:0:
320,192,109731,1,0,0:0:0:0:
448,192,109924,128,0,110312:0:0:0:0:
192,192,110312,1,0,0:0:0:0:
320,192,110505,1,0,0:0:0:0:
64,192,110699,128,0,111086:0:0:0:0:
192,192,111086,1,0,0:0:0:0:
448,192,111279,1,0,0:0:0:0:
64,192,111376,1,0,0:0:0:0:
192,192,111473,1,0,0:0:0:0:
320,192,111570,1,0,0:0:0:0:
448,192,111666,1,0,0:0:0:0:
64,192,111860,1,0,0:0:0:0:
192,192,111957,1,0,0:0:0:0:
320,192,112053,1,0,0:0:0:0:
192,192,112247,1,0,0:0:0:0:
320,192,112344,1,0,0:0:0:0:
448,192,112441,1,0,0:0:0:0:
64,192,112634,128,0,112828:0:0:0:0:
320,192,112828,128,0,113021:0:0:0:0:
192,192,113021,1,0,0:0:0:0:
64,192,113215,1,0,0:0:0:70:kick.wav
448,192,113215,1,0,0:0:0:70:cymbal2.wav
64,192,113408,1,0,0:0:0:70:kick.wav
448,192,113408,1,0,0:0:0:70:cymbal3.wav
320,192,113795,1,0,0:0:0:70:kick.wav
448,192,113795,128,0,114182:0:0:0:70:cymbal_dramatic.wav
64,192,114182,128,0,114376:0:0:0:0:
320,192,114376,1,0,0:0:0:100:snare.wav
448,192,114473,1,0,0:0:0:0:
192,192,114570,1,0,0:0:0:0:
64,192,114666,1,0,0:0:0:0:
320,192,114763,1,0,0:0:0:70:kick.wav
448,192,114763,1,0,0:0:0:70:cymbal_dramatic.wav
192,192,114957,1,0,0:0:0:0:
320,192,115053,1,0,0:0:0:0:
64,192,115150,1,0,0:0:0:100:snare.wav
448,192,115344,1,0,0:0:0:0:
64,192,115537,1,0,0:0:0:70:kick.wav
192,192,115537,1,0,0:0:0:0:
320,192,115731,1,0,0:0:0:0:
192,192,115828,1,0,0:0:0:0:
64,192,115924,1,0,0:0:0:100:snare.wav
320,192,116118,1,0,0:0:0:0:
192,192,116312,1,0,0:0:0:70:kick.wav
448,192,116312,1,0,0:0:0:0:
64,192,116602,1,0,0:0:0:0:
320,192,116699,1,0,0:0:0:100:snare.wav
448,192,116892,128,0,117473:0:0:0:0:
64,192,117086,1,0,0:0:0:70:kick.wav
192,192,117086,1,0,0:0:0:0:
64,192,117473,1,0,0:0:0:100:snare.wav
320,192,117473,1,0,0:0:0:0:
64,192,117860,1,0,0:0:0:70:kick.wav
192,192,117860,1,0,0:0:0:0:
448,192,118053,1,0,0:0:0:0:
64,192,118150,1,0,0:0:0:0:
192,192,118247,1,0,0:0:0:100:snare.wav
320,192,118441,1,0,0:0:0:0:
192,192,118537,1,0,0:0:0:0:
64,192,118634,1,0,0:0:0:70:kick.wav
448,192,118634,1,0,0:0:0:0:
448,192,118828,1,0,0:0:0:0:
64,192,119021,1,0,0:0:0:100:snare.wav
64,192,119215,1,0,0:0:0:0:
320,192,119408,1,0,0:0:0:70:kick.wav
448,192,119408,1,0,0:0:0:0:
192,192,119602,1,0,0:0:0:40:kick_minor.wav
64,192,119699,1,0,0:0:0:40:kick_minor.wav
448,192,119699,1,0,0:0:0:0:
320,192,119795,1,0,0:0:0:100:snare.wav
448,192,119989,128,0,120182:0:0:0:40:kick_minor.wav
192,192,120182,1,0,0:0:0:70:kick.wav
64,192,120279,1,0,0:0:0:40:kick_minor.wav
320,192,120376,1,0,0:0:0:0:
448,192,120473,1,0,0:0:0:40:kick_minor.wav
64,192,120570,1,0,0:0:0:100:snare.wav
192,192,120666,1,0,0:0:0:0:
448,192,120763,1,0,0:0:0:40:kick_minor.wav
320,192,120860,1,0,0:0:0:0:
64,192,120957,1,0,0:0:0:70:kick.wav
192,192,120957,1,0,0:0:0:0:
320,192,121150,1,0,0:0:0:0:
192,192,121247,1,0,0:0:0:0:
448,192,121344,1,0,0:0:0:100:snare.wav
64,192,121537,1,0,0:0:0:0:
320,192,121731,1,0,0:0:0:70:kick.wav
448,192,121731,1,0,0:0:0:0:
192,192,121924,1,0,0:0:0:0:
320,192,122021,1,0,0:0:0:0:
448,192,122118,1,0,0:0:0:100:snare.wav
192,192,122312,1,0,0:0:0:0:
64,192,122505,1,0,0:0:0:70:kick.wav
320,192,122505,1,0,0:0:0:0:
448,192,122795,1,0,0:0:0:0:
192,192,122892,1,0,0:0:0:100:snare.wav
64,192,123086,128,0,123666:0:0:0:0:
320,192,123279,1,0,0:0:0:70:kick.wav
448,192,123279,1,0,0:0:0:0:
192,192,123666,1,0,0:0:0:100:snare.wav
448,192,123666,1,0,0:0:0:0:
64,192,124053,128,0,124441:0:0:0:70:kick.wav
448,192,124053,1,0,0:0:0:0:
192,192,124441,1,0,0:0:0:100:snare.wav
320,192,124441,1,0,0:0:0:0:
448,192,124731,1,0,0:0:0:0:
448,192,124924,1,0,0:0:0:0:
192,192,125215,1,0,0:0:0:100:snare.wav
320,192,125215,128,0,125408:0:0:0:0:
64,192,125602,128,0,125989:0:0:0:0:
192,192,125989,1,0,0:0:0:100:snare.wav
320,192,125989,1,0,0:0:0:0:
448,192,126182,128,0,126763:0:0:0:0:
64,192,126763,128,0,127150:0:0:0:100:snare.wav
192,192,126763,128,0,127150:0:0:0:0:
320,192,127150,1,0,0:0:0:70:kick.wav
448,192,127150,1,0,0:0:0:70:cymbal_dramatic.wav
192,192,127344,1,0,0:0:0:0:
320,192,127441,1,0,0:0:0:0:
448,192,127441,1,0,0:0:0:0:
64,192,127537,1,0,0:0:0:100:snare.wav
192,192,127731,1,0,0:0:0:0:
64,192,127924,1,0,0:0:0:70:kick.wav
448,192,127924,1,0,0:0:0:0:
320,192,128118,1,0,0:0:0:0:
448,192,128215,1,0,0:0:0:0:
64,192,128312,1,0,0:0:0:100:snare.wav
192,192,128312,1,0,0:0:0:0:
192,192,128505,1,0,0:0:0:0:
64,192,128699,1,0,0:0:0:70:kick.wav
448,192,128699,1,0,0:0:0:0:
192,192,128989,1,0,0:0:0:0:
320,192,128989,1,0,0:0:0:0:
448,192,129086,1,0,0:0:0:100:snare.wav
64,192,129279,128,0,129860:0:0:0:0:
192,192,129279,1,0,0:0:0:0:
320,192,129473,1,0,0:0:0:70:kick.wav
448,192,129473,1,0,0:0:0:0:
192,192,129860,1,0,0:0:0:100:snare.wav
320,192,129860,1,0,0:0:0:0:
64,192,130247,1,0,0:0:0:70:kick.wav
448,192,130247,1,0,0:0:0:0:
192,192,130441,1,0,0:0:0:0:
320,192,130537,1,0,0:0:0:0:
448,192,130537,1,0,0:0:0:0:
64,192,130634,1,0,0:0:0:100:snare.wav
320,192,130828,1,0,0:0:0:0:
192,192,130924,1,0,0:0:0:0:
64,192,131021,1,0,0:0:0:70:kick.wav
448,192,131021,1,0,0:0:0:0:
64,192,131215,1,0,0:0:0:0:
192,192,131408,1,0,0:0:0:100:snare.wav
448,192,131408,1,0,0:0:0:0:
448,192,131602,1,0,0:0:0:0:
64,192,131795,1,0,0:0:0:70:kick.wav
192,192,131795,1,0,0:0:0:0:
320,192,131989,1,0,0:0:0:40:kick_minor.wav
64,192,132086,1,0,0:0:0:40:kick_minor.wav
448,192,132086,1,0,0:0:0:0:
192,192,132182,1,0,0:0:0:100:snare.wav
64,192,132376,1,0,0:0:0:40:kick_minor.wav
448,192,132376,128,0,132957:0:0:0:0:
192,192,132473,1,0,0:0:0:40:kick_minor.wav
320,192,132570,1,0,0:0:0:70:kick.wav
192,192,132666,1,0,0:0:0:40:kick_minor.wav
64,192,132957,1,0,0:0:0:100:snare.wav
192,192,133053,1,0,0:0:0:0:
448,192,133150,1,0,0:0:0:40:kick_minor.wav
320,192,133247,1,0,0:0:0:0:
64,192,133344,1,0,0:0:0:70:kick.wav
192,192,133344,1,0,0:0:0:0:
320,192,133537,1,0,0:0:0:0:
64,192,133634,1,0,0:0:0:0:
192,192,133634,1,0,0:0:0:0:
448,192,133731,1,0,0:0:0:100:snare.wav
320,192,133924,1,0,0:0:0:0:
64,192,134118,1,0,0:0:0:70:kick.wav
448,192,134118,1,0,0:0:0:0:
192,192,134312,1,0,0:0:0:0:
64,192,134408,1,0,0:0:0:0:
320,192,134505,1,0,0:0:0:100:snare.wav
448,192,134505,1,0,0:0:0:0:
320,192,134699,1,0,0:0:0:0:
64,192,134892,1,0,0:0:0:70:kick.wav
448,192,134892,1,0,0:0:0:0:
192,192,135182,1,0,0:0:0:0:
448,192,135182,1,0,0:0:0:0:
320,192,135279,1,0,0:0:0:100:snare.wav
64,192,135473,128,0,136053:0:0:0:0:
192,192,135473,1,0,0:0:0:0:
320,192,135666,1,0,0:0:0:70:kick.wav
448,192,135666,1,0,0:0:0:0:
192,192,136053,1,0,0:0:0:100:snare.wav
320,192,136053,1,0,0:0:0:0:
64,192,136441,1,0,0:0:0:70:kick.wav
448,192,136441,128,0,136828:0:0:0:0:
192,192,136828,1,0,0:0:0:100:snare.wav
320,192,136828,1,0,0:0:0:0:
64,192,137118,1,0,0:0:0:0:
448,192,137215,1,0,0:0:0:70:kick.wav
64,192,137312,1,0,0:0:0:0:
320,192,137602,128,0,137795:0:0:0:100:snare.wav
448,192,137602,1,0,0:0:0:0:
64,192,137989,128,0,138182:0:0:0:70:kick.wav
448,192,137989,1,0,0:0:0:0:
320,192,138182,1,0,0:0:0:40:kick_minor.wav
448,192,138279,1,0,0:0:0:40:kick_minor.wav
64,192,138376,1,0,0:0:0:100:snare.wav
192,192,138376,1,0,0:0:0:40:kick_minor.wav
448,192,138570,128,0,139150:0:0:0:40:kick_minor.wav
64,192,138666,1,0,0:0:0:40:kick_minor.wav
320,192,138763,1,0,0:0:0:70:kick.wav
64,192,138860,1,0,0:0:0:40:kick_minor.wav
64,192,139150,1,0,0:0:0:100:snare.wav
320,192,139247,1,0,0:0:0:40:kick_minor.wav
192,192,139344,1,0,0:0:0:100:snare.wav
64,192,139441,1,0,0:0:0:40:kick_minor.wav
320,192,139537,1,0,0:0:0:70:kick.wav
448,192,139537,1,0,0:0:0:70:cymbal_dramatic.wav
448,192,139731,1,0,0:0:0:0:
64,192,139924,1,0,0:0:0:100:snare.wav
192,192,139924,1,0,0:0:0:0:
320,192,140021,1,0,0:0:0:0:
448,192,140118,1,0,0:0:0:0:
192,192,140215,1,0,0:0:0:0:
320,192,140408,1,0,0:0:0:0:
64,192,140505,1,0,0:0:0:0:
320,192,140699,1,0,0:0:0:100:snare.wav
448,192,140699,1,0,0:0:0:0:
192,192,140795,1,0,0:0:0:0:
64,192,140892,1,0,0:0:0:0:
320,192,140989,1,0,0:0:0:0:
192,192,141182,1,0,0:0:0:0:
448,192,141279,1,0,0:0:0:0:
64,192,141473,1,0,0:0:0:100:snare.wav
192,192,141473,1,0,0:0:0:0:
320,192,141570,1,0,0:0:0:0:
64,192,141666,1,0,0:0:0:0:
448,192,141763,1,0,0:0:0:0:
192,192,141957,1,0,0:0:0:0:
320,192,142053,1,0,0:0:0:0:
64,192,142247,1,0,0:0:0:100:snare.wav
448,192,142247,1,0,0:0:0:0:
320,192,142344,1,0,0:0:0:0:
192,192,142441,1,0,0:0:0:0:
320,192,142634,1,0,0:0:0:70:kick.wav
448,192,142634,1,0,0:0:0:70:cymbal2.wav
192,192,142924,1,0,0:0:0:70:kick.wav
320,192,142924,1,0,0:0:0:70:cymbal3.wav
64,192,143215,128,0,143602:0:0:0:70:kick.wav
192,192,143215,1,0,0:0:0:70:cymbal_dramatic.wav
320,192,143602,1,0,0:0:0:0:
192,192,143795,1,0,0:0:0:100:snare.wav
448,192,143989,1,0,0:0:0:40:kick_minor.wav
320,192,144086,1,0,0:0:0:40:kick_minor.wav
64,192,144182,1,0,0:0:0:70:kick.wav
192,192,144182,1,0,0:0:0:70:cymbal2.wav
192,192,144473,1,0,0:0:0:70:kick.wav
320,192,144473,1,0,0:0:0:70:cymbal3.wav
320,192,144763,1,0,0:0:0:70:kick.wav
448,192,144763,128,0,145150:0:0:0:70:cymbal_dramatic.wav
64,192,145150,1,0,0:0:0:0:
320,192,145344,1,0,0:0:0:100:snare.wav
192,192,145441,1,0,0:0:0:100:snare.wav
448,192,145537,1,0,0:0:0:100:snare.wav
64,192,145634,1,0,0:0:0:100:snare.wav
