osu file format v14

[General]
AudioFilename: audio.mp3
AudioLeadIn: 0
PreviewTime: 52828
Countdown: 0
SampleSet: Soft
StackLeniency: 0.7
Mode: 3
LetterboxInBreaks: 0
SpecialStyle: 0
WidescreenStoryboard: 1

[Editor]
Bookmarks: 183,15666,28053,40441,52828,65215,77602,89989,102376,114763,127150,139537,145731
DistanceSpacing: 1
BeatDivisor: 4
GridSize: 32
TimelineZoom: 2.4

[Metadata]
Title:Arsene's Bazaar
TitleUnicode:Arsene's Bazaar
Artist:James Landino
ArtistUnicode:James Landino
Creator:Hytex
Version:Insane
Source:Twin Trials
Tags:osu! original fa featured artist collection vol. 2 album jeff ball rare drop symphonic distribution indoroid tigerinity ucitysm instrumental electronic new age classic piano violin collab collaboration duo contest olsen's olsens shipmates mg mappers' guild
BeatmapID:4092596
BeatmapSetID:1972324

[Difficulty]
HPDrainRate:7.8
CircleSize:4
OverallDifficulty:7.8
ApproachRate:5
SliderMultiplier:1.4
SliderTickRate:1

[Events]
//Background and Video events
0,0,"95638711_p0.jpg",0,0
//Break Periods
//Storyboard Layer 0 (Background)
//Storyboard Layer 1 (Fail)
//Storyboard Layer 2 (Pass)
//Storyboard Layer 3 (Foreground)
//Storyboard Layer 4 (Overlay)
//Storyboard Sound Samples
Sample,52634,0,"kick_minor.wav",40
Sample,83795,0,"cymbal_dramatic.wav",70
Sample,87279,0,"kick_minor.wav",40
Sample,88053,0,"kick_minor.wav",40
Sample,88828,0,"kick_minor.wav",40
Sample,139344,0,"kick_minor.wav",40

[TimingPoints]
183,387.096774193548,4,2,1,50,1,0
183,-100.0,4,2,1,50,0,1
12570,-100.0,4,2,1,50,0,0
52828,-100.0,4,2,1,50,0,1
62118,-100.0,4,2,1,50,0,0
65215,-100.0,4,2,1,50,0,1
77602,-100.0,4,2,1,50,0,0
114763,-100.0,4,2,1,50,0,1
124053,-100.0,4,2,1,50,0,0
127150,-100.0,4,2,1,50,0,1
145731,-100.0,4,2,1,50,0,0

[HitObjects]
64,192,183,128,0,376:0:0:0:70:kick.wav
192,192,183,1,0,0:0:0:70:cymbal_dramatic.wav
448,192,183,128,0,279:0:0:0:0:
448,192,376,1,0,0:0:0:0:
320,192,473,1,0,0:0:0:0:
64,192,570,1,0,0:0:0:100:snare.wav
192,192,570,1,0,0:0:0:0:
320,192,666,1,0,0:0:0:0:
192,192,763,1,0,0:0:0:0:
448,192,860,128,0,1053:0:0:0:0:
64,192,957,1,0,0:0:0:70:kick.wav
320,192,957,1,0,0:0:0:0:
192,192,1053,1,0,0:0:0:0:
448,192,1150,1,0,0:0:0:0:
64,192,1344,1,0,0:0:0:100:snare.wav
192,192,1344,1,0,0:0:0:0:
320,192,1441,1,0,0:0:0:0:
192,192,1537,1,0,0:0:0:0:
448,192,1634,128,0,1828:0:0:0:0:
64,192,1731,1,0,0:0:0:70:kick.wav
320,192,1731,1,0,0:0:0:0:
192,192,1828,1,0,0:0:0:0:
448,192,1924,1,0,0:0:0:0:
64,192,2118,1,0,0:0:0:100:snare.wav
192,192,2118,1,0,0:0:0:0:
448,192,2215,1,0,0:0:0:0:
320,192,2312,1,0,0:0:0:0:
64,192,2408,128,0,2602:0:0:0:0:
192,192,2505,1,0,0:0:0:70:kick.wav
448,192,2505,1,0,0:0:0:0:
320,192,2602,1,0,0:0:0:0:
448,192,2699,1,0,0:0:0:0:
64,192,2892,1,0,0:0:0:100:snare.wav
192,192,2892,1,0,0:0:0:0:
320,192,2989,1,0,0:0:0:0:
192,192,3086,1,0,0:0:0:0:
64,192,3279,128,0,3473:0:0:0:70:kick.wav
448,192,3279,128,0,3376:0:0:0:0:
448,192,3473,1,0,0:0:0:0:
320,192,3570,1,0,0:0:0:0:
64,192,3666,1,0,0:0:0:100:snare.wav
192,192,3666,1,0,0:0:0:0:
320,192,3763,1,0,0:0:0:0:
192,192,3860,1,0,0:0:0:0:
448,192,3957,128,0,4150:0:0:0:0:
64,192,4053,1,0,0:0:0:70:kick.wav
320,192,4053,1,0,0:0:0:0:
192,192,4150,1,0,0:0:0:0:
448,192,4247,1,0,0:0:0:0:
64,192,4441,1,0,0:0:0:100:snare.wav
192,192,4441,1,0,0:0:0:0:
320,192,4537,1,0,0:0:0:0:
192,192,4634,1,0,0:0:0:0:
64,192,4828,128,0,4924:0:0:0:70:kick.wav
448,192,4828,1,0,0:0:0:0:
320,192,5021,128,0,5118:0:0:0:40:kick_minor.wav
448,192,5118,1,0,0:0:0:40:kick_minor.wav
64,192,5215,1,0,0:0:0:100:snare.wav
192,192,5215,128,0,5312:0:0:0:40:kick_minor.wav
448,192,5408,128,0,5505:0:0:0:40:kick_minor.wav
192,192,5505,128,0,5602:0:0:0:40:kick_minor.wav
320,192,5602,1,0,0:0:0:70:kick.wav
448,192,5602,1,0,0:0:0:0:
64,192,5699,128,0,5795:0:0:0:40:kick_minor.wav
448,192,5892,128,0,6182:0:0:0:40:kick_minor.wav
64,192,5989,1,0,0:0:0:100:snare.wav
192,192,5989,1,0,0:0:0:40:kick_minor.wav
320,192,6182,1,0,0:0:0:40:kick_minor.wav
192,192,6279,1,0,0:0:0:0:
64,192,6376,128,0,6570:0:0:0:70:kick.wav
320,192,6376,1,0,0:0:0:70:cymbal_dramatic.wav
448,192,6376,128,0,6473:0:0:0:0:
448,192,6570,1,0,0:0:0:0:
320,192,6666,1,0,0:0:0:0:
64,192,6763,1,0,0:0:0:100:snare.wav
192,192,6763,1,0,0:0:0:0:
320,192,6860,1,0,0:0:0:0:
192,192,6957,1,0,0:0:0:0:
448,192,7053,128,0,7247:0:0:0:0:
64,192,7150,1,0,0:0:0:70:kick.wav
320,192,7150,1,0,0:0:0:0:
192,192,7247,1,0,0:0:0:0:
448,192,7344,1,0,0:0:0:0:
64,192,7537,1,0,0:0:0:100:snare.wav
192,192,7537,1,0,0:0:0:0:
320,192,7634,1,0,0:0:0:0:
192,192,7731,1,0,0:0:0:0:
448,192,7828,128,0,8021:0:0:0:0:
64,192,7924,1,0,0:0:0:70:kick.wav
320,192,7924,1,0,0:0:0:0:
192,192,8021,1,0,0:0:0:0:
448,192,8118,1,0,0:0:0:0:
64,192,8312,1,0,0:0:0:100:snare.wav
192,192,8312,1,0,0:0:0:0:
448,192,8408,1,0,0:0:0:0:
320,192,8505,1,0,0:0:0:0:
64,192,8602,128,0,8795:0:0:0:0:
192,192,8699,1,0,0:0:0:70:kick.wav
448,192,8699,1,0,0:0:0:0:
320,192,8795,1,0,0:0:0:0:
448,192,8892,1,0,0:0:0:0:
64,192,9086,1,0,0:0:0:100:snare.wav
192,192,9086,1,0,0:0:0:0:
320,192,9182,1,0,0:0:0:0:
192,192,9279,1,0,0:0:0:0:
64,192,9473,128,0,9666:0:0:0:70:kick.wav
320,192,9473,1,0,0:0:0:70:cymbal2.wav
448,192,9473,128,0,9570:0:0:0:0:
448,192,9666,1,0,0:0:0:0:
64,192,9763,128,0,9860:0:0:0:70:kick.wav
192,192,9763,1,0,0:0:0:70:cymbal3.wav
320,192,9860,1,0,0:0:0:0:
64,192,9957,1,0,0:0:0:0:
192,192,10053,128,0,10247:0:0:0:70:kick.wav
320,192,10053,128,0,10441:0:0:0:70:cymbal_dramatic.wav
448,192,10053,1,0,0:0:0:0:
192,192,10441,1,0,0:0:0:0:
448,192,10537,1,0,0:0:0:0:
64,192,10634,1,0,0:0:0:100:snare.wav
320,192,10634,1,0,0:0:0:0:
192,192,10828,1,0,0:0:0:40:kick_minor.wav
320,192,10924,1,0,0:0:0:40:kick_minor.wav
64,192,11021,128,0,11118:0:0:0:70:kick.wav
192,192,11021,1,0,0:0:0:70:cymbal2.wav
448,192,11021,128,0,11215:0:0:0:0:
64,192,11215,1,0,0:0:0:0:
320,192,11312,1,0,0:0:0:70:kick.wav
448,192,11312,128,0,11408:0:0:0:70:cymbal3.wav
192,192,11408,1,0,0:0:0:0:
448,192,11505,1,0,0:0:0:0:
64,192,11602,1,0,0:0:0:70:kick.wav
192,192,11602,128,0,11989:0:0:0:70:cymbal_dramatic.wav
320,192,11602,128,0,11795:0:0:0:0:
64,192,11989,128,0,12182:0:0:0:0:
320,192,12182,1,0,0:0:0:100:snare.wav
448,192,12182,128,0,12279:0:0:0:0:
64,192,12279,128,0,12376:0:0:0:100:snare.wav
320,192,12376,128,0,12473:0:0:0:100:snare.wav
192,192,12473,128,0,12570:0:0:0:100:snare.wav
64,192,12570,1,0,0:0:0:70:kick.wav
320,192,12570,1,0,0:0:0:70:cymbal_dramatic.wav
448,192,12570,1,0,0:0:0:0:
448,192,15279,128,0,15376:0:0:0:0:
64,192,15376,128,0,15473:0:0:0:0:
320,192,15473,128,0,15570:0:0:0:0:
192,192,15570,128,0,15666:0:0:0:0:
64,192,15666,1,0,0:0:0:70:kick.wav
320,192,15666,1,0,0:0:0:70:cymbal_dramatic.wav
448,192,15666,128,0,15860:0:0:0:0:
192,192,15860,128,0,15957:0:0:0:0:
64,192,16053,128,0,16150:0:0:0:0:
320,192,16247,128,0,16441:0:0:0:0:
448,192,16247,1,0,0:0:0:0:
192,192,16634,1,0,0:0:0:0:
448,192,16731,1,0,0:0:0:0:
320,192,16828,128,0,16924:0:0:0:0:
64,192,17021,1,0,0:0:0:0:
192,192,17021,128,0,17215:0:0:0:0:
192,192,17408,1,0,0:0:0:0:
448,192,17408,128,0,17505:0:0:0:0:
64,192,17602,128,0,17699:0:0:0:0:
320,192,17795,128,0,18182:0:0:0:0:
448,192,17795,1,0,0:0:0:0:
192,192,18182,128,0,18279:0:0:0:0:
64,192,18570,128,0,18666:0:0:0:0:
192,192,18666,128,0,18763:0:0:0:0:
320,192,18763,128,0,18957:0:0:0:0:
448,192,18763,1,0,0:0:0:0:
64,192,18957,128,0,19053:0:0:0:0:
448,192,19150,128,0,19247:0:0:0:0:
64,192,19344,1,0,0:0:0:0:
192,192,19344,128,0,19537:0:0:0:0:
320,192,19731,128,0,19828:0:0:0:0:
192,192,19924,128,0,20021:0:0:0:0:
64,192,20118,128,0,20312:0:0:0:0:
448,192,20118,1,0,0:0:0:0:
320,192,20505,128,0,20602:0:0:0:0:
448,192,20505,1,0,0:0:0:0:
192,192,20699,128,0,20795:0:0:0:0:
64,192,20892,1,0,0:0:0:0:
448,192,20892,128,0,21279:0:0:0:0:
64,192,21279,128,0,21376:0:0:0:0:
64,192,21473,128,0,21570:0:0:0:0:
448,192,21570,128,0,21666:0:0:0:0:
192,192,21666,128,0,21763:0:0:0:0:
320,192,21763,128,0,21860:0:0:0:0:
64,192,21860,1,0,0:0:0:0:
448,192,21860,128,0,22053:0:0:0:0:
192,192,22053,128,0,22150:0:0:0:0:
64,192,22247,128,0,22344:0:0:0:0:
320,192,22441,128,0,22634:0:0:0:0:
448,192,22441,1,0,0:0:0:0:
64,192,22828,128,0,22924:0:0:0:0:
448,192,22828,1,0,0:0:0:0:
192,192,23021,128,0,23118:0:0:0:0:
320,192,23215,1,0,0:0:0:0:
448,192,23215,128,0,23602:0:0:0:0:
64,192,23312,128,0,23602:0:0:0:0:
320,192,23602,128,0,23795:0:0:0:0:
64,192,23795,128,0,23892:0:0:0:0:
192,192,23989,128,0,24376:0:0:0:0:
448,192,23989,1,0,0:0:0:0:
320,192,24376,128,0,24473:0:0:0:0:
64,192,24570,128,0,24666:0:0:0:0:
448,192,24666,128,0,24763:0:0:0:0:
192,192,24763,128,0,24860:0:0:0:0:
320,192,24860,128,0,24957:0:0:0:0:
64,192,24957,1,0,0:0:0:0:
448,192,24957,128,0,25150:0:0:0:0:
64,192,25150,1,0,0:0:0:0:
192,192,25150,128,0,25247:0:0:0:0:
320,192,25247,128,0,25344:0:0:0:0:
192,192,25344,128,0,25537:0:0:0:0:
320,192,25537,1,0,0:0:0:0:
448,192,25537,128,0,25634:0:0:0:0:
64,192,25634,128,0,25731:0:0:0:0:
320,192,25731,128,0,25924:0:0:0:0:
64,192,25924,1,0,0:0:0:0:
448,192,25924,128,0,26021:0:0:0:0:
192,192,26118,128,0,26215:0:0:0:0:
64,192,26312,128,0,26408:0:0:0:0:
448,192,26312,1,0,0:0:0:0:
320,192,26505,128,0,26602:0:0:0:0:
64,192,26699,1,0,0:0:0:0:
192,192,26699,128,0,26892:0:0:0:0:
64,192,27086,1,0,0:0:0:0:
448,192,27086,128,0,27473:0:0:0:0:
192,192,27473,1,0,0:0:0:0:
320,192,27473,128,0,27570:0:0:0:0:
320,192,27860,128,0,27957:0:0:0:0:
192,192,27957,128,0,28053:0:0:0:0:
64,192,28053,1,0,0:0:0:70:kick.wav
320,192,28053,1,0,0:0:0:70:cymbal_dramatic.wav
448,192,28053,128,0,28247:0:0:0:0:
192,192,28247,128,0,28344:0:0:0:0:
64,192,28441,128,0,28537:0:0:0:100:snare.wav
448,192,28441,1,0,0:0:0:0:
320,192,28634,128,0,28828:0:0:0:0:
448,192,28634,1,0,0:0:0:0:
64,192,29021,1,0,0:0:0:70:kick.wav
192,192,29021,1,0,0:0:0:0:
448,192,29118,1,0,0:0:0:0:
64,192,29215,1,0,0:0:0:100:snare.wav
320,192,29215,128,0,29312:0:0:0:0:
192,192,29408,128,0,29602:0:0:0:0:
320,192,29602,1,0,0:0:0:70:kick.wav
448,192,29602,1,0,0:0:0:0:
448,192,29795,128,0,29989:0:0:0:0:
64,192,29989,128,0,30086:0:0:0:100:snare.wav
320,192,29989,1,0,0:0:0:0:
192,192,30182,1,0,0:0:0:0:
320,192,30182,128,0,30376:0:0:0:0:
448,192,30279,128,0,30570:0:0:0:0:
64,192,30570,1,0,0:0:0:70:kick.wav
192,192,30570,128,0,30666:0:0:0:0:
192,192,30763,1,0,0:0:0:100:snare.wav
448,192,30763,1,0,0:0:0:0:
64,192,30957,128,0,31053:0:0:0:0:
192,192,31053,128,0,31150:0:0:0:0:
320,192,31150,128,0,31344:0:0:0:70:kick.wav
448,192,31150,1,0,0:0:0:0:
64,192,31344,128,0,31441:0:0:0:0:
192,192,31537,1,0,0:0:0:100:snare.wav
448,192,31537,128,0,31634:0:0:0:0:
64,192,31731,1,0,0:0:0:0:
192,192,31731,128,0,31924:0:0:0:0:
320,192,32118,128,0,32215:0:0:0:70:kick.wav
448,192,32118,1,0,0:0:0:0:
192,192,32312,128,0,32408:0:0:0:100:snare.wav
448,192,32312,1,0,0:0:0:0:
64,192,32505,128,0,32699:0:0:0:0:
320,192,32699,1,0,0:0:0:70:kick.wav
448,192,32699,1,0,0:0:0:0:
320,192,32892,128,0,33086:0:0:0:0:
192,192,33086,128,0,33182:0:0:0:100:snare.wav
448,192,33086,1,0,0:0:0:0:
64,192,33279,1,0,0:0:0:0:
448,192,33279,128,0,33473:0:0:0:0:
320,192,33376,128,0,33666:0:0:0:0:
64,192,33666,128,0,33763:0:0:0:70:kick.wav
192,192,33666,1,0,0:0:0:0:
64,192,33860,128,0,33957:0:0:0:100:snare.wav
448,192,33860,1,0,0:0:0:0:
320,192,33957,128,0,34053:0:0:0:0:
192,192,34053,128,0,34150:0:0:0:70:kick.wav
320,192,34150,128,0,34247:0:0:0:0:
64,192,34247,1,0,0:0:0:70:kick.wav
192,192,34247,1,0,0:0:0:70:cymbal_dramatic.wav
448,192,34247,128,0,34441:0:0:0:0:
192,192,34441,128,0,34537:0:0:0:0:
64,192,34634,128,0,34731:0:0:0:100:snare.wav
320,192,34634,1,0,0:0:0:0:
320,192,34828,128,0,35021:0:0:0:0:
448,192,34828,1,0,0:0:0:0:
64,192,35215,128,0,35312:0:0:0:70:kick.wav
192,192,35215,1,0,0:0:0:0:
192,192,35408,128,0,35505:0:0:0:100:snare.wav
448,192,35408,1,0,0:0:0:0:
448,192,35602,128,0,35989:0:0:0:0:
64,192,35699,128,0,35989:0:0:0:0:
192,192,35795,1,0,0:0:0:70:kick.wav
320,192,35795,1,0,0:0:0:0:
320,192,35989,128,0,36182:0:0:0:0:
64,192,36182,128,0,36279:0:0:0:100:snare.wav
448,192,36182,1,0,0:0:0:0:
64,192,36376,1,0,0:0:0:0:
192,192,36376,128,0,36763:0:0:0:0:
320,192,36763,128,0,36860:0:0:0:70:kick.wav
448,192,36763,1,0,0:0:0:0:
64,192,36957,128,0,37053:0:0:0:100:snare.wav
448,192,36957,1,0,0:0:0:0:
320,192,37053,128,0,37150:0:0:0:0:
192,192,37150,128,0,37247:0:0:0:0:
320,192,37247,128,0,37344:0:0:0:0:
64,192,37344,1,0,0:0:0:70:kick.wav
448,192,37344,128,0,37537:0:0:0:0:
192,192,37537,128,0,37634:0:0:0:0:
320,192,37634,128,0,37731:0:0:0:0:
64,192,37731,128,0,37924:0:0:0:100:snare.wav
448,192,37731,1,0,0:0:0:0:
448,192,37924,128,0,38021:0:0:0:0:
192,192,38021,128,0,38118:0:0:0:0:
320,192,38118,128,0,38312:0:0:0:0:
64,192,38312,128,0,38408:0:0:0:70:kick.wav
192,192,38312,1,0,0:0:0:0:
64,192,38505,1,0,0:0:0:100:snare.wav
448,192,38505,128,0,38602:0:0:0:0:
192,192,38699,128,0,38795:0:0:0:0:
320,192,38892,128,0,38989:0:0:0:70:kick.wav
448,192,38892,1,0,0:0:0:0:
64,192,39086,1,0,0:0:0:70:kick.wav
192,192,39086,128,0,39279:0:0:0:70:cymbal3.wav
448,192,39086,1,0,0:0:0:0:
320,192,39279,1,0,0:0:0:100:snare.wav
64,192,39473,1,0,0:0:0:70:kick.wav
192,192,39473,1,0,0:0:0:70:cymbal2.wav
448,192,39473,128,0,39860:0:0:0:0:
64,192,39860,128,0,39957:0:0:0:70:kick.wav
320,192,39860,1,0,0:0:0:0:
448,192,40053,1,0,0:0:0:40:kick_minor.wav
64,192,40150,1,0,0:0:0:40:kick_minor.wav
448,192,40247,1,0,0:0:0:40:kick_minor.wav
64,192,40344,1,0,0:0:0:40:kick_minor.wav
192,192,40441,1,0,0:0:0:70:kick.wav
320,192,40441,1,0,0:0:0:70:cymbal_dramatic.wav
448,192,40441,1,0,0:0:0:0:
64,192,40537,1,0,0:0:0:0:
320,192,40634,1,0,0:0:0:0:
192,192,40731,1,0,0:0:0:0:
448,192,40731,1,0,0:0:0:0:
64,192,41021,1,0,0:0:0:0:
192,192,41021,1,0,0:0:0:0:
320,192,41118,1,0,0:0:0:0:
192,192,41215,1,0,0:0:0:70:kick.wav
64,192,41312,1,0,0:0:0:0:
448,192,41312,1,0,0:0:0:0:
64,192,41602,1,0,0:0:0:100:snare.wav
192,192,41602,1,0,0:0:0:0:
448,192,41699,1,0,0:0:0:0:
192,192,41795,1,0,0:0:0:0:
64,192,41892,1,0,0:0:0:0:
320,192,41892,1,0,0:0:0:0:
320,192,42182,1,0,0:0:0:0:
448,192,42182,1,0,0:0:0:0:
192,192,42279,1,0,0:0:0:0:
320,192,42376,1,0,0:0:0:100:snare.wav
64,192,42473,1,0,0:0:0:0:
448,192,42473,1,0,0:0:0:0:
320,192,42763,128,0,43150:0:0:0:70:kick.wav
448,192,42763,1,0,0:0:0:0:
64,192,42957,1,0,0:0:0:0:
448,192,43053,1,0,0:0:0:0:
64,192,43150,1,0,0:0:0:100:snare.wav
192,192,43150,128,0,43247:0:0:0:0:
448,192,43344,1,0,0:0:0:0:
192,192,43441,1,0,0:0:0:0:
320,192,43537,1,0,0:0:0:70:kick.wav
448,192,43537,1,0,0:0:0:0:
64,192,43634,1,0,0:0:0:0:
320,192,43731,1,0,0:0:0:0:
192,192,43828,1,0,0:0:0:0:
448,192,43828,1,0,0:0:0:0:
64,192,44118,1,0,0:0:0:0:
192,192,44118,1,0,0:0:0:0:
320,192,44215,1,0,0:0:0:0:
192,192,44312,1,0,0:0:0:70:kick.wav
64,192,44408,1,0,0:0:0:0:
448,192,44408,1,0,0:0:0:0:
64,192,44699,1,0,0:0:0:100:snare.wav
192,192,44699,1,0,0:0:0:0:
448,192,44795,1,0,0:0:0:0:
192,192,44892,1,0,0:0:0:0:
64,192,44989,1,0,0:0:0:0:
320,192,44989,1,0,0:0:0:0:
320,192,45279,1,0,0:0:0:0:
448,192,45279,1,0,0:0:0:0:
192,192,45376,1,0,0:0:0:0:
320,192,45473,1,0,0:0:0:100:snare.wav
64,192,45570,1,0,0:0:0:0:
448,192,45570,1,0,0:0:0:0:
320,192,45763,1,0,0:0:0:40:kick_minor.wav
64,192,45860,1,0,0:0:0:70:kick.wav
192,192,45860,1,0,0:0:0:0:
320,192,45957,1,0,0:0:0:40:kick_minor.wav
192,192,46150,1,0,0:0:0:40:kick_minor.wav
64,192,46247,1,0,0:0:0:100:snare.wav
448,192,46247,128,0,46344:0:0:0:40:kick_minor.wav
192,192,46344,128,0,46441:0:0:0:0:
320,192,46441,128,0,46537:0:0:0:40:kick_minor.wav
64,192,46537,128,0,46634:0:0:0:0:
192,192,46634,1,0,0:0:0:70:kick.wav
320,192,46634,1,0,0:0:0:70:cymbal_dramatic.wav
448,192,46634,128,0,46828:0:0:0:0:
64,192,46731,128,0,46828:0:0:0:0:
320,192,46828,128,0,46924:0:0:0:0:
192,192,46924,128,0,47021:0:0:0:0:
448,192,46924,1,0,0:0:0:0:
320,192,47215,128,0,47408:0:0:0:0:
448,192,47215,1,0,0:0:0:0:
64,192,47312,128,0,47408:0:0:0:0:
192,192,47408,128,0,47505:0:0:0:70:kick.wav
64,192,47505,1,0,0:0:0:0:
320,192,47505,128,0,47602:0:0:0:0:
64,192,47795,1,0,0:0:0:100:snare.wav
192,192,47795,128,0,47989:0:0:0:0:
448,192,47892,128,0,47989:0:0:0:0:
320,192,47989,128,0,48086:0:0:0:0:
192,192,48086,128,0,48182:0:0:0:0:
448,192,48086,1,0,0:0:0:0:
64,192,48376,128,0,48570:0:0:0:0:
192,192,48376,1,0,0:0:0:0:
448,192,48473,128,0,48570:0:0:0:0:
192,192,48570,128,0,48666:0:0:0:100:snare.wav
64,192,48666,1,0,0:0:0:0:
320,192,48666,128,0,48763:0:0:0:0:
320,192,48957,128,0,49150:0:0:0:70:kick.wav
448,192,48957,1,0,0:0:0:0:
192,192,49150,1,0,0:0:0:0:
320,192,49247,1,0,0:0:0:0:
64,192,49344,1,0,0:0:0:100:snare.wav
192,192,49344,128,0,49537:0:0:0:40:kick_minor.wav
448,192,49441,1,0,0:0:0:40:kick_minor.wav
320,192,49537,1,0,0:0:0:40:kick_minor.wav
448,192,49634,1,0,0:0:0:40:kick_minor.wav
64,192,49731,128,0,49924:0:0:0:70:kick.wav
192,192,49731,1,0,0:0:0:70:cymbal_dramatic.wav
320,192,49731,1,0,0:0:0:0:
64,192,50118,128,0,50312:0:0:0:100:snare.wav
448,192,50118,1,0,0:0:0:0:
320,192,50312,1,0,0:0:0:0:
64,192,50505,128,0,50699:0:0:0:0:
64,192,50892,128,0,51086:0:0:0:100:snare.wav
448,192,50892,1,0,0:0:0:0:
192,192,51086,1,0,0:0:0:0:
320,192,51279,1,0,0:0:0:70:kick.wav
448,192,51279,128,0,51473:0:0:0:0:
192,192,51473,1,0,0:0:0:40:kick_minor.wav
320,192,51570,1,0,0:0:0:40:kick_minor.wav
64,192,51666,1,0,0:0:0:100:snare.wav
448,192,51666,128,0,51763:0:0:0:40:kick_minor.wav
64,192,51860,128,0,52053:0:0:0:40:kick_minor.wav
192,192,51860,1,0,0:0:0:0:
448,192,51957,1,0,0:0:0:40:kick_minor.wav
320,192,52053,1,0,0:0:0:40:kick_minor.wav
192,192,52247,1,0,0:0:0:40:kick_minor.wav
320,192,52344,1,0,0:0:0:0:
64,192,52441,128,0,52537:0:0:0:100:snare.wav
448,192,52441,1,0,0:0:0:40:kick_minor.wav
320,192,52537,128,0,52634:0:0:0:40:kick_minor.wav
192,192,52634,128,0,52731:0:0:0:100:snare.wav
448,192,52731,128,0,52828:0:0:0:40:kick_minor.wav
64,192,52828,128,0,53021:0:0:0:70:kick.wav
192,192,52828,1,0,0:0:0:70:cymbal_dramatic.wav
320,192,52828,1,0,0:0:0:0:
320,192,53021,1,0,0:0:0:0:
64,192,53118,128,0,53215:0:0:0:0:
192,192,53215,1,0,0:0:0:100:snare.wav
448,192,53215,1,0,0:0:0:0:
192,192,53408,128,0,53505:0:0:0:0:
320,192,53602,128,0,53795:0:0:0:70:kick.wav
448,192,53602,1,0,0:0:0:0:
192,192,53795,1,0,0:0:0:0:
448,192,53892,1,0,0:0:0:0:
64,192,53989,1,0,0:0:0:100:snare.wav
320,192,53989,128,0,54086:0:0:0:0:
192,192,54182,128,0,54279:0:0:0:0:
64,192,54376,128,0,54570:0:0:0:70:kick.wav
448,192,54376,1,0,0:0:0:0:
192,192,54570,1,0,0:0:0:0:
448,192,54666,128,0,54763:0:0:0:0:
64,192,54763,1,0,0:0:0:100:snare.wav
320,192,54763,1,0,0:0:0:0:
64,192,54957,128,0,55344:0:0:0:0:
320,192,55150,1,0,0:0:0:70:kick.wav
448,192,55150,1,0,0:0:0:0:
320,192,55344,1,0,0:0:0:0:
192,192,55441,1,0,0:0:0:0:
64,192,55537,1,0,0:0:0:100:snare.wav
448,192,55537,1,0,0:0:0:0:
64,192,55731,1,0,0:0:0:0:
320,192,55924,1,0,0:0:0:70:kick.wav
448,192,55924,128,0,56118:0:0:0:0:
192,192,56118,1,0,0:0:0:0:
448,192,56215,128,0,56312:0:0:0:0:
64,192,56312,1,0,0:0:0:100:snare.wav
320,192,56312,1,0,0:0:0:0:
192,192,56505,1,0,0:0:0:0:
64,192,56602,1,0,0:0:0:0:
320,192,56699,1,0,0:0:0:70:kick.wav
448,192,56699,128,0,56795:0:0:0:0:
192,192,56892,128,0,56989:0:0:0:0:
64,192,57086,1,0,0:0:0:100:snare.wav
320,192,57086,128,0,57182:0:0:0:0:
448,192,57279,128,0,57376:0:0:0:0:
64,192,57473,128,0,57666:0:0:0:70:kick.wav
192,192,57473,1,0,0:0:0:0:
192,192,57666,1,0,0:0:0:40:kick_minor.wav
448,192,57763,128,0,57860:0:0:0:40:kick_minor.wav
64,192,57860,1,0,0:0:0:100:snare.wav
320,192,57860,1,0,0:0:0:40:kick_minor.wav
64,192,58053,128,0,58441:0:0:0:40:kick_minor.wav
320,192,58247,1,0,0:0:0:70:kick.wav
448,192,58247,1,0,0:0:0:0:
192,192,58344,1,0,0:0:0:40:kick_minor.wav
320,192,58537,1,0,0:0:0:40:kick_minor.wav
64,192,58634,128,0,58731:0:0:0:100:snare.wav
448,192,58634,1,0,0:0:0:40:kick_minor.wav
320,192,58731,128,0,58828:0:0:0:0:
192,192,58828,128,0,58924:0:0:0:40:kick_minor.wav
448,192,58924,128,0,59021:0:0:0:0:
64,192,59021,128,0,59215:0:0:0:70:kick.wav
192,192,59021,1,0,0:0:0:0:
320,192,59215,1,0,0:0:0:0:
64,192,59312,128,0,59408:0:0:0:0:
192,192,59408,1,0,0:0:0:100:snare.wav
448,192,59408,1,0,0:0:0:0:
192,192,59602,128,0,59699:0:0:0:0:
320,192,59795,128,0,59989:0:0:0:70:kick.wav
448,192,59795,1,0,0:0:0:0:
192,192,59989,1,0,0:0:0:0:
448,192,60086,1,0,0:0:0:0:
64,192,60182,1,0,0:0:0:100:snare.wav
320,192,60182,128,0,60279:0:0:0:0:
192,192,60376,128,0,60473:0:0:0:0:
64,192,60570,128,0,60763:0:0:0:70:kick.wav
448,192,60570,1,0,0:0:0:0:
192,192,60763,1,0,0:0:0:0:
320,192,60860,128,0,60957:0:0:0:0:
64,192,60957,1,0,0:0:0:100:snare.wav
448,192,60957,1,0,0:0:0:0:
64,192,61150,128,0,61537:0:0:0:0:
320,192,61344,1,0,0:0:0:70:kick.wav
448,192,61344,1,0,0:0:0:0:
320,192,61537,1,0,0:0:0:0:
192,192,61634,1,0,0:0:0:0:
64,192,61731,1,0,0:0:0:100:snare.wav
448,192,61731,1,0,0:0:0:0:
64,192,61924,1,0,0:0:0:0:
320,192,62118,128,0,62312:0:0:0:70:kick.wav
448,192,62118,1,0,0:0:0:0:
192,192,62312,1,0,0:0:0:0:
320,192,62408,1,0,0:0:0:0:
64,192,62505,1,0,0:0:0:100:snare.wav
448,192,62505,128,0,62699:0:0:0:0:
320,192,62699,1,0,0:0:0:0:
192,192,62795,128,0,62892:0:0:0:0:
192,192,62989,128,0,63182:0:0:0:0:
448,192,63086,1,0,0:0:0:0:
320,192,63182,1,0,0:0:0:0:
64,192,63279,128,0,63473:0:0:0:100:snare.wav
448,192,63279,1,0,0:0:0:0:
192,192,63473,1,0,0:0:0:0:
64,192,63570,1,0,0:0:0:0:
320,192,63666,128,0,63860:0:0:0:0:
192,192,63860,1,0,0:0:0:0:
320,192,63957,1,0,0:0:0:0:
64,192,64053,128,0,64150:0:0:0:100:snare.wav
448,192,64053,1,0,0:0:0:0:
320,192,64247,1,0,0:0:0:0:
448,192,64247,128,0,64828:0:0:0:0:
192,192,64634,1,0,0:0:0:0:
320,192,64731,1,0,0:0:0:0:
64,192,64828,1,0,0:0:0:100:snare.wav
192,192,64828,128,0,65021:0:0:0:0:
320,192,65021,1,0,0:0:0:100:snare.wav
192,192,65118,1,0,0:0:0:40:kick_minor.wav
64,192,65215,128,0,65408:0:0:0:70:kick.wav
320,192,65215,1,0,0:0:0:70:cymbal_dramatic.wav
448,192,65215,1,0,0:0:0:0:
320,192,65408,1,0,0:0:0:0:
64,192,65505,128,0,65602:0:0:0:0:
192,192,65602,1,0,0:0:0:100:snare.wav
448,192,65602,1,0,0:0:0:0:
192,192,65795,128,0,65892:0:0:0:0:
320,192,65989,128,0,66182:0:0:0:70:kick.wav
448,192,65989,1,0,0:0:0:0:
192,192,66182,1,0,0:0:0:0:
448,192,66279,1,0,0:0:0:0:
64,192,66376,1,0,0:0:0:100:snare.wav
320,192,66376,128,0,66473:0:0:0:0:
192,192,66570,128,0,66666:0:0:0:0:
64,192,66763,128,0,66957:0:0:0:70:kick.wav
448,192,66763,1,0,0:0:0:0:
192,192,66957,1,0,0:0:0:0:
448,192,67053,128,0,67150:0:0:0:0:
64,192,67150,1,0,0:0:0:100:snare.wav
320,192,67150,1,0,0:0:0:0:
64,192,67344,128,0,67828:0:0:0:0:
192,192,67441,128,0,67731:0:0:0:0:
320,192,67537,1,0,0:0:0:70:kick.wav
448,192,67537,1,0,0:0:0:0:
320,192,67731,1,0,0:0:0:0:
192,192,67828,1,0,0:0:0:0:
64,192,67924,1,0,0:0:0:100:snare.wav
448,192,67924,1,0,0:0:0:0:
64,192,68118,1,0,0:0:0:0:
320,192,68312,1,0,0:0:0:70:kick.wav
448,192,68312,128,0,68505:0:0:0:0:
192,192,68505,1,0,0:0:0:0:
448,192,68602,128,0,68699:0:0:0:0:
64,192,68699,1,0,0:0:0:100:snare.wav
320,192,68699,1,0,0:0:0:0:
192,192,68892,1,0,0:0:0:0:
64,192,68989,1,0,0:0:0:0:
320,192,69086,1,0,0:0:0:70:kick.wav
448,192,69086,128,0,69182:0:0:0:0:
192,192,69279,128,0,69376:0:0:0:0:
64,192,69473,1,0,0:0:0:100:snare.wav
320,192,69473,128,0,69570:0:0:0:0:
448,192,69666,128,0,69763:0:0:0:0:
64,192,69860,128,0,70053:0:0:0:70:kick.wav
192,192,69860,1,0,0:0:0:0:
192,192,70053,1,0,0:0:0:40:kick_minor.wav
448,192,70150,128,0,70247:0:0:0:40:kick_minor.wav
64,192,70247,1,0,0:0:0:100:snare.wav
320,192,70247,1,0,0:0:0:40:kick_minor.wav
192,192,70441,128,0,70924:0:0:0:40:kick_minor.wav
64,192,70537,128,0,70924:0:0:0:40:kick_minor.wav
448,192,70634,1,0,0:0:0:70:kick.wav
320,192,70731,1,0,0:0:0:40:kick_minor.wav
320,192,70924,1,0,0:0:0:40:kick_minor.wav
64,192,71021,128,0,71118:0:0:0:100:snare.wav
448,192,71021,1,0,0:0:0:40:kick_minor.wav
320,192,71118,128,0,71215:0:0:0:0:
192,192,71215,128,0,71312:0:0:0:40:kick_minor.wav
448,192,71312,128,0,71408:0:0:0:0:
64,192,71408,128,0,71602:0:0:0:70:kick.wav
192,192,71408,1,0,0:0:0:0:
320,192,71602,1,0,0:0:0:0:
64,192,71699,128,0,71795:0:0:0:0:
192,192,71795,1,0,0:0:0:100:snare.wav
448,192,71795,1,0,0:0:0:0:
192,192,71989,128,0,72086:0:0:0:0:
320,192,72182,128,0,72376:0:0:0:70:kick.wav
448,192,72182,1,0,0:0:0:0:
192,192,72376,1,0,0:0:0:0:
448,192,72473,1,0,0:0:0:0:
64,192,72570,1,0,0:0:0:100:snare.wav
320,192,72570,128,0,72666:0:0:0:0:
192,192,72763,128,0,72860:0:0:0:0:
64,192,72957,128,0,73150:0:0:0:70:kick.wav
448,192,72957,1,0,0:0:0:0:
192,192,73150,1,0,0:0:0:0:
320,192,73247,128,0,73344:0:0:0:0:
64,192,73344,1,0,0:0:0:100:snare.wav
448,192,73344,1,0,0:0:0:0:
64,192,73537,128,0,74021:0:0:0:0:
192,192,73634,128,0,73924:0:0:0:0:
320,192,73731,1,0,0:0:0:70:kick.wav
448,192,73731,1,0,0:0:0:0:
320,192,73924,1,0,0:0:0:0:
192,192,74021,1,0,0:0:0:0:
64,192,74118,1,0,0:0:0:100:snare.wav
448,192,74118,1,0,0:0:0:0:
64,192,74312,1,0,0:0:0:0:
320,192,74505,128,0,74699:0:0:0:70:kick.wav
448,192,74505,1,0,0:0:0:0:
192,192,74699,1,0,0:0:0:0:
320,192,74795,1,0,0:0:0:0:
64,192,74892,1,0,0:0:0:100:snare.wav
448,192,74892,128,0,75086:0:0:0:0:
320,192,75086,1,0,0:0:0:0:
192,192,75182,128,0,75279:0:0:0:0:
320,192,75279,1,0,0:0:0:70:kick.wav
448,192,75279,1,0,0:0:0:0:
192,192,75376,128,0,75570:0:0:0:0:
320,192,75570,1,0,0:0:0:0:
64,192,75666,128,0,75860:0:0:0:100:snare.wav
448,192,75666,1,0,0:0:0:0:
192,192,75860,1,0,0:0:0:0:
64,192,75957,1,0,0:0:0:0:
320,192,76053,128,0,76247:0:0:0:70:kick.wav
448,192,76053,1,0,0:0:0:0:
192,192,76247,1,0,0:0:0:40:kick_minor.wav
320,192,76344,1,0,0:0:0:40:kick_minor.wav
64,192,76441,128,0,76537:0:0:0:100:snare.wav
448,192,76441,1,0,0:0:0:40:kick_minor.wav
448,192,76634,128,0,77215:0:0:0:40:kick_minor.wav
320,192,76731,1,0,0:0:0:40:kick_minor.wav
64,192,76828,1,0,0:0:0:70:kick.wav
192,192,76828,1,0,0:0:0:0:
320,192,76924,1,0,0:0:0:40:kick_minor.wav
192,192,77118,1,0,0:0:0:40:kick_minor.wav
64,192,77215,128,0,77408:0:0:0:100:snare.wav
320,192,77215,1,0,0:0:0:40:kick_minor.wav
192,192,77408,1,0,0:0:0:40:kick_minor.wav
320,192,77505,1,0,0:0:0:40:kick_minor.wav
64,192,77602,1,0,0:0:0:70:kick.wav
192,192,77602,128,0,77892:0:0:0:70:cymbal_dramatic.wav
448,192,77602,1,0,0:0:0:0:
320,192,77795,1,0,0:0:0:0:
64,192,77892,128,0,77989:0:0:0:0:
192,192,77989,1,0,0:0:0:100:snare.wav
448,192,77989,1,0,0:0:0:0:
320,192,78182,128,0,78376:0:0:0:0:
64,192,78376,1,0,0:0:0:70:kick.wav
192,192,78376,128,0,78666:0:0:0:0:
320,192,78570,1,0,0:0:0:0:
64,192,78666,128,0,78763:0:0:0:0:
192,192,78763,1,0,0:0:0:100:snare.wav
448,192,78763,1,0,0:0:0:0:
320,192,78957,128,0,79150:0:0:0:0:
64,192,79150,1,0,0:0:0:70:kick.wav
192,192,79150,128,0,79441:0:0:0:0:
320,192,79344,1,0,0:0:0:0:
64,192,79441,128,0,79537:0:0:0:0:
192,192,79537,1,0,0:0:0:100:snare.wav
448,192,79537,1,0,0:0:0:0:
320,192,79731,128,0,79924:0:0:0:0:
64,192,79924,1,0,0:0:0:70:kick.wav
192,192,79924,128,0,80118:0:0:0:0:
320,192,80118,1,0,0:0:0:0:
192,192,80215,1,0,0:0:0:0:
64,192,80312,1,0,0:0:0:100:snare.wav
448,192,80312,1,0,0:0:0:0:
320,192,80505,1,0,0:0:0:0:
64,192,80602,1,0,0:0:0:0:
320,192,80699,128,0,80989:0:0:0:70:kick.wav
448,192,80699,1,0,0:0:0:0:
192,192,80892,1,0,0:0:0:0:
448,192,80989,128,0,81086:0:0:0:0:
64,192,81086,1,0,0:0:0:100:snare.wav
320,192,81086,1,0,0:0:0:0:
192,192,81279,128,0,81473:0:0:0:0:
320,192,81473,128,0,81763:0:0:0:70:kick.wav
448,192,81473,1,0,0:0:0:0:
192,192,81666,1,0,0:0:0:0:
448,192,81763,128,0,81860:0:0:0:0:
64,192,81860,1,0,0:0:0:100:snare.wav
320,192,81860,1,0,0:0:0:0:
192,192,82053,128,0,82247:0:0:0:0:
320,192,82247,128,0,82537:0:0:0:70:kick.wav
448,192,82247,1,0,0:0:0:0:
192,192,82441,1,0,0:0:0:0:
448,192,82537,128,0,82634:0:0:0:0:
64,192,82634,1,0,0:0:0:100:snare.wav
320,192,82634,1,0,0:0:0:0:
192,192,82828,128,0,83021:0:0:0:0:
320,192,83021,128,0,83215:0:0:0:70:kick.wav
448,192,83021,1,0,0:0:0:0:
192,192,83215,1,0,0:0:0:0:
320,192,83312,1,0,0:0:0:0:
64,192,83408,1,0,0:0:0:100:snare.wav
448,192,83408,1,0,0:0:0:0:
192,192,83602,1,0,0:0:0:0:
448,192,83699,1,0,0:0:0:0:
64,192,83795,128,0,83892:0:0:0:70:kick.wav
192,192,83795,128,0,84086:0:0:0:40:kick_minor.wav
320,192,83989,1,0,0:0:0:40:kick_minor.wav
64,192,84086,128,0,84182:0:0:0:0:
192,192,84182,1,0,0:0:0:100:snare.wav
448,192,84182,1,0,0:0:0:40:kick_minor.wav
320,192,84376,128,0,84570:0:0:0:40:kick_minor.wav
448,192,84376,1,0,0:0:0:0:
64,192,84570,1,0,0:0:0:70:kick.wav
192,192,84570,128,0,84860:0:0:0:40:kick_minor.wav
320,192,84763,1,0,0:0:0:40:kick_minor.wav
64,192,84860,128,0,84957:0:0:0:0:
192,192,84957,1,0,0:0:0:100:snare.wav
448,192,84957,1,0,0:0:0:40:kick_minor.wav
320,192,85150,128,0,85344:0:0:0:40:kick_minor.wav
448,192,85150,1,0,0:0:0:0:
64,192,85344,1,0,0:0:0:70:kick.wav
192,192,85344,128,0,85634:0:0:0:40:kick_minor.wav
320,192,85537,1,0,0:0:0:40:kick_minor.wav
64,192,85634,128,0,85731:0:0:0:0:
192,192,85731,1,0,0:0:0:100:snare.wav
448,192,85731,1,0,0:0:0:40:kick_minor.wav
320,192,85924,128,0,86118:0:0:0:40:kick_minor.wav
448,192,85924,1,0,0:0:0:0:
64,192,86118,1,0,0:0:0:70:kick.wav
192,192,86118,128,0,86408:0:0:0:40:kick_minor.wav
320,192,86312,1,0,0:0:0:40:kick_minor.wav
64,192,86408,128,0,86505:0:0:0:0:
192,192,86505,1,0,0:0:0:100:snare.wav
448,192,86505,1,0,0:0:0:40:kick_minor.wav
320,192,86699,128,0,86892:0:0:0:40:kick_minor.wav
448,192,86699,1,0,0:0:0:0:
64,192,86892,1,0,0:0:0:70:kick.wav
192,192,86892,128,0,86989:0:0:0:40:kick_minor.wav
448,192,86989,1,0,0:0:0:40:kick_minor.wav
64,192,87086,1,0,0:0:0:40:kick_minor.wav
320,192,87182,1,0,0:0:0:40:kick_minor.wav
320,192,87279,128,0,87376:0:0:0:70:kick.wav
448,192,87279,1,0,0:0:0:100:snare.wav
64,192,87376,1,0,0:0:0:40:kick_minor.wav
448,192,87473,1,0,0:0:0:40:kick_minor.wav
192,192,87570,1,0,0:0:0:40:kick_minor.wav
64,192,87666,1,0,0:0:0:70:kick.wav
192,192,87666,128,0,87763:0:0:0:40:kick_minor.wav
448,192,87763,1,0,0:0:0:40:kick_minor.wav
64,192,87860,1,0,0:0:0:40:kick_minor.wav
320,192,87957,1,0,0:0:0:40:kick_minor.wav
320,192,88053,128,0,88150:0:0:0:70:kick.wav
448,192,88053,1,0,0:0:0:100:snare.wav
64,192,88150,1,0,0:0:0:40:kick_minor.wav
448,192,88247,1,0,0:0:0:40:kick_minor.wav
192,192,88344,1,0,0:0:0:40:kick_minor.wav
64,192,88441,1,0,0:0:0:70:kick.wav
192,192,88441,128,0,88537:0:0:0:40:kick_minor.wav
448,192,88537,1,0,0:0:0:40:kick_minor.wav
192,192,88634,128,0,88731:0:0:0:40:kick_minor.wav
64,192,88731,1,0,0:0:0:40:kick_minor.wav
320,192,88828,1,0,0:0:0:70:kick.wav
448,192,88828,1,0,0:0:0:100:snare.wav
320,192,88924,1,0,0:0:0:40:kick_minor.wav
192,192,89021,1,0,0:0:0:40:kick_minor.wav
192,192,89118,1,0,0:0:0:40:kick_minor.wav
64,192,89215,128,0,89312:0:0:0:70:kick.wav
448,192,89215,128,0,89408:0:0:0:0:
64,192,89989,128,0,90086:0:0:0:70:kick.wav
320,192,89989,128,0,90182:0:0:0:0:
448,192,89989,1,0,0:0:0:0:
192,192,90182,1,0,0:0:0:0:
448,192,90279,1,0,0:0:0:0:
192,192,90376,1,0,0:0:0:0:
320,192,90570,1,0,0:0:0:0:
192,192,90763,128,0,90860:0:0:0:0:
448,192,90763,128,0,90957:0:0:0:0:
320,192,90957,1,0,0:0:0:0:
64,192,91150,1,0,0:0:0:0:
448,192,91344,1,0,0:0:0:0:
64,192,91537,128,0,91731:0:0:0:0:
320,192,91537,128,0,91634:0:0:0:0:
192,192,91731,1,0,0:0:0:0:
448,192,91924,1,0,0:0:0:0:
64,192,92118,1,0,0:0:0:0:
192,192,92312,128,0,92505:0:0:0:0:
448,192,92312,128,0,92408:0:0:0:0:
320,192,92505,128,0,92795:0:0:0:0:
448,192,92699,128,0,92795:0:0:0:0:
192,192,92892,128,0,92989:0:0:0:0:
64,192,93086,128,0,93182:0:0:0:0:
320,192,93086,128,0,93279:0:0:0:0:
192,192,93279,1,0,0:0:0:0:
448,192,93376,1,0,0:0:0:0:
192,192,93473,1,0,0:0:0:0:
320,192,93666,1,0,0:0:0:0:
192,192,93860,128,0,93957:0:0:0:0:
448,192,93860,128,0,94053:0:0:0:0:
320,192,94053,1,0,0:0:0:0:
64,192,94247,1,0,0:0:0:0:
448,192,94441,1,0,0:0:0:0:
192,192,94634,128,0,94731:0:0:0:0:
320,192,94634,128,0,94828:0:0:0:0:
64,192,94828,1,0,0:0:0:0:
448,192,95021,1,0,0:0:0:0:
192,192,95215,1,0,0:0:0:0:
64,192,95408,128,0,95602:0:0:0:0:
320,192,95408,128,0,95505:0:0:0:0:
448,192,95602,1,0,0:0:0:0:
192,192,95699,1,0,0:0:0:0:
448,192,95795,1,0,0:0:0:0:
64,192,95989,1,0,0:0:0:0:
64,192,96182,128,0,96279:0:0:0:0:
320,192,96182,128,0,96376:0:0:0:0:
192,192,96376,1,0,0:0:0:0:
448,192,96473,1,0,0:0:0:0:
192,192,96570,1,0,0:0:0:0:
320,192,96763,1,0,0:0:0:0:
192,192,96957,128,0,97053:0:0:0:0:
448,192,96957,128,0,97150:0:0:0:0:
320,192,97150,1,0,0:0:0:0:
64,192,97344,1,0,0:0:0:0:
448,192,97537,1,0,0:0:0:0:
64,192,97731,128,0,97924:0:0:0:0:
320,192,97731,128,0,97828:0:0:0:0:
192,192,97924,1,0,0:0:0:0:
448,192,98118,1,0,0:0:0:0:
64,192,98312,1,0,0:0:0:0:
192,192,98505,128,0,98699:0:0:0:0:
448,192,98505,128,0,98602:0:0:0:0:
64,192,98699,1,0,0:0:0:0:
448,192,98795,1,0,0:0:0:0:
64,192,98892,1,0,0:0:0:0:
448,192,99086,1,0,0:0:0:0:
64,192,99279,1,0,0:0:0:70:kick.wav
320,192,99279,128,0,99473:0:0:0:70:cymbal_dramatic.wav
448,192,99279,1,0,0:0:0:0:
192,192,99473,1,0,0:0:0:0:
320,192,99666,1,0,0:0:0:0:
448,192,99666,128,0,99860:0:0:0:0:
64,192,99860,1,0,0:0:0:0:
192,192,99957,128,0,100053:0:0:0:0:
192,192,100150,128,0,100344:0:0:0:0:
448,192,100247,1,0,0:0:0:0:
64,192,100441,128,0,100634:0:0:0:0:
192,192,100441,1,0,0:0:0:0:
448,192,100634,1,0,0:0:0:0:
64,192,100828,1,0,0:0:0:0:
320,192,100828,128,0,101021:0:0:0:0:
192,192,101021,1,0,0:0:0:0:
64,192,101215,128,0,101312:0:0:0:0:
320,192,101408,1,0,0:0:0:0:
448,192,101408,128,0,101989:0:0:0:0:
64,192,101795,1,0,0:0:0:0:
320,192,101989,128,0,102182:0:0:0:0:
192,192,102182,1,0,0:0:0:0:
64,192,102376,1,0,0:0:0:70:kick.wav
320,192,102376,1,0,0:0:0:70:cymbal_dramatic.wav
448,192,102376,128,0,102570:0:0:0:0:
192,192,102570,128,0,102666:0:0:0:0:
64,192,102763,128,0,102860:0:0:0:0:
320,192,102957,128,0,103150:0:0:0:0:
448,192,102957,1,0,0:0:0:0:
192,192,103344,1,0,0:0:0:0:
448,192,103441,1,0,0:0:0:0:
320,192,103537,128,0,103634:0:0:0:0:
64,192,103731,1,0,0:0:0:0:
192,192,103731,128,0,104118:0:0:0:0:
320,192,104118,1,0,0:0:0:0:
448,192,104118,128,0,104312:0:0:0:0:
64,192,104312,128,0,104408:0:0:0:0:
320,192,104505,128,0,104892:0:0:0:0:
448,192,104505,1,0,0:0:0:0:
192,192,104892,128,0,104989:0:0:0:0:
64,192,105279,128,0,105376:0:0:0:0:
192,192,105376,128,0,105473:0:0:0:0:
320,192,105473,128,0,105666:0:0:0:0:
448,192,105473,1,0,0:0:0:0:
64,192,105666,128,0,105763:0:0:0:0:
448,192,105860,128,0,105957:0:0:0:0:
64,192,106053,1,0,0:0:0:0:
192,192,106053,128,0,106247:0:0:0:0:
320,192,106441,128,0,106537:0:0:0:0:
192,192,106634,128,0,106731:0:0:0:0:
64,192,106828,128,0,107215:0:0:0:0:
448,192,106828,1,0,0:0:0:0:
320,192,107215,128,0,107408:0:0:0:0:
448,192,107215,1,0,0:0:0:0:
192,192,107408,128,0,107505:0:0:0:0:
64,192,107602,1,0,0:0:0:0:
448,192,107602,128,0,107989:0:0:0:0:
192,192,107795,1,0,0:0:0:0:
320,192,107892,1,0,0:0:0:0:
64,192,107989,1,0,0:0:0:0:
192,192,108086,1,0,0:0:0:0:
448,192,108182,1,0,0:0:0:0:
64,192,108279,1,0,0:0:0:0:
320,192,108376,1,0,0:0:0:0:
192,192,108473,1,0,0:0:0:0:
64,192,108570,1,0,0:0:0:0:
448,192,108570,128,0,108763:0:0:0:0:
192,192,108763,128,0,108860:0:0:0:0:
64,192,108957,128,0,109053:0:0:0:0:
320,192,109150,128,0,109537:0:0:0:0:
448,192,109150,1,0,0:0:0:0:
64,192,109537,128,0,109634:0:0:0:0:
448,192,109537,1,0,0:0:0:0:
192,192,109731,128,0,109828:0:0:0:0:
320,192,109924,1,0,0:0:0:0:
448,192,109924,128,0,110312:0:0:0:0:
64,192,110021,128,0,110312:0:0:0:0:
320,192,110312,128,0,110505:0:0:0:0:
64,192,110505,128,0,110602:0:0:0:0:
192,192,110699,128,0,111086:0:0:0:0:
448,192,110699,1,0,0:0:0:0:
320,192,111086,128,0,111182:0:0:0:0:
64,192,111279,128,0,111376:0:0:0:0:
448,192,111376,128,0,111473:0:0:0:0:
192,192,111473,128,0,111570:0:0:0:0:
320,192,111570,128,0,111666:0:0:0:0:
64,192,111666,1,0,0:0:0:0:
448,192,111666,128,0,111860:0:0:0:0:
192,192,111860,128,0,111957:0:0:0:0:
320,192,111957,128,0,112053:0:0:0:0:
64,192,112053,128,0,112247:0:0:0:0:
448,192,112247,128,0,112344:0:0:0:0:
192,192,112344,128,0,112441:0:0:0:0:
320,192,112441,128,0,112537:0:0:0:0:
448,192,112634,128,0,112828:0:0:0:0:
192,192,112828,128,0,113021:0:0:0:0:
64,192,113021,128,0,113215:0:0:0:0:
192,192,113215,1,0,0:0:0:70:kick.wav
320,192,113215,128,0,113312:0:0:0:70:cymbal2.wav
448,192,113215,1,0,0:0:0:0:
64,192,113408,1,0,0:0:0:70:kick.wav
192,192,113408,128,0,113602:0:0:0:70:cymbal3.wav
320,192,113408,1,0,0:0:0:0:
64,192,113795,128,0,113989:0:0:0:70:kick.wav
320,192,113795,1,0,0:0:0:70:cymbal_dramatic.wav
448,192,113795,128,0,114182:0:0:0:0:
320,192,114182,128,0,114376:0:0:0:0:
64,192,114376,128,0,114473:0:0:0:100:snare.wav
192,192,114376,1,0,0:0:0:0:
448,192,114473,128,0,114570:0:0:0:0:
320,192,114570,128,0,114666:0:0:0:0:
192,192,114666,128,0,114763:0:0:0:0:
64,192,114763,128,0,114957:0:0:0:70:kick.wav
320,192,114763,1,0,0:0:0:70:cymbal_dramatic.wav
448,192,114763,1,0,0:0:0:0:
320,192,114957,1,0,0:0:0:0:
64,192,115053,128,0,115150:0:0:0:0:
192,192,115150,1,0,0:0:0:100:snare.wav
448,192,115150,1,0,0:0:0:0:
192,192,115344,128,0,115441:0:0:0:0:
320,192,115537,128,0,115731:0:0:0:70:kick.wav
448,192,115537,1,0,0:0:0:0:
192,192,115731,1,0,0:0:0:0:
448,192,115828,1,0,0:0:0:0:
64,192,115924,1,0,0:0:0:100:snare.wav
320,192,115924,128,0,116021:0:0:0:0:
192,192,116118,128,0,116215:0:0:0:0:
64,192,116312,128,0,116505:0:0:0:70:kick.wav
448,192,116312,1,0,0:0:0:0:
192,192,116505,1,0,0:0:0:0:
448,192,116602,128,0,116699:0:0:0:0:
64,192,116699,1,0,0:0:0:100:snare.wav
320,192,116699,1,0,0:0:0:0:
64,192,116892,128,0,117279:0:0:0:0:
320,192,117086,1,0,0:0:0:70:kick.wav
448,192,117086,1,0,0:0:0:0:
320,192,117279,1,0,0:0:0:0:
192,192,117376,1,0,0:0:0:0:
64,192,117473,1,0,0:0:0:100:snare.wav
448,192,117473,1,0,0:0:0:0:
64,192,117666,1,0,0:0:0:0:
320,192,117860,1,0,0:0:0:70:kick.wav
448,192,117860,128,0,118053:0:0:0:0:
192,192,118053,1,0,0:0:0:0:
448,192,118150,128,0,118247:0:0:0:0:
64,192,118247,1,0,0:0:0:100:snare.wav
320,192,118247,1,0,0:0:0:0:
192,192,118441,1,0,0:0:0:0:
64,192,118537,1,0,0:0:0:0:
320,192,118634,1,0,0:0:0:70:kick.wav
448,192,118634,128,0,118731:0:0:0:0:
192,192,118828,128,0,118924:0:0:0:0:
64,192,119021,1,0,0:0:0:100:snare.wav
320,192,119021,128,0,119118:0:0:0:0:
448,192,119215,128,0,119312:0:0:0:0:
64,192,119408,128,0,119602:0:0:0:70:kick.wav
192,192,119408,1,0,0:0:0:0:
192,192,119602,1,0,0:0:0:40:kick_minor.wav
448,192,119699,128,0,119795:0:0:0:40:kick_minor.wav
64,192,119795,1,0,0:0:0:100:snare.wav
320,192,119795,1,0,0:0:0:40:kick_minor.wav
64,192,119989,128,0,120376:0:0:0:40:kick_minor.wav
320,192,120182,1,0,0:0:0:70:kick.wav
448,192,120182,1,0,0:0:0:0:
192,192,120279,1,0,0:0:0:40:kick_minor.wav
320,192,120473,1,0,0:0:0:40:kick_minor.wav
64,192,120570,128,0,120666:0:0:0:100:snare.wav
448,192,120570,1,0,0:0:0:40:kick_minor.wav
320,192,120666,128,0,120763:0:0:0:0:
192,192,120763,128,0,120860:0:0:0:40:kick_minor.wav
448,192,120860,128,0,120957:0:0:0:0:
64,192,120957,128,0,121150:0:0:0:70:kick.wav
192,192,120957,1,0,0:0:0:0:
320,192,121150,1,0,0:0:0:0:
64,192,121247,128,0,121344:0:0:0:0:
192,192,121344,1,0,0:0:0:100:snare.wav
448,192,121344,1,0,0:0:0:0:
192,192,121537,128,0,121634:0:0:0:0:
320,192,121731,128,0,121924:0:0:0:70:kick.wav
448,192,121731,1,0,0:0:0:0:
192,192,121924,1,0,0:0:0:0:
448,192,122021,1,0,0:0:0:0:
64,192,122118,1,0,0:0:0:100:snare.wav
320,192,122118,128,0,122215:0:0:0:0:
192,192,122312,128,0,122408:0:0:0:0:
64,192,122505,128,0,122699:0:0:0:70:kick.wav
448,192,122505,1,0,0:0:0:0:
192,192,122699,1,0,0:0:0:0:
320,192,122795,128,0,122892:0:0:0:0:
64,192,122892,1,0,0:0:0:100:snare.wav
448,192,122892,1,0,0:0:0:0:
64,192,123086,128,0,123473:0:0:0:0:
320,192,123279,1,0,0:0:0:70:kick.wav
448,192,123279,1,0,0:0:0:0:
320,192,123473,1,0,0:0:0:0:
192,192,123570,1,0,0:0:0:0:
64,192,123666,1,0,0:0:0:100:snare.wav
448,192,123666,1,0,0:0:0:0:
64,192,123860,1,0,0:0:0:0:
320,192,124053,128,0,124247:0:0:0:70:kick.wav
448,192,124053,1,0,0:0:0:0:
192,192,124247,1,0,0:0:0:0:
320,192,124344,1,0,0:0:0:0:
64,192,124441,1,0,0:0:0:100:snare.wav
448,192,124441,128,0,124634:0:0:0:0:
320,192,124634,1,0,0:0:0:0:
192,192,124731,128,0,124828:0:0:0:0:
192,192,124924,128,0,125118:0:0:0:0:
448,192,125021,1,0,0:0:0:0:
320,192,125118,1,0,0:0:0:0:
64,192,125215,128,0,125408:0:0:0:100:snare.wav
448,192,125215,1,0,0:0:0:0:
192,192,125408,1,0,0:0:0:0:
64,192,125505,1,0,0:0:0:0:
320,192,125602,128,0,125795:0:0:0:0:
192,192,125795,1,0,0:0:0:0:
320,192,125892,1,0,0:0:0:0:
64,192,125989,128,0,126086:0:0:0:100:snare.wav
448,192,125989,1,0,0:0:0:0:
320,192,126182,1,0,0:0:0:0:
448,192,126182,128,0,126763:0:0:0:0:
192,192,126570,1,0,0:0:0:0:
320,192,126666,1,0,0:0:0:0:
64,192,126763,1,0,0:0:0:100:snare.wav
192,192,126763,128,0,126957:0:0:0:0:
320,192,126957,1,0,0:0:0:100:snare.wav
192,192,127053,1,0,0:0:0:40:kick_minor.wav
64,192,127150,128,0,127344:0:0:0:70:kick.wav
320,192,127150,1,0,0:0:0:70:cymbal_dramatic.wav
448,192,127150,1,0,0:0:0:0:
320,192,127344,1,0,0:0:0:0:
64,192,127441,128,0,127537:0:0:0:0:
192,192,127537,1,0,0:0:0:100:snare.wav
448,192,127537,1,0,0:0:0:0:
192,192,127731,128,0,127828:0:0:0:0:
320,192,127924,128,0,128118:0:0:0:70:kick.wav
448,192,127924,1,0,0:0:0:0:
192,192,128118,1,0,0:0:0:0:
448,192,128215,1,0,0:0:0:0:
64,192,128312,1,0,0:0:0:100:snare.wav
320,192,128312,128,0,128408:0:0:0:0:
192,192,128505,128,0,128602:0:0:0:0:
64,192,128699,128,0,128892:0:0:0:70:kick.wav
448,192,128699,1,0,0:0:0:0:
192,192,128892,1,0,0:0:0:0:
448,192,128989,128,0,129086:0:0:0:0:
64,192,129086,1,0,0:0:0:100:snare.wav
320,192,129086,1,0,0:0:0:0:
64,192,129279,128,0,129763:0:0:0:0:
192,192,129376,128,0,129666:0:0:0:0:
320,192,129473,1,0,0:0:0:70:kick.wav
448,192,129473,1,0,0:0:0:0:
320,192,129666,1,0,0:0:0:0:
192,192,129763,1,0,0:0:0:0:
64,192,129860,1,0,0:0:0:100:snare.wav
448,192,129860,1,0,0:0:0:0:
64,192,130053,1,0,0:0:0:0:
320,192,130247,1,0,0:0:0:70:kick.wav
448,192,130247,128,0,130441:0:0:0:0:
192,192,130441,1,0,0:0:0:0:
448,192,130537,128,0,130634:0:0:0:0:
64,192,130634,1,0,0:0:0:100:snare.wav
320,192,130634,1,0,0:0:0:0:
192,192,130828,1,0,0:0:0:0:
64,192,130924,1,0,0:0:0:0:
320,192,131021,1,0,0:0:0:70:kick.wav
448,192,131021,128,0,131118:0:0:0:0:
192,192,131215,128,0,131312:0:0:0:0:
64,192,131408,1,0,0:0:0:100:snare.wav
320,192,131408,128,0,131505:0:0:0:0:
448,192,131602,128,0,131699:0:0:0:0:
64,192,131795,128,0,131989:0:0:0:70:kick.wav
192,192,131795,1,0,0:0:0:0:
192,192,131989,1,0,0:0:0:40:kick_minor.wav
448,192,132086,128,0,132182:0:0:0:40:kick_minor.wav
64,192,132182,1,0,0:0:0:100:snare.wav
320,192,132182,1,0,0:0:0:40:kick_minor.wav
192,192,132376,128,0,132860:0:0:0:40:kick_minor.wav
64,192,132473,128,0,132860:0:0:0:40:kick_minor.wav
448,192,132570,1,0,0:0:0:70:kick.wav
320,192,132666,1,0,0:0:0:40:kick_minor.wav
320,192,132860,1,0,0:0:0:40:kick_minor.wav
64,192,132957,128,0,133053:0:0:0:100:snare.wav
448,192,132957,1,0,0:0:0:40:kick_minor.wav
320,192,133053,128,0,133150:0:0:0:0:
192,192,133150,128,0,133247:0:0:0:40:kick_minor.wav
448,192,133247,128,0,133344:0:0:0:0:
64,192,133344,128,0,133537:0:0:0:70:kick.wav
192,192,133344,1,0,0:0:0:0:
320,192,133537,1,0,0:0:0:0:
64,192,133634,128,0,133731:0:0:0:0:
192,192,133731,1,0,0:0:0:100:snare.wav
448,192,133731,1,0,0:0:0:0:
192,192,133924,128,0,134021:0:0:0:0:
320,192,134118,128,0,134312:0:0:0:70:kick.wav
448,192,134118,1,0,0:0:0:0:
192,192,134312,1,0,0:0:0:0:
448,192,134408,1,0,0:0:0:0:
64,192,134505,1,0,0:0:0:100:snare.wav
320,192,134505,128,0,134602:0:0:0:0:
192,192,134699,128,0,134795:0:0:0:0:
64,192,134892,128,0,135086:0:0:0:70:kick.wav
448,192,134892,1,0,0:0:0:0:
192,192,135086,1,0,0:0:0:0:
320,192,135182,128,0,135279:0:0:0:0:
64,192,135279,1,0,0:0:0:100:snare.wav
448,192,135279,1,0,0:0:0:0:
64,192,135473,128,0,135957:0:0:0:0:
192,192,135570,128,0,135860:0:0:0:0:
320,192,135666,1,0,0:0:0:70:kick.wav
448,192,135666,1,0,0:0:0:0:
320,192,135860,1,0,0:0:0:0:
192,192,135957,1,0,0:0:0:0:
64,192,136053,1,0,0:0:0:100:snare.wav
448,192,136053,1,0,0:0:0:0:
64,192,136247,1,0,0:0:0:0:
320,192,136441,128,0,136634:0:0:0:70:kick.wav
448,192,136441,1,0,0:0:0:0:
192,192,136634,1,0,0:0:0:0:
320,192,136731,1,0,0:0:0:0:
64,192,136828,1,0,0:0:0:100:snare.wav
448,192,136828,128,0,137021:0:0:0:0:
320,192,137021,1,0,0:0:0:0:
192,192,137118,128,0,137215:0:0:0:0:
320,192,137215,1,0,0:0:0:70:kick.wav
448,192,137215,1,0,0:0:0:0:
192,192,137312,128,0,137505:0:0:0:0:
320,192,137505,1,0,0:0:0:0:
64,192,137602,128,0,137795:0:0:0:100:snare.wav
448,192,137602,1,0,0:0:0:0:
192,192,137795,1,0,0:0:0:0:
64,192,137892,1,0,0:0:0:0:
320,192,137989,128,0,138182:0:0:0:70:kick.wav
448,192,137989,1,0,0:0:0:0:
192,192,138182,1,0,0:0:0:40:kick_minor.wav
320,192,138279,1,0,0:0:0:40:kick_minor.wav
64,192,138376,128,0,138473:0:0:0:100:snare.wav
448,192,138376,1,0,0:0:0:40:kick_minor.wav
448,192,138570,128,0,139150:0:0:0:40:kick_minor.wav
320,192,138666,1,0,0:0:0:40:kick_minor.wav
64,192,138763,1,0,0:0:0:70:kick.wav
192,192,138763,1,0,0:0:0:0:
320,192,138860,1,0,0:0:0:40:kick_minor.wav
192,192,139053,1,0,0:0:0:40:kick_minor.wav
64,192,139150,128,0,139344:0:0:0:100:snare.wav
320,192,139150,1,0,0:0:0:40:kick_minor.wav
192,192,139344,1,0,0:0:0:100:snare.wav
320,192,139441,1,0,0:0:0:40:kick_minor.wav
64,192,139537,128,0,139731:0:0:0:70:kick.wav
192,192,139537,1,0,0:0:0:70:cymbal_dramatic.wav
448,192,139537,128,0,139634:0:0:0:0:
448,192,139731,1,0,0:0:0:0:
320,192,139828,1,0,0:0:0:0:
64,192,139924,1,0,0:0:0:100:snare.wav
192,192,139924,1,0,0:0:0:0:
320,192,140021,1,0,0:0:0:0:
192,192,140118,1,0,0:0:0:0:
448,192,140215,128,0,140408:0:0:0:0:
64,192,140312,1,0,0:0:0:70:kick.wav
320,192,140312,1,0,0:0:0:0:
192,192,140408,1,0,0:0:0:0:
448,192,140505,1,0,0:0:0:0:
64,192,140699,1,0,0:0:0:100:snare.wav
192,192,140699,1,0,0:0:0:0:
320,192,140795,1,0,0:0:0:0:
192,192,140892,1,0,0:0:0:0:
448,192,140989,128,0,141182:0:0:0:0:
64,192,141086,1,0,0:0:0:70:kick.wav
320,192,141086,1,0,0:0:0:0:
192,192,141182,1,0,0:0:0:0:
448,192,141279,1,0,0:0:0:0:
64,192,141473,1,0,0:0:0:100:snare.wav
192,192,141473,1,0,0:0:0:0:
448,192,141570,1,0,0:0:0:0:
320,192,141666,1,0,0:0:0:0:
64,192,141763,128,0,141957:0:0:0:0:
192,192,141860,1,0,0:0:0:70:kick.wav
448,192,141860,1,0,0:0:0:0:
320,192,141957,1,0,0:0:0:0:
448,192,142053,1,0,0:0:0:0:
64,192,142247,1,0,0:0:0:100:snare.wav
192,192,142247,1,0,0:0:0:0:
320,192,142344,1,0,0:0:0:0:
192,192,142441,1,0,0:0:0:0:
64,192,142634,128,0,142828:0:0:0:70:kick.wav
320,192,142634,1,0,0:0:0:70:cymbal2.wav
448,192,142634,128,0,142731:0:0:0:0:
448,192,142828,1,0,0:0:0:0:
64,192,142924,128,0,143021:0:0:0:70:kick.wav
192,192,142924,1,0,0:0:0:70:cymbal3.wav
320,192,143021,1,0,0:0:0:0:
64,192,143118,1,0,0:0:0:0:
192,192,143215,128,0,143408:0:0:0:70:kick.wav
320,192,143215,128,0,143602:0:0:0:70:cymbal_dramatic.wav
448,192,143215,1,0,0:0:0:0:
192,192,143602,1,0,0:0:0:0:
448,192,143699,1,0,0:0:0:0:
64,192,143795,1,0,0:0:0:100:snare.wav
320,192,143795,1,0,0:0:0:0:
192,192,143989,1,0,0:0:0:40:kick_minor.wav
320,192,144086,1,0,0:0:0:40:kick_minor.wav
64,192,144182,128,0,144279:0:0:0:70:kick.wav
192,192,144182,1,0,0:0:0:70:cymbal2.wav
448,192,144182,128,0,144376:0:0:0:0:
64,192,144376,1,0,0:0:0:0:
320,192,144473,1,0,0:0:0:70:kick.wav
448,192,144473,128,0,144570:0:0:0:70:cymbal3.wav
192,192,144570,1,0,0:0:0:0:
448,192,144666,1,0,0:0:0:0:
64,192,144763,1,0,0:0:0:70:kick.wav
192,192,144763,128,0,145150:0:0:0:70:cymbal_dramatic.wav
320,192,144763,128,0,144957:0:0:0:0:
64,192,145150,128,0,145247:0:0:0:0:
320,192,145344,1,0,0:0:0:100:snare.wav
448,192,145344,128,0,145441:0:0:0:0:
64,192,145441,128,0,145537:0:0:0:100:snare.wav
320,192,145537,128,0,145634:0:0:0:100:snare.wav
192,192,145634,128,0,145731:0:0:0:100:snare.wav
