osu file format v14

[General]
AudioFilename: audio.mp3
AudioLeadIn: 0
PreviewTime: 52828
Countdown: 0
SampleSet: Normal
StackLeniency: 0.7
Mode: 2
LetterboxInBreaks: 0
WidescreenStoryboard: 1

[Editor]
Bookmarks: 183,15666,40441,52828,77602,89989,114763,139537,145731
DistanceSpacing: 1
BeatDivisor: 4
GridSize: 16
TimelineZoom: 1.299999

[Metadata]
Title:Arsene's Bazaar
TitleUnicode:Arsene's Bazaar
Artist:James Landino
ArtistUnicode:James Landino
Creator:Deif
Version:Salad
Source:Twin Trials
Tags:Collaboration alienflybot autofanboy AFB Alien Tails osu! Featured Artist FA Mappers’ Guild MPG MG contest Electronic Instrumental
BeatmapID:4092701
BeatmapSetID:1972368

[Difficulty]
HPDrainRate:3
CircleSize:3
OverallDifficulty:7
ApproachRate:7
SliderMultiplier:1.6
SliderTickRate:1

[Events]
//Background and Video events
0,0,"BG.jpg",0,0
//Break Periods
//Storyboard Layer 0 (Background)
//Storyboard Layer 1 (Fail)
//Storyboard Layer 2 (Pass)
//Storyboard Layer 3 (Foreground)
//Storyboard Layer 4 (Overlay)
//Storyboard Sound Samples
Sample,52828,0,"A3S_s.wav",100
Sample,53118,0,"A3S_s.wav",100
Sample,53408,0,"A3S_s.wav",100
Sample,53602,0,"G#3S_Ab3S_s.wav",95
Sample,53892,0,"G#3S_Ab3S_s.wav",95
Sample,54182,0,"G#3S_Ab3S_s.wav",95
Sample,54376,0,"G3S_s.wav",90
Sample,54666,0,"G3S_s.wav",90
Sample,54957,0,"G3S_s.wav",90
Sample,55150,0,"F#3S_Gb3S_s.wav",85
Sample,55441,0,"F#3S_Gb3S_s.wav",85
Sample,55731,0,"F#3S_Gb3S_s.wav",85
Sample,59021,0,"A3S_s.wav",100
Sample,59311,0,"A3S_s.wav",100
Sample,59601,0,"A3S_s.wav",100
Sample,59795,0,"G#3S_Ab3S_s.wav",95
Sample,60085,0,"G#3S_Ab3S_s.wav",95
Sample,60375,0,"G#3S_Ab3S_s.wav",95
Sample,60569,0,"G3S_s.wav",90
Sample,60859,0,"G3S_s.wav",90
Sample,61150,0,"G3S_s.wav",90
Sample,61343,0,"F#3S_Gb3S_s.wav",85
Sample,61634,0,"F#3S_Gb3S_s.wav",85
Sample,61924,0,"F#3S_Gb3S_s.wav",85
Sample,65215,0,"A3S_s.wav",100
Sample,65505,0,"A3S_s.wav",100
Sample,65795,0,"A3S_s.wav",100
Sample,65989,0,"G#3S_Ab3S_s.wav",95
Sample,66279,0,"G#3S_Ab3S_s.wav",95
Sample,66569,0,"G#3S_Ab3S_s.wav",95
Sample,66763,0,"G3S_s.wav",90
Sample,67053,0,"G3S_s.wav",90
Sample,67344,0,"G3S_s.wav",90
Sample,67537,0,"F#3S_Gb3S_s.wav",85
Sample,67828,0,"F#3S_Gb3S_s.wav",85
Sample,68118,0,"F#3S_Gb3S_s.wav",85
Sample,71408,0,"A3S_s.wav",100
Sample,71698,0,"A3S_s.wav",100
Sample,71988,0,"A3S_s.wav",100
Sample,72182,0,"G#3S_Ab3S_s.wav",95
Sample,72472,0,"G#3S_Ab3S_s.wav",95
Sample,72762,0,"G#3S_Ab3S_s.wav",95
Sample,72956,0,"G3S_s.wav",90
Sample,73246,0,"G3S_s.wav",90
Sample,73537,0,"G3S_s.wav",90
Sample,73730,0,"F#3S_Gb3S_s.wav",85
Sample,74021,0,"F#3S_Gb3S_s.wav",85
Sample,74311,0,"F#3S_Gb3S_s.wav",85
Sample,114763,0,"A3S_s.wav",100
Sample,115053,0,"A3S_s.wav",100
Sample,115343,0,"A3S_s.wav",100
Sample,115537,0,"G#3S_Ab3S_s.wav",95
Sample,115827,0,"G#3S_Ab3S_s.wav",95
Sample,116117,0,"G#3S_Ab3S_s.wav",95
Sample,116311,0,"G3S_s.wav",90
Sample,116601,0,"G3S_s.wav",90
Sample,116892,0,"G3S_s.wav",90
Sample,117085,0,"F#3S_Gb3S_s.wav",85
Sample,117376,0,"F#3S_Gb3S_s.wav",85
Sample,117666,0,"F#3S_Gb3S_s.wav",85
Sample,120956,0,"A3S_s.wav",100
Sample,121246,0,"A3S_s.wav",100
Sample,121536,0,"A3S_s.wav",100
Sample,121730,0,"G#3S_Ab3S_s.wav",95
Sample,122020,0,"G#3S_Ab3S_s.wav",95
Sample,122310,0,"G#3S_Ab3S_s.wav",95
Sample,122504,0,"G3S_s.wav",90
Sample,122794,0,"G3S_s.wav",90
Sample,123085,0,"G3S_s.wav",90
Sample,123278,0,"F#3S_Gb3S_s.wav",85
Sample,123569,0,"F#3S_Gb3S_s.wav",85
Sample,123859,0,"F#3S_Gb3S_s.wav",85
Sample,127150,0,"A3S_s.wav",100
Sample,127440,0,"A3S_s.wav",100
Sample,127730,0,"A3S_s.wav",100
Sample,127924,0,"G#3S_Ab3S_s.wav",95
Sample,128214,0,"G#3S_Ab3S_s.wav",95
Sample,128504,0,"G#3S_Ab3S_s.wav",95
Sample,128698,0,"G3S_s.wav",90
Sample,128988,0,"G3S_s.wav",90
Sample,129279,0,"G3S_s.wav",90
Sample,129472,0,"F#3S_Gb3S_s.wav",85
Sample,129763,0,"F#3S_Gb3S_s.wav",85
Sample,130053,0,"F#3S_Gb3S_s.wav",85
Sample,133343,0,"A3S_s.wav",100
Sample,133633,0,"A3S_s.wav",100
Sample,133923,0,"A3S_s.wav",100
Sample,134117,0,"G#3S_Ab3S_s.wav",95
Sample,134407,0,"G#3S_Ab3S_s.wav",95
Sample,134697,0,"G#3S_Ab3S_s.wav",95
Sample,134891,0,"G3S_s.wav",90
Sample,135181,0,"G3S_s.wav",90
Sample,135472,0,"G3S_s.wav",90
Sample,135665,0,"F#3S_Gb3S_s.wav",85
Sample,135956,0,"F#3S_Gb3S_s.wav",85
Sample,136246,0,"F#3S_Gb3S_s.wav",85

[TimingPoints]
183,387.096774193548,4,3,1,70,1,0
666,-100,4,3,2,80,0,0
763,-100,4,3,1,70,0,0
1441,-100,4,3,2,80,0,0
1538,-100,4,3,1,70,0,0
2215,-100,4,3,2,80,0,0
2312,-100,4,3,1,70,0,0
2989,-100,4,3,2,80,0,0
3086,-100,4,3,1,70,0,0
3763,-100,4,3,2,80,0,0
3860,-100,4,3,1,70,0,0
4538,-100,4,3,2,80,0,0
4635,-100,4,3,1,70,0,0
5215,-100,4,3,1,70,0,0
5408,-100,4,3,1,70,0,0
6376,-100,4,3,1,70,0,0
6859,-100,4,3,2,80,0,0
6956,-100,4,3,1,70,0,0
7634,-100,4,3,2,80,0,0
7731,-100,4,3,1,70,0,0
8408,-100,4,3,2,80,0,0
8505,-100,4,3,1,70,0,0
9182,-100,4,3,2,80,0,0
9279,-100,4,3,1,70,0,0
9473,-100,4,3,1,60,0,0
9763,-100,4,3,1,70,0,0
10053,-100,4,3,1,80,0,0
10441,-100,4,3,2,80,0,0
10538,-100,4,3,1,70,0,0
11021,-100,4,3,1,65,0,0
11312,-100,4,3,1,75,0,0
11602,-100,4,3,1,85,0,0
11989,-100,4,3,2,80,0,0
12086,-100,4,3,1,70,0,0
12279,-100,4,3,2,80,0,0
12376,-100,4,3,1,70,0,0
12473,-100,4,3,2,80,0,0
12570,-100,4,1,10,80,0,0
12763,-100,4,2,0,20,0,0
13344,-100,4,2,0,30,0,0
14118,-100,4,2,0,40,0,0
14892,-100,4,2,0,50,0,0
15279,-100,4,2,0,60,0,0
15473,-100,4,2,0,70,0,0
15666,-100,4,2,1,70,0,0
15860,-100,4,3,0,80,0,0
16054,-100,4,2,1,70,0,0
16634,-100,4,3,0,80,0,0
16828,-100,4,2,1,70,0,0
17408,-100,4,3,0,80,0,0
17602,-100,4,2,1,70,0,0
18182,-100,4,3,0,80,0,0
18376,-100,4,2,1,70,0,0
18957,-100,4,3,0,80,0,0
19151,-100,4,2,1,70,0,0
19731,-100,4,3,0,80,0,0
19925,-100,4,2,1,70,0,0
20505,-100,4,3,0,80,0,0
20699,-100,4,2,1,70,0,0
20892,-100,4,2,1,70,0,0
21279,-100,4,3,0,80,0,0
21473,-100,4,2,1,70,0,0
21860,-100,4,2,1,70,0,0
22053,-100,4,3,0,80,0,0
22247,-100,4,2,1,70,0,0
22828,-100,4,3,0,80,0,0
23022,-100,4,2,1,70,0,0
23215,-100,4,2,1,70,0,0
23602,-100,4,3,0,80,0,0
23796,-100,4,2,1,70,0,0
23989,-100,4,2,1,70,0,0
24376,-100,4,3,0,80,0,0
24570,-100,4,2,1,70,0,0
25150,-100,4,3,0,80,0,0
25344,-100,4,2,1,70,0,0
25924,-100,4,3,0,80,0,0
26118,-100,4,2,1,70,0,0
26505,-100,4,3,0,80,0,0
26699,-100,4,2,1,70,0,0
27086,-100,4,2,1,70,0,0
27473,-100,4,2,1,70,0,0
28053,-100,4,2,2,75,0,0
28247,-100,4,3,0,85,0,0
28441,-100,4,2,2,75,0,0
29021,-100,4,2,10,100,0,0
29118,-100,4,2,2,75,0,0
29602,-100,4,2,11,75,0,0
29795,-100,4,3,0,85,0,0
29989,-100,4,2,2,75,0,0
30182,-100,4,2,2,75,0,0
30570,-100,4,2,10,100,0,0
30667,-100,4,2,2,75,0,0
31344,-100,4,3,0,85,0,0
31538,-100,4,2,2,75,0,0
32118,-100,4,2,10,100,0,0
32215,-100,4,2,2,75,0,0
32699,-100,4,2,11,75,0,0
32892,-100,4,3,0,85,0,0
33086,-100,4,2,2,75,0,0
33279,-100,4,2,2,75,0,0
33666,-100,4,2,10,100,0,0
33763,-100,4,2,2,75,0,0
34441,-100,4,3,0,85,0,0
34635,-100,4,2,2,75,0,0
35215,-100,4,2,10,100,0,0
35312,-100,4,2,2,75,0,0
35602,-100,4,2,2,75,0,0
35795,-100,4,2,10,100,0,0
35989,-100,4,3,0,85,0,0
36183,-100,4,2,2,75,0,0
36376,-100,4,2,2,75,0,0
36763,-100,4,2,10,100,0,0
36860,-100,4,2,2,75,0,0
37537,-100,4,3,0,80,0,0
37731,-100,4,2,2,75,0,0
38312,-100,4,2,10,100,0,0
38505,-100,4,2,2,75,0,0
38892,-100,4,3,0,80,0,0
39086,-100,4,2,2,80,0,0
39279,-100,4,2,2,75,0,0
39473,-100,4,2,2,85,0,0
39861,-100,4,2,2,75,0,0
40441,-100,4,2,3,70,0,0
42763,-100,4,2,3,70,0,0
42957,-100,4,2,3,70,0,0
46634,-100,4,2,3,80,0,0
48957,-100,4,2,3,80,0,0
49150,-100,4,2,3,80,0,0
49731,-100,4,2,0,70,0,0
51279,-100,4,2,3,70,0,0
52828,-100,4,3,3,80,0,1
53021,-100,4,2,0,95,0,1
53118,-100,4,3,3,80,0,1
53215,-100,4,1,0,85,0,1
53312,-100,4,3,3,80,0,1
53602,-100,4,3,4,80,0,1
53795,-100,4,3,3,80,0,1
53989,-100,4,1,0,85,0,1
54086,-100,4,3,3,80,0,1
54376,-83.3333333333333,4,3,3,80,0,1
54763,-100,4,1,0,85,0,1
54860,-100,4,3,3,80,0,1
55150,-100,4,3,4,80,0,1
55344,-100,4,3,3,80,0,1
55537,-100,4,1,0,85,0,1
55634,-100,4,3,3,80,0,1
55924,-100,4,3,3,80,0,1
56118,-100,4,2,0,95,0,1
56215,-100,4,3,3,80,0,1
56312,-100,4,1,0,85,0,1
56409,-100,4,3,3,80,0,1
56505,-100,4,2,0,95,0,1
56602,-100,4,3,3,80,0,1
56699,-100,4,3,4,80,0,1
56893,-100,4,3,3,80,0,1
57086,-100,4,1,0,85,0,1
57183,-100,4,3,3,80,0,1
57860,-69.9300699300699,4,1,0,85,0,1
57957,-100,4,3,3,80,0,1
58247,-100,4,3,4,80,0,1
58441,-100,4,3,3,80,0,1
58634,-100,4,1,0,85,0,1
58731,-100,4,3,3,80,0,1
59021,-100,4,3,3,80,0,1
59214,-100,4,2,0,95,0,1
59311,-100,4,3,3,80,0,1
59408,-100,4,1,0,85,0,1
59505,-100,4,3,3,80,0,1
59795,-100,4,3,4,80,0,1
59989,-100,4,3,3,80,0,1
60182,-100,4,1,0,85,0,1
60279,-100,4,3,3,80,0,1
60570,-83.3333333333333,4,3,3,80,0,1
60956,-100,4,1,0,85,0,1
61053,-100,4,3,3,80,0,1
61344,-100,4,3,4,80,0,1
61537,-100,4,3,3,80,0,1
61730,-100,4,1,0,85,0,1
61827,-100,4,3,3,80,0,1
62118,-100,4,2,1,70,0,1
62795,-100,4,2,1,70,0,1
63086,-100,4,2,1,70,0,1
64247,-100,4,2,1,70,0,1
64441,-100,4,2,1,70,0,1
65118,-100,4,3,1,80,0,0
65215,-100,4,3,3,80,0,1
65408,-100,4,2,0,95,0,1
65505,-100,4,3,3,80,0,1
65602,-100,4,1,0,85,0,1
65699,-100,4,3,3,80,0,1
65989,-100,4,3,4,80,0,1
66182,-100,4,3,3,80,0,1
66376,-100,4,1,0,85,0,1
66473,-100,4,3,3,80,0,1
66763,-83.3333333333333,4,3,3,80,0,1
67150,-100,4,1,0,85,0,1
67247,-100,4,3,3,80,0,1
67537,-100,4,3,4,80,0,1
67731,-100,4,3,3,80,0,1
67924,-100,4,1,0,85,0,1
68021,-100,4,3,3,80,0,1
68312,-100,4,3,3,80,0,1
68505,-100,4,2,0,95,0,1
68602,-100,4,3,3,80,0,1
68699,-100,4,1,0,85,0,1
68796,-100,4,3,3,80,0,1
68892,-100,4,2,0,95,0,1
68989,-100,4,3,3,80,0,1
69086,-100,4,3,4,80,0,1
69280,-100,4,3,3,80,0,1
69473,-100,4,1,0,85,0,1
69570,-100,4,3,3,80,0,1
70247,-69.9300699300699,4,1,0,85,0,1
70344,-100,4,3,3,80,0,1
70634,-100,4,3,4,80,0,1
70828,-100,4,3,3,80,0,1
71021,-100,4,1,0,85,0,1
71118,-100,4,3,3,80,0,1
71408,-100,4,3,3,80,0,1
71601,-100,4,2,0,95,0,1
71698,-100,4,3,3,80,0,1
71795,-100,4,1,0,85,0,1
71892,-100,4,3,3,80,0,1
72182,-100,4,3,4,80,0,1
72376,-100,4,3,3,80,0,1
72569,-100,4,1,0,85,0,1
72666,-100,4,3,3,80,0,1
72957,-83.3333333333333,4,3,3,80,0,1
73343,-100,4,1,0,85,0,1
73440,-100,4,3,3,80,0,1
73731,-100,4,3,4,80,0,1
73924,-100,4,3,3,80,0,1
74117,-100,4,1,0,85,0,1
74214,-100,4,3,3,80,0,1
74505,-100,4,3,4,75,0,1
77602,-100,4,2,3,75,0,0
77989,-100,4,3,0,60,0,0
78086,-100,4,2,3,75,0,0
78763,-100,4,3,0,60,0,0
78860,-100,4,2,3,75,0,0
79537,-100,4,3,0,60,0,0
79634,-100,4,2,3,75,0,0
80118,-100,4,2,0,70,0,0
80215,-100,4,2,3,75,0,0
80312,-100,4,3,0,60,0,0
80409,-100,4,2,3,75,0,0
81086,-100,4,3,0,60,0,0
81183,-100,4,2,3,75,0,0
81860,-100,4,3,0,60,0,0
81957,-100,4,2,3,75,0,0
82634,-100,4,3,0,60,0,0
82731,-100,4,2,3,75,0,0
83215,-100,4,2,0,70,0,0
83312,-100,4,2,3,75,0,0
83409,-100,4,3,0,60,0,0
83506,-100,4,2,3,75,0,0
83795,-100,4,2,3,75,0,0
84182,-100,4,3,0,60,0,0
84279,-100,4,2,3,75,0,0
84956,-100,4,3,0,60,0,0
85053,-100,4,2,3,75,0,0
85730,-100,4,3,0,60,0,0
85827,-100,4,2,3,75,0,0
86311,-100,4,2,0,70,0,0
86408,-100,4,2,3,75,0,0
86505,-100,4,3,0,60,0,0
86602,-100,4,2,3,75,0,0
89408,-100,4,2,0,10,0,0
89602,-100,4,2,0,30,0,0
89795,-100,4,2,0,80,0,0
89989,-100,4,2,4,60,0,0
90376,-100,4,2,0,75,0,0
90570,-100,4,2,4,60,0,0
91150,-100,4,2,0,75,0,0
91344,-100,4,2,4,60,0,0
91924,-100,4,2,0,75,0,0
92118,-100,4,2,4,60,0,0
92505,-100,4,2,0,75,0,0
93086,-100,4,2,4,60,0,0
93473,-100,4,2,0,75,0,0
93667,-100,4,2,4,60,0,0
94247,-100,4,2,0,75,0,0
94441,-100,4,2,4,60,0,0
95021,-100,4,2,0,75,0,0
95215,-100,4,2,4,60,0,0
95795,-100,4,2,0,75,0,0
95989,-100,4,2,4,60,0,0
96570,-100,4,2,0,75,0,0
96764,-100,4,2,4,60,0,0
97344,-100,4,2,0,75,0,0
97538,-100,4,2,4,60,0,0
98118,-100,4,2,0,75,0,0
98312,-100,4,2,4,60,0,0
98892,-100,4,2,0,75,0,0
99086,-100,4,2,4,60,0,0
99279,-100,4,1,10,60,0,0
99473,-100,4,3,0,60,0,0
102376,-100,4,2,2,70,0,0
102570,-100,4,3,0,80,0,0
102764,-100,4,2,1,70,0,0
103344,-100,4,3,0,80,0,0
103538,-100,4,2,1,70,0,0
104118,-100,4,3,0,80,0,0
104312,-100,4,2,1,70,0,0
104892,-100,4,3,0,80,0,0
105086,-100,4,2,1,70,0,0
105667,-100,4,3,0,80,0,0
105861,-100,4,2,1,70,0,0
106441,-100,4,3,0,80,0,0
106635,-100,4,2,1,70,0,0
107215,-100,4,3,0,80,0,0
107409,-100,4,2,1,70,0,0
107602,-100,4,2,1,70,0,0
107989,-100,4,3,0,80,0,0
108183,-100,4,2,1,70,0,0
108570,-100,4,2,1,70,0,0
108763,-100,4,3,0,80,0,0
108957,-100,4,2,1,70,0,0
109538,-100,4,3,0,80,0,0
109732,-100,4,2,1,70,0,0
109924,-83.3333333333333,4,2,1,70,0,0
110312,-100,4,3,0,80,0,0
110506,-100,4,2,1,70,0,0
110699,-100,4,2,1,70,0,0
111086,-100,4,3,0,80,0,0
111280,-100,4,2,1,70,0,0
111860,-100,4,3,0,80,0,0
112054,-100,4,2,1,70,0,0
112634,-100,4,3,0,80,0,0
112828,-100,4,2,1,70,0,0
113215,-100,4,2,2,80,0,0
113408,-100,4,2,2,70,0,0
113795,-71.4285714285714,4,2,2,80,0,0
114182,-100,4,2,2,75,0,0
114763,-100,4,3,3,80,0,1
114956,-100,4,2,0,95,0,1
115053,-100,4,3,3,80,0,1
115150,-100,4,1,0,85,0,1
115247,-100,4,3,3,80,0,1
115537,-100,4,3,4,80,0,1
115730,-100,4,3,3,80,0,1
115924,-100,4,1,0,85,0,1
116021,-100,4,3,3,80,0,1
116312,-83.3333333333333,4,3,3,80,0,1
116698,-100,4,1,0,85,0,1
116795,-100,4,3,3,80,0,1
117085,-100,4,3,4,80,0,1
117279,-100,4,3,3,80,0,1
117472,-100,4,1,0,85,0,1
117569,-100,4,3,3,80,0,1
117859,-100,4,3,3,80,0,1
118053,-100,4,2,0,95,0,1
118150,-100,4,3,3,80,0,1
118247,-100,4,1,0,85,0,1
118344,-100,4,3,3,80,0,1
118440,-100,4,2,0,95,0,1
118537,-100,4,3,3,80,0,1
118634,-100,4,3,4,80,0,1
118828,-100,4,3,3,80,0,1
119021,-100,4,1,0,85,0,1
119118,-100,4,3,3,80,0,1
119795,-69.9300699300699,4,1,0,85,0,1
119892,-100,4,3,3,80,0,1
120182,-100,4,3,4,80,0,1
120376,-100,4,3,3,80,0,1
120569,-100,4,1,0,85,0,1
120666,-100,4,3,3,80,0,1
120956,-100,4,3,3,80,0,1
121149,-100,4,2,0,95,0,1
121246,-100,4,3,3,80,0,1
121343,-100,4,1,0,85,0,1
121440,-100,4,3,3,80,0,1
121730,-100,4,3,4,80,0,1
121924,-100,4,3,3,80,0,1
122117,-100,4,1,0,85,0,1
122214,-100,4,3,3,80,0,1
122505,-83.3333333333333,4,3,3,80,0,1
122891,-100,4,1,0,85,0,1
122988,-100,4,3,3,80,0,1
123279,-100,4,3,4,80,0,1
123472,-100,4,3,3,80,0,1
123665,-100,4,1,0,85,0,1
123762,-100,4,3,3,80,0,1
124053,-100,4,2,1,70,0,1
124730,-100,4,2,1,70,0,1
125021,-100,4,2,1,70,0,1
126182,-100,4,2,1,70,0,1
126376,-100,4,2,1,70,0,1
127053,-100,4,3,1,80,0,0
127150,-100,4,3,3,80,0,1
127343,-100,4,2,0,95,0,1
127440,-100,4,3,3,80,0,1
127537,-100,4,1,0,85,0,1
127634,-100,4,3,3,80,0,1
127924,-100,4,3,4,80,0,1
128117,-100,4,3,3,80,0,1
128311,-100,4,1,0,85,0,1
128408,-100,4,3,3,80,0,1
128699,-83.3333333333333,4,3,3,80,0,1
129085,-100,4,1,0,85,0,1
129182,-100,4,3,3,80,0,1
129472,-100,4,3,4,80,0,1
129666,-100,4,3,3,80,0,1
129859,-100,4,1,0,85,0,1
129956,-100,4,3,3,80,0,1
130247,-100,4,3,3,80,0,1
130440,-100,4,2,0,95,0,1
130537,-100,4,3,3,80,0,1
130634,-100,4,1,0,85,0,1
130731,-100,4,3,3,80,0,1
130827,-100,4,2,0,95,0,1
130924,-100,4,3,3,80,0,1
131021,-100,4,3,4,80,0,1
131215,-100,4,3,3,80,0,1
131408,-100,4,1,0,85,0,1
131505,-100,4,3,3,80,0,1
132182,-69.9300699300699,4,1,0,85,0,1
132279,-100,4,3,3,80,0,1
132569,-100,4,3,4,80,0,1
132763,-100,4,3,3,80,0,1
132956,-100,4,1,0,85,0,1
133053,-100,4,3,3,80,0,1
133343,-100,4,3,3,80,0,1
133536,-100,4,2,0,95,0,1
133633,-100,4,3,3,80,0,1
133730,-100,4,1,0,85,0,1
133827,-100,4,3,3,80,0,1
134117,-100,4,3,4,80,0,1
134311,-100,4,3,3,80,0,1
134504,-100,4,1,0,85,0,1
134601,-100,4,3,3,80,0,1
134892,-83.3333333333333,4,3,3,80,0,1
135278,-100,4,1,0,85,0,1
135375,-100,4,3,3,80,0,1
135666,-100,4,3,4,80,0,1
135859,-100,4,3,3,80,0,1
136052,-100,4,1,0,85,0,1
136149,-100,4,3,3,80,0,1
136440,-100,4,3,4,75,0,1
139537,-100,4,3,1,70,0,0
140020,-100,4,3,2,80,0,0
140117,-100,4,3,1,70,0,0
140795,-100,4,3,2,80,0,0
140892,-100,4,3,1,70,0,0
141569,-100,4,3,2,80,0,0
141666,-100,4,3,1,70,0,0
142343,-100,4,3,2,80,0,0
142440,-100,4,3,1,70,0,0
142634,-100,4,3,1,60,0,0
142924,-100,4,3,1,70,0,0
143214,-100,4,3,1,80,0,0
143602,-100,4,3,2,80,0,0
143699,-100,4,3,1,70,0,0
144182,-100,4,3,1,65,0,0
144473,-100,4,3,1,75,0,0
144763,-100,4,3,1,85,0,0
145150,-100,4,3,2,80,0,0
145247,-100,4,3,1,70,0,0
145440,-100,4,3,2,80,0,0
145537,-100,4,3,1,70,0,0
145634,-100,4,3,2,80,0,0
145731,-100,4,1,10,80,0,0

[Colours]
Combo1 : 154,88,38
Combo2 : 185,176,81
Combo3 : 252,201,47
Combo4 : 98,157,187

[HitObjects]
144,192,183,5,14,0:0:0:0:
48,192,376,1,2,0:0:0:0:
144,192,570,2,0,L|160:144,1,40,8|2,0:0|0:0,0:0:0:0:
64,160,860,1,2,0:0:0:0:
208,160,1150,1,2,0:0:0:0:
304,160,1344,2,0,L|320:112,1,40,8|2,0:0|0:0,0:0:0:0:
224,128,1634,5,2,0:0:0:0:
368,192,1924,1,2,0:0:0:0:
464,192,2118,2,0,L|480:144,1,40,8|2,0:0|0:0,0:0:0:0:
384,160,2408,1,2,0:0:0:0:
240,160,2699,1,2,0:0:0:0:
336,192,2892,2,0,L|336:272,1,80,8|8,0:0|0:0,0:0:0:0:
160,304,3279,5,10,0:0:0:0:
64,304,3473,1,2,0:0:0:0:
160,304,3666,2,0,L|144:256,1,40,8|2,0:0|0:0,0:0:0:0:
48,272,3957,1,2,0:0:0:0:
192,272,4247,1,2,0:0:0:0:
288,272,4441,2,0,L|208:272,1,80,8|0,0:0|0:0,0:0:0:0:
112,192,4828,6,0,L|192:192,2,80,10|2|10,0:0|0:0|0:0,0:0:0:0:
208,128,5408,1,2,0:0:0:0:
256,128,5505,1,2,0:0:0:0:
432,128,5699,1,2,0:0:0:0:
336,192,5892,1,2,0:0:0:0:
288,192,5989,1,10,0:0:0:0:
192,192,6182,1,2,0:0:0:0:
368,192,6376,5,14,0:0:0:0:
464,192,6570,1,2,0:0:0:0:
368,192,6763,2,0,L|352:144,1,40,8|2,0:0|0:0,0:0:0:0:
448,160,7053,1,2,0:0:0:0:
304,160,7344,1,2,0:0:0:0:
208,160,7537,2,0,L|192:112,1,40,8|2,0:0|0:0,0:0:0:0:
288,128,7828,5,2,0:0:0:0:
144,192,8118,1,2,0:0:0:0:
48,192,8312,2,0,L|32:144,1,40,8|2,0:0|0:0,0:0:0:0:
128,160,8602,1,2,0:0:0:0:
272,160,8892,1,2,0:0:0:0:
176,192,9086,2,0,L|176:272,1,80,8|8,0:0|0:0,0:0:0:0:
352,304,9473,6,0,L|480:304,1,120,10|10,0:0|0:0,0:0:0:0:
224,304,10053,2,0,P|196:248|224:160,1,160,14|2,0:0|0:0,0:0:0:0:
320,160,10634,2,0,L|336:240,1,80,8|2,0:0|0:0,0:0:0:0:
160,304,11021,6,0,L|32:304,1,120,10|10,0:0|0:0,0:0:0:0:
288,304,11602,2,0,P|336:256|288:192,1,160,14|2,0:0|0:0,0:0:0:0:
192,192,12182,1,10,0:0:0:0:
288,192,12376,1,10,0:0:0:0:
464,192,12570,5,4,0:0:0:0:
256,192,12957,12,2,15279,0:0:0:0:
224,192,15666,5,12,0:0:0:0:
128,192,15860,1,2,0:0:0:0:
64,128,16053,2,0,L|64:48,1,80,2|8,0:0|0:0,0:0:0:0:
240,128,16634,2,0,L|240:48,1,80,2|2,0:0|0:0,0:0:0:0:
144,48,17021,1,8,0:0:0:0:
320,48,17408,6,0,L|240:48,1,80,2|2,0:0|0:0,0:0:0:0:
336,48,17795,2,0,P|368:112|336:192,1,160,8|2,0:0|0:0,0:0:0:0:
160,192,18570,1,2,0:0:0:0:
256,192,18763,5,8,0:0:0:0:
160,192,18957,1,2,0:0:0:0:
96,128,19150,2,0,L|96:48,1,80,2|8,0:0|0:0,0:0:0:0:
272,48,19731,2,0,L|192:48,2,80,2|2|8,0:0|0:0|0:0,0:0:0:0:
96,192,20505,6,0,L|176:192,1,80,2|2,0:0|0:0,0:0:0:0:
80,288,20892,2,0,P|28:244|80:192,1,160,8|2,0:0|0:0,0:0:0:0:
176,192,21473,1,2,0:0:0:0:
80,192,21666,1,2,0:0:0:0:
176,192,21860,5,8,0:0:0:0:
272,192,22053,1,2,0:0:0:0:
176,192,22247,1,2,0:0:0:0:
80,192,22441,1,8,0:0:0:0:
256,192,22828,2,0,L|176:192,1,80,2|0,0:0|0:0,0:0:0:0:
272,192,23215,6,0,B|432:192,1,160,8|2,0:0|0:0,0:0:0:0:
336,192,23795,1,2,0:0:0:0:
432,288,23989,2,0,P|484:244|432:192,1,160,8|2,0:0|0:0,0:0:0:0:
336,192,24570,1,2,0:0:0:0:
432,192,24763,1,2,0:0:0:0:
336,192,24957,5,8,0:0:0:0:
240,192,25150,1,2,0:0:0:0:
64,192,25537,1,8,0:0:0:0:
240,192,25924,2,0,L|240:272,1,80,2|2,0:0|0:0,0:0:0:0:
144,288,26312,1,8,0:0:0:0:
48,288,26505,5,2,0:0:0:0:
144,288,26699,1,2,0:0:0:0:
320,288,27086,2,0,L|160:288,1,160,8|0,0:0|0:0,0:0:0:0:
336,288,27860,1,2,0:0:0:0:
160,192,28053,5,12,0:0:0:0:
64,192,28247,1,2,0:0:0:0:
64,96,28441,1,2,0:0:0:0:
160,96,28634,1,8,0:0:0:0:
336,192,29021,2,0,L|336:112,1,80,0|2,0:0|0:0,0:0:0:0:
240,112,29408,1,8,0:0:0:0:
336,112,29602,5,0,0:0:0:0:
432,112,29795,1,2,0:0:0:0:
336,112,29989,1,2,0:0:0:0:
160,336,30182,2,0,P|128:272|160:192,1,160,8|0,0:0|0:0,0:0:0:0:
256,192,30763,1,0,0:0:0:0:
160,192,30957,1,2,0:0:0:0:
336,192,31150,6,0,L|352:112,1,80,8|2,0:0|0:0,0:0:0:0:
256,112,31537,1,2,0:0:0:0:
352,112,31731,1,8,0:0:0:0:
176,192,32118,2,0,L|96:192,2,80,0|2|8,0:0|0:0|0:0,0:0:0:0:
272,192,32699,5,0,0:0:0:0:
176,192,32892,1,2,0:0:0:0:
272,192,33086,1,2,0:0:0:0:
448,288,33279,2,0,P|500:244|448:192,1,160,8|0,0:0|0:0,0:0:0:0:
352,192,33860,1,8,0:0:0:0:
448,192,34053,1,8,0:0:0:0:
272,192,34247,5,12,0:0:0:0:
176,192,34441,1,2,0:0:0:0:
176,96,34634,1,2,0:0:0:0:
272,96,34828,1,8,0:0:0:0:
448,96,35215,1,0,0:0:0:0:
352,96,35408,1,2,0:0:0:0:
176,192,35602,6,0,L|16:192,1,160,8|2,0:0|0:0,0:0:0:0:
112,192,36182,1,2,0:0:0:0:
288,192,36376,2,0,P|340:148|288:96,1,160,8|0,0:0|0:0,0:0:0:0:
192,96,36957,1,8,0:0:0:0:
288,96,37150,1,8,0:0:0:0:
464,192,37344,6,0,L|480:112,1,80,8|2,0:0|0:0,0:0:0:0:
304,112,37924,1,8,0:0:0:0:
128,112,38312,2,0,L|64:160,2,80,0|2|8,0:0|0:0|0:0,0:0:0:0:
224,112,38892,5,2,0:0:0:0:
400,192,39086,2,0,L|416:112,1,80,2|0,0:0|0:0,0:0:0:0:
240,192,39473,2,0,L|80:192,1,160,8|0,0:0|0:0,0:0:0:0:
80,112,40053,1,2,0:0:0:0:
176,112,40247,1,8,0:0:0:0:
352,112,40441,6,0,P|368:144|352:224,1,120,6|2,0:0|0:0,0:0:0:0:
208,288,41021,2,0,L|336:288,1,120,10|2,0:0|0:0,0:0:0:0:
480,112,41602,6,0,P|496:144|480:224,1,120,10|2,0:0|0:0,0:0:0:0:
336,288,42182,2,0,L|464:288,1,120,10|2,0:0|0:0,0:0:0:0:
208,192,42763,6,0,L|368:192,1,160,10|10,0:0|0:0,0:0:0:0:
368,112,43344,1,0,0:0:0:0:
192,112,43537,6,0,P|176:144|192:224,1,120,10|2,0:0|0:0,0:0:0:0:
336,288,44118,2,0,L|208:288,1,120,10|2,0:0|0:0,0:0:0:0:
64,112,44699,6,0,P|48:144|64:224,1,120,10|2,0:0|0:0,0:0:0:0:
208,288,45279,2,0,L|80:288,1,120,8|2,0:0|0:0,0:0:0:0:
336,192,45860,6,0,L|176:192,1,160,10|10,0:0|0:0,0:0:0:0:
272,112,46441,1,0,0:0:0:0:
448,64,46634,6,0,P|484:112|448:144,1,120,14|2,0:0|0:0,0:0:0:0:
304,144,47215,2,0,L|176:144,1,120,10|2,0:0|0:0,0:0:0:0:
320,320,47795,6,0,P|356:272|320:240,1,120,10|2,0:0|0:0,0:0:0:0:
176,240,48376,2,0,L|48:240,1,120,10|2,0:0|0:0,0:0:0:0:
304,192,48957,6,0,L|144:192,1,160,10|10,0:0|0:0,0:0:0:0:
240,112,49537,1,0,0:0:0:0:
416,112,49731,5,4,0:0:0:0:
256,192,50118,12,8,50892,0:0:0:0:
240,192,51279,5,8,0:0:0:0:
416,192,51666,1,8,0:0:0:0:
240,192,51860,2,0,P|240:128|320:96,1,160,2|2,0:0|0:0,0:0:0:0:
416,96,52441,1,8,0:0:0:0:
320,96,52634,1,8,0:0:0:0:
144,96,52828,6,0,L|64:96,1,80,12|2,0:0|0:0,0:0:0:0:
24,96,53118,2,0,L|144:96,1,120,2|2,0:0|0:0,0:0:0:0:
320,96,53602,2,0,L|336:176,1,80,8|2,0:0|0:0,0:0:0:0:
240,192,53989,1,0,0:0:0:0:
336,208,54182,1,2,0:0:0:0:
160,208,54376,6,0,L|16:208,2,143.999995605469,8|2|2,0:0|0:0|0:0,0:0:0:0:
336,208,55150,2,0,P|356:176|288:96,1,160,8|0,0:0|0:0,0:0:0:0:
192,96,55731,1,2,0:0:0:0:
368,96,55924,6,0,L|448:96,1,80,8|2,0:0|0:0,0:0:0:0:
488,96,56215,2,0,L|368:96,1,120,2|2,0:0|0:0,0:0:0:0:
192,96,56699,2,0,L|176:176,1,80,8|2,0:0|0:0,0:0:0:0:
272,96,57086,2,0,L|288:176,1,80,0|2,0:0|0:0,0:0:0:0:
112,192,57473,6,0,L|32:192,1,80,8|0,0:0|0:0,0:0:0:0:
72,240,57763,1,2,0:0:0:0:
112,240,57860,1,0,0:0:0:0:
16,192,58053,1,2,0:0:0:0:
192,192,58247,1,8,0:0:0:0:
288,192,58441,1,2,0:0:0:0:
288,96,58634,1,0,0:0:0:0:
192,96,58828,1,2,0:0:0:0:
368,96,59021,6,0,L|448:96,1,80,12|2,0:0|0:0,0:0:0:0:
488,96,59312,2,0,L|368:96,1,120,2|2,0:0|0:0,0:0:0:0:
192,96,59795,2,0,L|176:176,1,80,8|2,0:0|0:0,0:0:0:0:
272,192,60182,1,0,0:0:0:0:
176,208,60376,1,2,0:0:0:0:
352,208,60570,6,0,L|496:208,2,143.999995605469,8|2|2,0:0|0:0|0:0,0:0:0:0:
176,208,61344,2,0,P|144:192|176:96,1,160,8|0,0:0|0:0,0:0:0:0:
272,96,61924,1,2,0:0:0:0:
96,128,62118,6,0,P|72:168|96:272,1,160,2|2,0:0|0:0,0:0:0:0:
224,272,62795,1,2,0:0:0:0:
128,272,62989,1,2,0:0:0:0:
384,272,63279,1,2,0:0:0:0:
208,128,63666,6,0,P|184:168|208:272,1,160,2|2,0:0|0:0,0:0:0:0:
384,128,64247,2,0,P|408:168|384:272,1,160,2|0,0:0|0:0,0:0:0:0:
272,192,64828,2,0,L|192:192,1,80,2|0,0:0|0:0,0:0:0:0:
368,96,65215,6,0,L|448:96,1,80,12|2,0:0|0:0,0:0:0:0:
488,96,65505,2,0,L|368:96,1,120,2|2,0:0|0:0,0:0:0:0:
192,96,65989,2,0,L|176:176,1,80,8|2,0:0|0:0,0:0:0:0:
240,208,66376,1,0,0:0:0:0:
336,208,66570,1,2,0:0:0:0:
160,208,66763,6,0,L|16:208,2,143.999995605469,8|2|2,0:0|0:0|0:0,0:0:0:0:
336,208,67537,2,0,P|356:176|288:96,1,160,8|0,0:0|0:0,0:0:0:0:
192,96,68118,1,2,0:0:0:0:
368,96,68312,6,0,L|448:96,1,80,8|2,0:0|0:0,0:0:0:0:
488,96,68602,2,0,L|368:96,1,120,2|2,0:0|0:0,0:0:0:0:
192,96,69086,2,0,L|112:96,1,80,8|2,0:0|0:0,0:0:0:0:
208,176,69473,2,0,L|288:176,1,80,0|2,0:0|0:0,0:0:0:0:
112,192,69860,6,0,L|96:272,1,80,8|0,0:0|0:0,0:0:0:0:
112,272,70150,1,2,0:0:0:0:
176,272,70247,1,0,0:0:0:0:
272,240,70441,1,2,0:0:0:0:
96,96,70634,2,0,L|16:96,2,80,8|2|0,0:0|0:0|0:0,0:0:0:0:
192,96,71215,1,2,0:0:0:0:
368,96,71408,6,0,L|448:96,1,80,12|2,0:0|0:0,0:0:0:0:
488,96,71699,2,0,L|368:96,1,120,2|2,0:0|0:0,0:0:0:0:
192,96,72182,2,0,L|176:176,1,80,8|2,0:0|0:0,0:0:0:0:
240,208,72570,1,0,0:0:0:0:
336,208,72763,1,2,0:0:0:0:
160,208,72957,6,0,L|16:208,2,143.999995605469,8|2|2,0:0|0:0|0:0,0:0:0:0:
336,208,73731,2,0,P|356:176|288:96,1,160,8|0,0:0|0:0,0:0:0:0:
192,96,74312,1,2,0:0:0:0:
368,128,74505,6,0,P|392:168|368:272,1,160,2|2,0:0|0:0,0:0:0:0:
240,272,75182,1,2,0:0:0:0:
336,272,75376,1,2,0:0:0:0:
80,272,75666,2,0,L|64:192,1,80,2|0,0:0|0:0,0:0:0:0:
160,192,76053,5,2,0:0:0:0:
256,192,76247,2,0,L|272:112,1,80,2|2,0:0|0:0,0:0:0:0:
96,112,76634,2,0,P|72:152|96:256,1,160,2|0,0:0|0:0,0:0:0:0:
208,176,77215,2,0,L|288:176,1,80,2|0,0:0|0:0,0:0:0:0:
112,176,77602,6,0,L|96:304,1,120,12|2,0:0|0:0,0:0:0:0:
224,176,78182,1,2,0:0:0:0:
128,176,78376,2,0,L|128:304,1,120,8|2,0:0|0:0,0:0:0:0:
256,176,78957,1,2,0:0:0:0:
160,176,79150,6,0,L|176:304,1,120,8|2,0:0|0:0,0:0:0:0:
304,176,79731,1,2,0:0:0:0:
208,176,79924,2,0,P|128:144|128:80,1,160,8|8,0:0|0:0,0:0:0:0:
224,176,80505,1,0,0:0:0:0:
400,176,80699,6,0,L|416:304,1,120,8|2,0:0|0:0,0:0:0:0:
288,176,81279,1,2,0:0:0:0:
384,176,81473,2,0,L|384:304,1,120,8|2,0:0|0:0,0:0:0:0:
256,176,82053,1,2,0:0:0:0:
352,176,82247,6,0,L|336:304,1,120,8|2,0:0|0:0,0:0:0:0:
208,176,82828,1,2,0:0:0:0:
304,176,83021,2,0,P|384:144|384:80,1,160,8|8,0:0|0:0,0:0:0:0:
288,176,83602,1,0,0:0:0:0:
112,96,83795,6,0,L|16:24,1,120,12|0,0:0|0:0,0:0:0:0:
144,16,84376,1,2,0:0:0:0:
240,192,84570,2,0,L|144:120,1,120,8|0,0:0|0:0,0:0:0:0:
272,112,85150,1,2,0:0:0:0:
368,288,85344,6,0,L|464:360,1,120,8|0,0:0|0:0,0:0:0:0:
336,368,85924,1,2,0:0:0:0:
240,192,86118,2,0,L|336:264,1,120,8|0,0:0|0:0,0:0:0:0:
208,272,86699,1,0,0:0:0:0:
112,272,86892,6,0,L|272:272,3,160,8|8|8|8,0:0|0:0|0:0|0:0,0:0:0:0:
80,272,88441,6,0,L|96:192,1,80,8|2,0:0|0:0,0:0:0:0:
192,272,88828,2,0,L|208:192,1,80,8|2,0:0|0:0,0:0:0:0:
32,272,89215,2,0,B|32:112|32:112|112:112,1,240,8|0,0:0|0:0,0:0:0:0:
288,112,89989,5,12,0:0:0:0:
384,112,90182,2,0,L|400:192,1,80,2|2,0:0|0:0,0:0:0:0:
304,192,90570,1,2,0:0:0:0:
208,192,90763,2,0,L|192:112,1,80,8|0,0:0|0:0,0:0:0:0:
288,192,91150,2,0,L|272:112,1,80,2|2,0:0|0:0,0:0:0:0:
176,112,91537,5,8,0:0:0:0:
80,112,91731,1,0,0:0:0:0:
48,192,91924,1,2,0:0:0:0:
80,272,92118,1,2,0:0:0:0:
176,272,92312,1,8,0:0:0:0:
352,272,92699,1,2,0:0:0:0:
176,112,93086,5,8,0:0:0:0:
272,112,93279,2,0,L|256:192,1,80,2|2,0:0|0:0,0:0:0:0:
160,192,93666,1,2,0:0:0:0:
64,192,93860,2,0,L|48:112,1,80,8|0,0:0|0:0,0:0:0:0:
144,112,94247,1,2,0:0:0:0:
240,112,94441,1,2,0:0:0:0:
336,192,94634,5,8,0:0:0:0:
240,192,94828,1,2,0:0:0:0:
144,192,95021,2,0,L|128:272,1,80,2|2,0:0|0:0,0:0:0:0:
224,272,95408,1,8,0:0:0:0:
400,192,95795,1,2,0:0:0:0:
224,112,96182,5,8,0:0:0:0:
128,112,96376,2,0,L|112:192,1,80,2|2,0:0|0:0,0:0:0:0:
208,192,96763,1,2,0:0:0:0:
304,192,96957,2,0,L|320:112,1,80,8|0,0:0|0:0,0:0:0:0:
224,192,97344,2,0,L|240:112,1,80,2|2,0:0|0:0,0:0:0:0:
336,112,97731,5,8,0:0:0:0:
432,112,97924,1,2,0:0:0:0:
464,192,98118,1,2,0:0:0:0:
432,272,98312,1,2,0:0:0:0:
336,272,98505,1,8,0:0:0:0:
160,272,98892,1,2,0:0:0:0:
480,272,99279,6,0,L|496:112,1,160,4|2,0:0|0:0,0:0:0:0:
368,112,99957,1,8,0:0:0:0:
464,112,100150,1,8,0:0:0:0:
336,272,100441,2,0,L|320:192,1,80,2|0,0:0|0:0,0:0:0:0:
416,272,100828,6,0,L|432:112,1,160,2|2,0:0|0:0,0:0:0:0:
256,272,101408,2,0,P|208:208|256:160,1,160,8|0,0:0|0:0,0:0:0:0:
352,160,101989,2,0,L|368:240,1,80,8|0,0:0|0:0,0:0:0:0:
192,160,102376,5,12,0:0:0:0:
96,160,102570,1,2,0:0:0:0:
48,224,102763,1,2,0:0:0:0:
96,288,102957,1,8,0:0:0:0:
272,288,103344,2,0,L|272:208,1,80,2|2,0:0|0:0,0:0:0:0:
176,192,103731,6,0,B|176:112|176:112|256:112,1,160,8|2,0:0|0:0,0:0:0:0:
352,112,104312,1,2,0:0:0:0:
256,192,104505,2,0,L|416:192,1,160,8|2,0:0|0:0,0:0:0:0:
416,192,105279,1,2,0:0:0:0:
320,192,105473,5,8,0:0:0:0:
272,128,105666,1,2,0:0:0:0:
320,64,105860,1,2,0:0:0:0:
416,64,106053,1,8,0:0:0:0:
240,64,106441,1,2,0:0:0:0:
336,64,106634,1,2,0:0:0:0:
240,64,106828,6,0,B|240:144|240:144|320:144,1,160,8|2,0:0|0:0,0:0:0:0:
416,192,107408,1,2,0:0:0:0:
320,240,107602,2,0,L|160:240,1,160,8|2,0:0|0:0,0:0:0:0:
112,192,108182,1,2,0:0:0:0:
160,144,108376,1,2,0:0:0:0:
256,160,108570,5,8,0:0:0:0:
352,160,108763,1,2,0:0:0:0:
400,224,108957,1,2,0:0:0:0:
352,288,109150,2,0,L|192:288,1,160,8|2,0:0|0:0,0:0:0:0:
288,192,109731,1,0,0:0:0:0:
192,96,109924,6,0,L|384:96,1,191.999994140625,8|2,0:0|0:0,0:0:0:0:
288,192,110505,1,2,0:0:0:0:
384,288,110699,2,0,L|224:288,1,160,8|2,0:0|0:0,0:0:0:0:
224,192,111279,1,2,0:0:0:0:
320,112,111473,1,2,0:0:0:0:
224,192,111666,6,0,L|208:112,1,80,8|2,0:0|0:0,0:0:0:0:
384,112,112247,1,8,0:0:0:0:
208,256,112634,2,0,L|208:176,1,80,2|2,0:0|0:0,0:0:0:0:
304,176,113021,1,8,0:0:0:0:
128,192,113215,5,10,0:0:0:0:
32,192,113408,2,0,L|16:112,1,80,10|0,0:0|0:0,0:0:0:0:
192,192,113795,2,0,P|268:128|192:64,1,223.999993164063,10|0,0:0|0:0,0:0:0:0:
96,64,114376,1,2,0:0:0:0:
192,64,114570,1,8,0:0:0:0:
368,96,114763,6,0,L|448:96,1,80,12|2,0:0|0:0,0:0:0:0:
488,96,115053,2,0,L|368:96,1,120,2|2,0:0|0:0,0:0:0:0:
192,96,115537,2,0,L|176:176,1,80,8|2,0:0|0:0,0:0:0:0:
272,192,115924,1,0,0:0:0:0:
176,208,116118,1,2,0:0:0:0:
352,208,116312,6,0,L|496:208,2,143.999995605469,8|2|2,0:0|0:0|0:0,0:0:0:0:
176,208,117086,2,0,P|156:176|224:96,1,160,8|0,0:0|0:0,0:0:0:0:
320,96,117666,1,2,0:0:0:0:
144,96,117860,6,0,L|64:96,1,80,8|2,0:0|0:0,0:0:0:0:
24,96,118150,2,0,L|144:96,1,120,2|2,0:0|0:0,0:0:0:0:
320,96,118634,2,0,L|336:176,1,80,8|2,0:0|0:0,0:0:0:0:
240,96,119021,2,0,L|224:176,1,80,0|2,0:0|0:0,0:0:0:0:
400,192,119408,6,0,L|416:272,1,80,8|0,0:0|0:0,0:0:0:0:
384,272,119699,1,2,0:0:0:0:
336,272,119795,1,0,0:0:0:0:
240,240,119989,1,2,0:0:0:0:
416,96,120182,2,0,L|496:96,2,80,8|2|0,0:0|0:0|0:0,0:0:0:0:
320,96,120763,1,2,0:0:0:0:
144,96,120957,6,0,L|64:96,1,80,12|2,0:0|0:0,0:0:0:0:
24,96,121247,2,0,L|144:96,1,120,2|2,0:0|0:0,0:0:0:0:
320,96,121731,2,0,L|336:176,1,80,8|2,0:0|0:0,0:0:0:0:
240,192,122118,1,0,0:0:0:0:
336,208,122312,1,2,0:0:0:0:
160,208,122505,6,0,L|16:208,2,143.999995605469,8|2|2,0:0|0:0|0:0,0:0:0:0:
336,208,123279,2,0,P|368:192|336:96,1,160,8|0,0:0|0:0,0:0:0:0:
240,96,123860,1,2,0:0:0:0:
416,128,124053,6,0,P|440:168|416:272,1,160,2|2,0:0|0:0,0:0:0:0:
288,272,124731,1,2,0:0:0:0:
384,272,124924,1,2,0:0:0:0:
128,272,125215,1,2,0:0:0:0:
304,128,125602,6,0,P|328:168|304:272,1,160,2|2,0:0|0:0,0:0:0:0:
128,128,126182,2,0,P|104:168|128:272,1,160,2|0,0:0|0:0,0:0:0:0:
240,192,126763,2,0,L|320:192,1,80,2|0,0:0|0:0,0:0:0:0:
144,96,127150,6,0,L|64:96,1,80,12|2,0:0|0:0,0:0:0:0:
24,96,127441,2,0,L|144:96,1,120,2|2,0:0|0:0,0:0:0:0:
320,96,127924,2,0,L|336:176,1,80,8|2,0:0|0:0,0:0:0:0:
272,208,128312,1,0,0:0:0:0:
176,208,128505,1,2,0:0:0:0:
352,208,128699,6,0,L|496:208,2,143.999995605469,8|2|2,0:0|0:0|0:0,0:0:0:0:
176,208,129473,2,0,P|156:176|224:96,1,160,8|0,0:0|0:0,0:0:0:0:
320,96,130053,1,2,0:0:0:0:
144,96,130247,6,0,L|64:96,1,80,8|2,0:0|0:0,0:0:0:0:
24,96,130537,2,0,L|144:96,1,120,2|2,0:0|0:0,0:0:0:0:
320,96,131021,2,0,L|400:96,1,80,8|2,0:0|0:0,0:0:0:0:
304,176,131408,2,0,L|224:176,1,80,0|2,0:0|0:0,0:0:0:0:
400,192,131795,6,0,L|480:192,1,80,8|0,0:0|0:0,0:0:0:0:
440,240,132086,1,2,0:0:0:0:
400,240,132182,1,0,0:0:0:0:
496,192,132376,1,2,0:0:0:0:
320,192,132570,1,8,0:0:0:0:
224,192,132763,1,2,0:0:0:0:
224,96,132957,1,0,0:0:0:0:
320,96,133150,1,2,0:0:0:0:
144,96,133344,6,0,L|64:96,1,80,12|2,0:0|0:0,0:0:0:0:
24,96,133634,2,0,L|144:96,1,120,2|2,0:0|0:0,0:0:0:0:
320,96,134118,2,0,L|336:176,1,80,8|2,0:0|0:0,0:0:0:0:
272,208,134505,1,0,0:0:0:0:
176,208,134699,1,2,0:0:0:0:
352,208,134892,6,0,L|496:208,2,143.999995605469,8|2|2,0:0|0:0|0:0,0:0:0:0:
176,208,135666,2,0,P|156:176|224:96,1,160,8|0,0:0|0:0,0:0:0:0:
320,96,136247,1,2,0:0:0:0:
144,128,136441,6,0,P|120:168|144:272,1,160,2|2,0:0|0:0,0:0:0:0:
272,272,137118,1,2,0:0:0:0:
176,272,137312,1,2,0:0:0:0:
432,272,137602,2,0,L|432:192,1,80,2|0,0:0|0:0,0:0:0:0:
337,191,137989,5,2,0:0:0:0:
432,192,138182,2,0,L|464:112,1,80,2|2,0:0|0:0,0:0:0:0:
288,112,138570,2,0,P|264:152|288:256,1,160,2|0,0:0|0:0,0:0:0:0:
400,256,139150,2,0,L|320:256,1,80,2|0,0:0|0:0,0:0:0:0:
144,192,139537,5,14,0:0:0:0:
48,192,139731,1,2,0:0:0:0:
144,192,139924,2,0,L|160:144,1,40,8|2,0:0|0:0,0:0:0:0:
64,160,140215,1,2,0:0:0:0:
208,160,140505,1,2,0:0:0:0:
304,160,140699,2,0,L|320:112,1,40,8|2,0:0|0:0,0:0:0:0:
224,128,140989,5,2,0:0:0:0:
368,192,141279,1,2,0:0:0:0:
464,192,141473,2,0,L|480:144,1,40,8|2,0:0|0:0,0:0:0:0:
384,160,141763,1,2,0:0:0:0:
240,160,142053,1,2,0:0:0:0:
336,192,142247,2,0,L|336:272,1,80,8|8,0:0|0:0,0:0:0:0:
160,304,142634,6,0,L|32:304,1,120,10|10,0:0|0:0,0:0:0:0:
288,304,143215,2,0,P|316:248|288:160,1,160,14|2,0:0|0:0,0:0:0:0:
192,160,143795,2,0,L|176:240,1,80,8|2,0:0|0:0,0:0:0:0:
352,304,144182,6,0,L|480:304,1,120,10|10,0:0|0:0,0:0:0:0:
224,304,144763,2,0,P|176:256|224:192,1,160,14|2,0:0|0:0,0:0:0:0:
320,192,145344,1,10,0:0:0:0:
144,192,145537,1,10,0:0:0:0:
