osu file format v14

[General]
AudioFilename: audio.mp3
AudioLeadIn: 0
PreviewTime: 52828
Countdown: 0
SampleSet: Drum
StackLeniency: 0.7
Mode: 2
LetterboxInBreaks: 0
WidescreenStoryboard: 1

[Editor]
Bookmarks: 183,15666,40441,52828,77602,89989,114763,139537,145731
DistanceSpacing: 1
BeatDivisor: 4
GridSize: 4
TimelineZoom: 1.399999

[Metadata]
Title:Arsene's Bazaar
TitleUnicode:Arsene's Bazaar
Artist:James Landino
ArtistUnicode:James Landino
Creator:Deif
Version:AFB's Platter
Source:Twin Trials
Tags:Collaboration alienflybot autofanboy AFB Alien Tails osu! Featured Artist FA Mappers’ Guild MPG MG contest Electronic Instrumental
BeatmapID:4092698
BeatmapSetID:1972368

[Difficulty]
HPDrainRate:4
CircleSize:3.5
OverallDifficulty:8
ApproachRate:8
SliderMultiplier:2.08
SliderTickRate:2

[Events]
//Background and Video events
0,0,"BG.jpg",0,0
//Break Periods
//Storyboard Layer 0 (Background)
//Storyboard Layer 1 (Fail)
//Storyboard Layer 2 (Pass)
//Storyboard Layer 3 (Foreground)
//Storyboard Layer 4 (Overlay)
//Storyboard Sound Samples
Sample,52828,0,"A3S_s.wav",100
Sample,53118,0,"A3S_s.wav",100
Sample,53408,0,"A3S_s.wav",100
Sample,53602,0,"G#3S_Ab3S_s.wav",95
Sample,53892,0,"G#3S_Ab3S_s.wav",95
Sample,54182,0,"G#3S_Ab3S_s.wav",95
Sample,54376,0,"G3S_s.wav",90
Sample,54666,0,"G3S_s.wav",90
Sample,54957,0,"G3S_s.wav",90
Sample,55150,0,"F#3S_Gb3S_s.wav",85
Sample,55441,0,"F#3S_Gb3S_s.wav",85
Sample,55731,0,"F#3S_Gb3S_s.wav",85
Sample,59021,0,"A3S_s.wav",100
Sample,59311,0,"A3S_s.wav",100
Sample,59601,0,"A3S_s.wav",100
Sample,59795,0,"G#3S_Ab3S_s.wav",95
Sample,60085,0,"G#3S_Ab3S_s.wav",95
Sample,60375,0,"G#3S_Ab3S_s.wav",95
Sample,60569,0,"G3S_s.wav",90
Sample,60859,0,"G3S_s.wav",90
Sample,61150,0,"G3S_s.wav",90
Sample,61343,0,"F#3S_Gb3S_s.wav",85
Sample,61634,0,"F#3S_Gb3S_s.wav",85
Sample,61924,0,"F#3S_Gb3S_s.wav",85
Sample,65215,0,"A3S_s.wav",100
Sample,65505,0,"A3S_s.wav",100
Sample,65795,0,"A3S_s.wav",100
Sample,65989,0,"G#3S_Ab3S_s.wav",95
Sample,66279,0,"G#3S_Ab3S_s.wav",95
Sample,66569,0,"G#3S_Ab3S_s.wav",95
Sample,66763,0,"G3S_s.wav",90
Sample,67053,0,"G3S_s.wav",90
Sample,67344,0,"G3S_s.wav",90
Sample,67537,0,"F#3S_Gb3S_s.wav",85
Sample,67828,0,"F#3S_Gb3S_s.wav",85
Sample,68118,0,"F#3S_Gb3S_s.wav",85
Sample,71408,0,"A3S_s.wav",100
Sample,71698,0,"A3S_s.wav",100
Sample,71988,0,"A3S_s.wav",100
Sample,72182,0,"G#3S_Ab3S_s.wav",95
Sample,72472,0,"G#3S_Ab3S_s.wav",95
Sample,72762,0,"G#3S_Ab3S_s.wav",95
Sample,72956,0,"G3S_s.wav",90
Sample,73246,0,"G3S_s.wav",90
Sample,73537,0,"G3S_s.wav",90
Sample,73730,0,"F#3S_Gb3S_s.wav",85
Sample,74021,0,"F#3S_Gb3S_s.wav",85
Sample,74311,0,"F#3S_Gb3S_s.wav",85
Sample,114763,0,"A3S_s.wav",100
Sample,115053,0,"A3S_s.wav",100
Sample,115343,0,"A3S_s.wav",100
Sample,115537,0,"G#3S_Ab3S_s.wav",95
Sample,115827,0,"G#3S_Ab3S_s.wav",95
Sample,116117,0,"G#3S_Ab3S_s.wav",95
Sample,116311,0,"G3S_s.wav",90
Sample,116601,0,"G3S_s.wav",90
Sample,116892,0,"G3S_s.wav",90
Sample,117085,0,"F#3S_Gb3S_s.wav",85
Sample,117376,0,"F#3S_Gb3S_s.wav",85
Sample,117666,0,"F#3S_Gb3S_s.wav",85
Sample,120956,0,"A3S_s.wav",100
Sample,121246,0,"A3S_s.wav",100
Sample,121536,0,"A3S_s.wav",100
Sample,121730,0,"G#3S_Ab3S_s.wav",95
Sample,122020,0,"G#3S_Ab3S_s.wav",95
Sample,122310,0,"G#3S_Ab3S_s.wav",95
Sample,122504,0,"G3S_s.wav",90
Sample,122794,0,"G3S_s.wav",90
Sample,123085,0,"G3S_s.wav",90
Sample,123278,0,"F#3S_Gb3S_s.wav",85
Sample,123569,0,"F#3S_Gb3S_s.wav",85
Sample,123859,0,"F#3S_Gb3S_s.wav",85
Sample,127150,0,"A3S_s.wav",100
Sample,127440,0,"A3S_s.wav",100
Sample,127730,0,"A3S_s.wav",100
Sample,127924,0,"G#3S_Ab3S_s.wav",95
Sample,128214,0,"G#3S_Ab3S_s.wav",95
Sample,128504,0,"G#3S_Ab3S_s.wav",95
Sample,128698,0,"G3S_s.wav",90
Sample,128988,0,"G3S_s.wav",90
Sample,129279,0,"G3S_s.wav",90
Sample,129472,0,"F#3S_Gb3S_s.wav",85
Sample,129763,0,"F#3S_Gb3S_s.wav",85
Sample,130053,0,"F#3S_Gb3S_s.wav",85
Sample,133343,0,"A3S_s.wav",100
Sample,133633,0,"A3S_s.wav",100
Sample,133923,0,"A3S_s.wav",100
Sample,134117,0,"G#3S_Ab3S_s.wav",95
Sample,134407,0,"G#3S_Ab3S_s.wav",95
Sample,134697,0,"G#3S_Ab3S_s.wav",95
Sample,134891,0,"G3S_s.wav",90
Sample,135181,0,"G3S_s.wav",90
Sample,135472,0,"G3S_s.wav",90
Sample,135665,0,"F#3S_Gb3S_s.wav",85
Sample,135956,0,"F#3S_Gb3S_s.wav",85
Sample,136246,0,"F#3S_Gb3S_s.wav",85

[TimingPoints]
183,387.096774193548,4,3,1,70,1,0
666,-100,4,3,2,80,0,0
763,-100,4,3,1,70,0,0
1441,-100,4,3,2,80,0,0
1538,-100,4,3,1,70,0,0
2215,-100,4,3,2,80,0,0
2312,-100,4,3,1,70,0,0
2989,-100,4,3,2,80,0,0
3086,-100,4,3,1,70,0,0
3763,-100,4,3,2,80,0,0
3860,-100,4,3,1,70,0,0
4538,-100,4,3,2,80,0,0
4635,-100,4,3,1,70,0,0
5215,-100,4,3,1,70,0,0
5408,-100,4,3,1,70,0,0
6376,-100,4,3,1,70,0,0
6859,-100,4,3,2,80,0,0
6956,-100,4,3,1,70,0,0
7634,-100,4,3,2,80,0,0
7731,-100,4,3,1,70,0,0
8408,-100,4,3,2,80,0,0
8505,-100,4,3,1,70,0,0
9182,-100,4,3,2,80,0,0
9279,-100,4,3,1,70,0,0
9473,-100,4,3,1,60,0,0
9763,-100,4,3,1,70,0,0
10053,-100,4,3,1,80,0,0
10441,-100,4,3,2,80,0,0
10538,-100,4,3,1,70,0,0
11021,-100,4,3,1,65,0,0
11312,-100,4,3,1,75,0,0
11602,-100,4,3,1,85,0,0
11989,-100,4,3,2,80,0,0
12086,-100,4,3,1,70,0,0
12279,-100,4,3,2,80,0,0
12376,-100,4,3,1,70,0,0
12473,-100,4,3,2,80,0,0
12570,-100,4,1,10,80,0,0
12763,-100,4,2,0,20,0,0
13344,-100,4,2,0,30,0,0
14118,-100,4,2,0,40,0,0
14892,-100,4,2,0,50,0,0
15279,-100,4,2,0,60,0,0
15473,-100,4,2,0,70,0,0
15666,-100,4,2,1,70,0,0
15860,-100,4,3,0,80,0,0
16054,-100,4,2,1,70,0,0
16634,-100,4,3,0,80,0,0
16828,-100,4,2,1,70,0,0
17408,-100,4,3,0,80,0,0
17602,-100,4,2,1,70,0,0
18182,-100,4,3,0,80,0,0
18376,-100,4,2,1,70,0,0
18957,-100,4,3,0,80,0,0
19151,-100,4,2,1,70,0,0
19731,-100,4,3,0,80,0,0
19925,-100,4,2,1,70,0,0
20505,-100,4,3,0,80,0,0
20699,-100,4,2,1,70,0,0
20892,-100,4,2,1,70,0,0
21279,-100,4,3,0,80,0,0
21473,-100,4,2,1,70,0,0
21860,-100,4,2,1,70,0,0
22053,-100,4,3,0,80,0,0
22247,-100,4,2,1,70,0,0
22828,-100,4,3,0,80,0,0
23022,-100,4,2,1,70,0,0
23215,-100,4,2,1,70,0,0
23602,-100,4,3,0,80,0,0
23796,-100,4,2,1,70,0,0
23989,-100,4,2,1,70,0,0
24376,-100,4,3,0,80,0,0
24570,-100,4,2,1,70,0,0
25150,-100,4,3,0,80,0,0
25344,-100,4,2,1,70,0,0
25924,-100,4,3,0,80,0,0
26118,-100,4,2,1,70,0,0
26505,-100,4,3,0,80,0,0
26699,-100,4,2,1,70,0,0
27086,-100,4,2,1,70,0,0
27473,-100,4,2,1,70,0,0
28053,-100,4,2,2,75,0,0
28247,-100,4,3,0,85,0,0
28441,-100,4,2,2,75,0,0
29021,-100,4,2,10,100,0,0
29118,-100,4,2,2,75,0,0
29602,-100,4,2,11,75,0,0
29795,-100,4,3,0,85,0,0
29989,-100,4,2,2,75,0,0
30182,-100,4,2,2,75,0,0
30570,-100,4,2,10,100,0,0
30667,-100,4,2,2,75,0,0
31344,-100,4,3,0,85,0,0
31538,-100,4,2,2,75,0,0
32118,-100,4,2,10,100,0,0
32215,-100,4,2,2,75,0,0
32699,-100,4,2,11,75,0,0
32892,-100,4,3,0,85,0,0
33086,-100,4,2,2,75,0,0
33279,-100,4,2,2,75,0,0
33666,-100,4,2,10,100,0,0
33763,-100,4,2,2,75,0,0
34441,-100,4,3,0,85,0,0
34635,-100,4,2,2,75,0,0
35215,-100,4,2,10,100,0,0
35312,-100,4,2,2,75,0,0
35602,-100,4,2,2,75,0,0
35795,-100,4,2,10,100,0,0
35989,-100,4,3,0,85,0,0
36183,-100,4,2,2,75,0,0
36376,-100,4,2,2,75,0,0
36763,-100,4,2,10,100,0,0
36860,-100,4,2,2,75,0,0
37537,-100,4,3,0,80,0,0
37731,-100,4,2,2,75,0,0
38312,-100,4,2,10,100,0,0
38505,-100,4,2,2,75,0,0
38892,-100,4,3,0,80,0,0
39086,-100,4,2,2,80,0,0
39279,-100,4,2,2,75,0,0
39473,-100,4,2,2,85,0,0
39861,-100,4,2,2,75,0,0
40441,-100,4,2,3,70,0,0
42763,-100,4,2,3,70,0,0
42957,-100,4,2,3,70,0,0
46634,-100,4,2,3,80,0,0
48957,-100,4,2,3,80,0,0
49150,-100,4,2,3,80,0,0
49731,-100,4,2,0,70,0,0
51279,-100,4,2,3,70,0,0
52828,-100,4,3,3,80,0,1
53021,-100,4,2,0,95,0,1
53118,-100,4,3,3,80,0,1
53215,-100,4,1,0,85,0,1
53312,-100,4,3,3,80,0,1
53602,-100,4,3,4,80,0,1
53795,-100,4,3,3,80,0,1
53989,-100,4,1,0,85,0,1
54086,-100,4,3,3,80,0,1
54763,-100,4,1,0,85,0,1
54860,-100,4,3,3,80,0,1
55150,-100,4,3,4,80,0,1
55344,-100,4,3,3,80,0,1
55537,-100,4,1,0,85,0,1
55634,-100,4,3,3,80,0,1
55924,-100,4,3,3,80,0,1
56118,-100,4,2,0,95,0,1
56215,-100,4,3,3,80,0,1
56312,-100,4,1,0,85,0,1
56409,-100,4,3,3,80,0,1
56505,-100,4,2,0,95,0,1
56602,-100,4,3,3,80,0,1
56699,-100,4,3,4,80,0,1
56893,-100,4,3,3,80,0,1
57086,-100,4,1,0,85,0,1
57183,-100,4,3,3,80,0,1
57860,-100,4,1,0,85,0,1
57957,-100,4,3,3,80,0,1
58247,-100,4,3,4,80,0,1
58441,-100,4,3,3,80,0,1
58634,-100,4,1,0,85,0,1
58731,-100,4,3,3,80,0,1
59021,-100,4,3,3,80,0,1
59214,-100,4,2,0,95,0,1
59311,-100,4,3,3,80,0,1
59408,-100,4,1,0,85,0,1
59505,-100,4,3,3,80,0,1
59795,-100,4,3,4,80,0,1
59989,-100,4,3,3,80,0,1
60182,-100,4,1,0,85,0,1
60279,-100,4,3,3,80,0,1
60956,-100,4,1,0,85,0,1
61053,-100,4,3,3,80,0,1
61344,-100,4,3,4,80,0,1
61537,-100,4,3,3,80,0,1
61730,-100,4,1,0,85,0,1
61827,-100,4,3,3,80,0,1
62118,-100,4,2,1,70,0,1
62795,-100,4,2,1,70,0,1
63086,-100,4,2,1,70,0,1
64247,-100,4,2,1,70,0,1
64441,-100,4,2,1,70,0,1
65118,-100,4,3,1,80,0,0
65215,-100,4,3,3,80,0,1
65408,-100,4,2,0,95,0,1
65505,-100,4,3,3,80,0,1
65602,-100,4,1,0,85,0,1
65699,-100,4,3,3,80,0,1
65989,-100,4,3,4,80,0,1
66182,-100,4,3,3,80,0,1
66376,-100,4,1,0,85,0,1
66473,-100,4,3,3,80,0,1
67150,-100,4,1,0,85,0,1
67247,-100,4,3,3,80,0,1
67537,-100,4,3,4,80,0,1
67731,-100,4,3,3,80,0,1
67924,-100,4,1,0,85,0,1
68021,-100,4,3,3,80,0,1
68312,-100,4,3,3,80,0,1
68505,-100,4,2,0,95,0,1
68602,-100,4,3,3,80,0,1
68699,-100,4,1,0,85,0,1
68796,-100,4,3,3,80,0,1
68892,-100,4,2,0,95,0,1
68989,-100,4,3,3,80,0,1
69086,-100,4,3,4,80,0,1
69280,-100,4,3,3,80,0,1
69473,-100,4,1,0,85,0,1
69570,-100,4,3,3,80,0,1
70247,-100,4,1,0,85,0,1
70344,-100,4,3,3,80,0,1
70634,-100,4,3,4,80,0,1
70828,-100,4,3,3,80,0,1
71021,-100,4,1,0,85,0,1
71118,-100,4,3,3,80,0,1
71408,-100,4,3,3,80,0,1
71601,-100,4,2,0,95,0,1
71698,-100,4,3,3,80,0,1
71795,-100,4,1,0,85,0,1
71892,-100,4,3,3,80,0,1
72182,-100,4,3,4,80,0,1
72376,-100,4,3,3,80,0,1
72569,-100,4,1,0,85,0,1
72666,-100,4,3,3,80,0,1
73343,-100,4,1,0,85,0,1
73440,-100,4,3,3,80,0,1
73731,-100,4,3,4,80,0,1
73924,-100,4,3,3,80,0,1
74117,-100,4,1,0,85,0,1
74214,-100,4,3,3,80,0,1
74505,-100,4,3,4,75,0,1
77602,-100,4,2,3,75,0,0
77989,-100,4,3,0,60,0,0
78086,-100,4,2,3,75,0,0
78763,-100,4,3,0,60,0,0
78860,-100,4,2,3,75,0,0
79537,-100,4,3,0,60,0,0
79634,-100,4,2,3,75,0,0
80118,-100,4,2,0,70,0,0
80215,-100,4,2,3,75,0,0
80312,-100,4,3,0,60,0,0
80409,-100,4,2,3,75,0,0
81086,-100,4,3,0,60,0,0
81183,-100,4,2,3,75,0,0
81860,-100,4,3,0,60,0,0
81957,-100,4,2,3,75,0,0
82634,-100,4,3,0,60,0,0
82731,-100,4,2,3,75,0,0
83215,-100,4,2,0,70,0,0
83312,-100,4,2,3,75,0,0
83409,-100,4,3,0,60,0,0
83506,-100,4,2,3,75,0,0
83795,-100,4,2,3,75,0,0
84182,-100,4,3,0,60,0,0
84279,-100,4,2,3,75,0,0
84956,-100,4,3,0,60,0,0
85053,-100,4,2,3,75,0,0
85730,-100,4,3,0,60,0,0
85827,-100,4,2,3,75,0,0
86311,-100,4,2,0,70,0,0
86408,-100,4,2,3,75,0,0
86505,-100,4,3,0,60,0,0
86602,-100,4,2,3,75,0,0
89408,-100,4,2,0,10,0,0
89602,-100,4,2,0,30,0,0
89795,-100,4,2,0,80,0,0
89989,-100,4,2,4,60,0,0
90376,-100,4,2,0,75,0,0
90570,-100,4,2,4,60,0,0
91150,-100,4,2,0,75,0,0
91344,-100,4,2,4,60,0,0
91924,-100,4,2,0,75,0,0
92118,-100,4,2,4,60,0,0
92505,-100,4,2,0,75,0,0
93086,-100,4,2,4,60,0,0
93473,-100,4,2,0,75,0,0
93667,-100,4,2,4,60,0,0
94247,-100,4,2,0,75,0,0
94441,-100,4,2,4,60,0,0
95021,-100,4,2,0,75,0,0
95215,-100,4,2,4,60,0,0
95795,-100,4,2,0,75,0,0
95989,-100,4,2,4,60,0,0
96570,-100,4,2,0,75,0,0
96764,-100,4,2,4,60,0,0
97344,-100,4,2,0,75,0,0
97538,-100,4,2,4,60,0,0
98118,-100,4,2,0,75,0,0
98312,-100,4,2,4,60,0,0
98892,-100,4,2,0,75,0,0
99086,-100,4,2,4,60,0,0
99279,-100,4,1,10,60,0,0
99473,-100,4,3,0,60,0,0
102376,-100,4,2,2,70,0,0
102570,-100,4,3,0,80,0,0
102764,-100,4,2,1,70,0,0
103344,-100,4,3,0,80,0,0
103538,-100,4,2,1,70,0,0
104118,-100,4,3,0,80,0,0
104312,-100,4,2,1,70,0,0
104892,-100,4,3,0,80,0,0
105086,-100,4,2,1,70,0,0
105667,-100,4,3,0,80,0,0
105861,-100,4,2,1,70,0,0
106441,-100,4,3,0,80,0,0
106635,-100,4,2,1,70,0,0
107215,-100,4,3,0,80,0,0
107409,-100,4,2,1,70,0,0
107602,-100,4,2,1,70,0,0
107989,-100,4,3,0,80,0,0
108183,-100,4,2,1,70,0,0
108570,-100,4,2,1,70,0,0
108763,-100,4,3,0,80,0,0
108957,-100,4,2,1,70,0,0
109538,-100,4,3,0,80,0,0
109732,-100,4,2,1,70,0,0
110312,-100,4,3,0,80,0,0
110506,-100,4,2,1,70,0,0
110699,-100,4,2,1,70,0,0
111086,-100,4,3,0,80,0,0
111280,-100,4,2,1,70,0,0
111860,-100,4,3,0,80,0,0
112054,-100,4,2,1,70,0,0
112634,-100,4,3,0,80,0,0
112828,-100,4,2,1,70,0,0
113215,-100,4,2,2,80,0,0
113408,-100,4,2,2,70,0,0
113795,-100,4,2,2,80,0,0
114182,-100,4,2,2,75,0,0
114763,-100,4,3,3,80,0,1
114956,-100,4,2,0,95,0,1
115053,-100,4,3,3,80,0,1
115150,-100,4,1,0,85,0,1
115247,-100,4,3,3,80,0,1
115537,-100,4,3,4,80,0,1
115730,-100,4,3,3,80,0,1
115924,-100,4,1,0,85,0,1
116021,-100,4,3,3,80,0,1
116698,-100,4,1,0,85,0,1
116795,-100,4,3,3,80,0,1
117085,-100,4,3,4,80,0,1
117279,-100,4,3,3,80,0,1
117472,-100,4,1,0,85,0,1
117569,-100,4,3,3,80,0,1
117859,-100,4,3,3,80,0,1
118053,-100,4,2,0,95,0,1
118150,-100,4,3,3,80,0,1
118247,-100,4,1,0,85,0,1
118344,-100,4,3,3,80,0,1
118440,-100,4,2,0,95,0,1
118537,-100,4,3,3,80,0,1
118634,-100,4,3,4,80,0,1
118828,-100,4,3,3,80,0,1
119021,-100,4,1,0,85,0,1
119118,-100,4,3,3,80,0,1
119795,-100,4,1,0,85,0,1
119892,-100,4,3,3,80,0,1
120182,-100,4,3,4,80,0,1
120376,-100,4,3,3,80,0,1
120569,-100,4,1,0,85,0,1
120666,-100,4,3,3,80,0,1
120956,-100,4,3,3,80,0,1
121149,-100,4,2,0,95,0,1
121246,-100,4,3,3,80,0,1
121343,-100,4,1,0,85,0,1
121440,-100,4,3,3,80,0,1
121730,-100,4,3,4,80,0,1
121924,-100,4,3,3,80,0,1
122117,-100,4,1,0,85,0,1
122214,-100,4,3,3,80,0,1
122891,-100,4,1,0,85,0,1
122988,-100,4,3,3,80,0,1
123279,-100,4,3,4,80,0,1
123472,-100,4,3,3,80,0,1
123665,-100,4,1,0,85,0,1
123762,-100,4,3,3,80,0,1
124053,-100,4,2,1,70,0,1
124730,-100,4,2,1,70,0,1
125021,-100,4,2,1,70,0,1
126182,-100,4,2,1,70,0,1
126376,-100,4,2,1,70,0,1
127053,-100,4,3,1,80,0,0
127150,-100,4,3,3,80,0,1
127343,-100,4,2,0,95,0,1
127440,-100,4,3,3,80,0,1
127537,-100,4,1,0,85,0,1
127634,-100,4,3,3,80,0,1
127924,-100,4,3,4,80,0,1
128117,-100,4,3,3,80,0,1
128311,-100,4,1,0,85,0,1
128408,-100,4,3,3,80,0,1
129085,-100,4,1,0,85,0,1
129182,-100,4,3,3,80,0,1
129472,-100,4,3,4,80,0,1
129666,-100,4,3,3,80,0,1
129859,-100,4,1,0,85,0,1
129956,-100,4,3,3,80,0,1
130247,-100,4,3,3,80,0,1
130440,-100,4,2,0,95,0,1
130537,-100,4,3,3,80,0,1
130634,-100,4,1,0,85,0,1
130731,-100,4,3,3,80,0,1
130827,-100,4,2,0,95,0,1
130924,-100,4,3,3,80,0,1
131021,-100,4,3,4,80,0,1
131215,-100,4,3,3,80,0,1
131408,-100,4,1,0,85,0,1
131505,-100,4,3,3,80,0,1
132182,-100,4,1,0,85,0,1
132279,-100,4,3,3,80,0,1
132569,-100,4,3,4,80,0,1
132763,-100,4,3,3,80,0,1
132956,-100,4,1,0,85,0,1
133053,-100,4,3,3,80,0,1
133343,-100,4,3,3,80,0,1
133536,-100,4,2,0,95,0,1
133633,-100,4,3,3,80,0,1
133730,-100,4,1,0,85,0,1
133827,-100,4,3,3,80,0,1
134117,-100,4,3,4,80,0,1
134311,-100,4,3,3,80,0,1
134504,-100,4,1,0,85,0,1
134601,-100,4,3,3,80,0,1
135278,-100,4,1,0,85,0,1
135375,-100,4,3,3,80,0,1
135666,-100,4,3,4,80,0,1
135859,-100,4,3,3,80,0,1
136052,-100,4,1,0,85,0,1
136149,-100,4,3,3,80,0,1
136440,-100,4,3,4,75,0,1
139537,-100,4,3,1,70,0,0
140020,-100,4,3,2,80,0,0
140117,-100,4,3,1,70,0,0
140795,-100,4,3,2,80,0,0
140892,-100,4,3,1,70,0,0
141569,-100,4,3,2,80,0,0
141666,-100,4,3,1,70,0,0
142343,-100,4,3,2,80,0,0
142440,-100,4,3,1,70,0,0
142634,-100,4,3,1,60,0,0
142924,-100,4,3,1,70,0,0
143214,-100,4,3,1,80,0,0
143602,-100,4,3,2,80,0,0
143699,-100,4,3,1,70,0,0
144182,-100,4,3,1,65,0,0
144473,-100,4,3,1,75,0,0
144763,-100,4,3,1,85,0,0
145150,-100,4,3,2,80,0,0
145247,-100,4,3,1,70,0,0
145440,-100,4,3,2,80,0,0
145537,-100,4,3,1,70,0,0
145634,-100,4,3,2,80,0,0
145731,-100,4,1,10,80,0,0

[Colours]
Combo1 : 154,88,38
Combo2 : 185,176,81
Combo3 : 252,201,47
Combo4 : 98,157,187

[HitObjects]
36,348,183,6,0,L|32:244,1,104,14|2,0:0|0:0,0:0:0:0:
144,140,570,1,8,0:0:0:0:
164,92,666,1,2,0:0:0:0:
144,44,763,1,0,0:0:0:0:
96,24,860,1,2,0:0:0:0:
272,232,1053,2,0,L|324:230,1,52,0|2,0:0|0:0,0:0:0:0:
212,124,1344,2,0,L|204:72,3,52,8|2|0|2,0:0|0:0|0:0|0:0,0:0:0:0:
380,280,1828,6,0,L|382:228,1,52,0|2,0:0|0:0,0:0:0:0:
272,124,2118,2,0,L|220:122,1,52,8|2,0:0|0:0,0:0:0:0:
476,328,2408,1,2,0:0:0:0:
478,276,2505,2,0,L|374:272,1,104,8|2,0:0|0:0,0:0:0:0:
196,168,2892,1,8,0:0:0:0:
248,166,2989,1,2,0:0:0:0:
300,164,3086,1,8,0:0:0:0:
476,60,3279,6,0,L|480:164,1,104,10|2,0:0|0:0,0:0:0:0:
368,268,3666,1,8,0:0:0:0:
348,220,3763,1,2,0:0:0:0:
368,172,3860,1,0,0:0:0:0:
416,152,3957,1,2,0:0:0:0:
240,360,4150,2,0,L|238:308,1,52,0|2,0:0|0:0,0:0:0:0:
352,204,4441,2,0,L|396:176,2,52,8|2|0,0:0|0:0|0:0,0:0:0:0:
96,100,4828,6,0,L|200:96,1,104,10|2,0:0|0:0,0:0:0:0:
148,94,5118,1,0,0:0:0:0:
96,92,5215,1,10,0:0:0:0:
208,196,5408,2,0,L|210:144,1,52,2|2,0:0|0:0,0:0:0:0:
32,352,5699,2,0,L|28:248,1,104,2|2,0:0|0:0,0:0:0:0:
80,246,5989,1,10,0:0:0:0:
184,140,6182,1,2,0:0:0:0:
440,348,6376,6,0,L|336:344,1,104,14|2,0:0|0:0,0:0:0:0:
448,240,6763,2,0,L|460:188,3,52,8|2|0|2,0:0|0:0|0:0|0:0,0:0:0:0:
284,84,7247,2,0,L|282:32,1,52,0|2,0:0|0:0,0:0:0:0:
392,136,7537,1,8,0:0:0:0:
412,184,7634,1,2,0:0:0:0:
392,232,7731,1,0,0:0:0:0:
344,252,7828,1,2,0:0:0:0:
168,356,8021,6,0,L|220:354,1,52,0|2,0:0|0:0,0:0:0:0:
332,248,8312,2,0,L|384:246,1,52,8|2,0:0|0:0,0:0:0:0:
128,140,8602,1,2,0:0:0:0:
76,138,8699,2,0,L|180:134,1,104,8|2,0:0|0:0,0:0:0:0:
356,236,9086,1,8,0:0:0:0:
358,184,9182,1,2,0:0:0:0:
360,132,9279,1,8,0:0:0:0:
104,340,9473,6,0,L|0:336,1,104,10|0,0:0|0:0,0:0:0:0:
52,334,9763,1,10,0:0:0:0:
104,332,9860,1,0,0:0:0:0:
384,336,10053,2,0,P|444:308|384:216,1,208,14|2,0:0|0:0,0:0:0:0:
332,214,10537,1,0,0:0:0:0:
220,264,10634,2,0,L|216:160,1,104,8|2,0:0|0:0,0:0:0:0:
472,368,11021,6,0,L|476:264,1,104,10|0,0:0|0:0,0:0:0:0:
424,262,11312,1,10,0:0:0:0:
372,260,11408,1,0,0:0:0:0:
92,156,11602,2,0,L|300:148,1,208,14|2,0:0|0:0,0:0:0:0:
124,44,12182,2,0,L|80:16,2,52,10|2|10,0:0|0:0|0:0,0:0:0:0:
408,148,12570,5,4,0:0:0:0:
256,192,12763,12,2,15279,0:0:0:0:
376,56,15666,5,12,0:0:0:0:
472,96,15860,1,2,0:0:0:0:
512,192,16053,1,2,0:0:0:0:
472,288,16247,1,8,0:0:0:0:
376,328,16441,1,0,0:0:0:0:
200,224,16634,2,0,L|156:196,2,52,2|0|2,0:0|0:0|0:0,0:0:0:0:
312,120,17021,6,0,L|312:16,1,104,8|0,0:0|0:0,0:0:0:0:
136,120,17408,2,0,L|32:124,1,104,2|2,0:0|0:0,0:0:0:0:
208,228,17795,2,0,P|268:256|208:348,1,208,8|2,0:0|0:0,0:0:0:0:
208,348,18570,2,0,L|156:346,1,52,2|0,0:0|0:0,0:0:0:0:
268,292,18763,6,0,L|372:288,2,104,8|2|2,0:0|0:0|0:0,0:0:0:0:
444,188,19344,2,0,P|416:100|316:56,1,208,8|2,0:0|0:0,0:0:0:0:
420,52,19924,1,2,0:0:0:0:
244,364,20118,6,0,P|144:320|116:232,1,208,8|2,0:0|0:0,0:0:0:0:
220,228,20699,1,2,0:0:0:0:
396,124,20892,2,0,L|188:116,1,208,8|2,0:0|0:0,0:0:0:0:
300,220,21473,1,2,0:0:0:0:
302,168,21570,1,0,3:0:0:0:
304,116,21666,1,2,0:0:0:0:
128,12,21860,6,0,L|24:8,2,104,8|2|2,0:0|0:0|0:0,0:0:0:0:
304,116,22441,2,0,P|364:144|304:236,1,208,8|2,0:0|0:0,0:0:0:0:
300,132,23021,1,0,0:0:0:0:
476,236,23215,6,0,P|448:324|348:368,1,208,8|2,0:0|0:0,0:0:0:0:
244,364,23795,1,2,0:0:0:0:
420,260,23989,2,0,L|212:252,1,208,8|2,0:0|0:0,0:0:0:0:
100,148,24570,1,2,0:0:0:0:
98,96,24666,1,0,3:0:0:0:
96,44,24763,1,2,0:0:0:0:
272,252,24957,5,8,0:0:0:0:
384,148,25150,2,0,L|428:120,2,52,2|0|2,0:0|0:0|0:0,0:0:0:0:
208,44,25537,2,0,L|164:16,2,52,8|0|2,0:0|0:0|0:0,0:0:0:0:
304,84,25924,1,2,0:0:0:0:
344,180,26118,1,2,0:0:0:0:
304,276,26312,1,8,0:0:0:0:
128,380,26505,5,2,0:0:0:0:
240,276,26699,2,0,L|240:172,1,104,2|0,0:0|0:0,0:0:0:0:
64,68,27086,2,0,P|92:156|192:200,1,208,8|0,0:0|0:0,0:0:0:0:
376,208,27860,1,2,0:0:0:0:
120,312,28053,6,0,L|116:208,1,104,12|2,0:0|0:0,0:0:0:0:
228,104,28441,2,0,L|332:100,2,104,2|8|0,0:0|0:0|0:0,0:0:0:0:
404,208,29021,1,0,0:0:0:0:
384,160,29118,1,0,0:0:0:0:
336,140,29215,1,2,0:0:0:0:
224,244,29408,2,0,L|220:140,1,104,8|0,0:0|0:0,0:0:0:0:
396,36,29795,6,0,L|500:40,1,104,2|2,0:0|0:0,0:0:0:0:
244,144,30182,2,0,P|184:172|244:264,1,208,8|0,0:0|0:0,0:0:0:0:
356,368,30763,2,0,L|360:264,1,104,0|2,0:0|0:0,0:0:0:0:
308,262,31053,1,0,0:0:0:0:
196,208,31150,6,0,L|192:104,1,104,8|2,0:0|0:0,0:0:0:0:
296,100,31537,1,2,0:0:0:0:
120,204,31731,2,0,P|148:116|248:72,1,208,8|0,0:0|0:0,0:0:0:0:
344,112,32312,1,2,0:0:0:0:
384,208,32505,1,8,0:0:0:0:
344,304,32699,1,0,0:0:0:0:
168,200,32892,6,0,L|164:96,1,104,2|2,0:0|0:0,0:0:0:0:
420,200,33279,2,0,P|392:112|292:68,1,208,8|0,0:0|0:0,0:0:0:0:
116,172,33860,2,0,L|72:144,2,52,8|0|8,0:0|3:0|0:0,0:0:0:0:
372,276,34247,6,0,L|476:272,2,104,12|2|2,0:0|0:0|0:0,0:0:0:0:
196,380,34828,2,0,L|196:172,1,208,8|0,0:0|0:0,0:0:0:0:
300,168,35408,1,2,0:0:0:0:
44,272,35602,6,0,P|72:184|172:140,1,208,8|2,0:0|0:0,0:0:0:0:
68,136,36182,1,2,0:0:0:0:
244,240,36376,2,0,P|344:196|372:108,1,208,8|0,0:0|0:0,0:0:0:0:
260,4,36957,1,8,0:0:0:0:
258,56,37053,1,0,3:0:0:0:
256,108,37150,1,8,0:0:0:0:
432,212,37344,6,0,L|436:316,1,104,8|2,0:0|0:0,0:0:0:0:
416,268,37634,1,0,0:0:0:0:
368,248,37731,1,2,0:0:0:0:
192,352,37924,1,8,0:0:0:0:
144,332,38021,1,0,0:0:0:0:
124,284,38118,2,0,L|228:280,1,104,2|0,0:0|0:0,0:0:0:0:
52,176,38505,2,0,L|48:72,1,104,2|8,0:0|0:0,0:0:0:0:
152,68,38892,1,2,0:0:0:0:
408,172,39086,6,0,L|512:168,1,104,2|0,0:0|0:0,0:0:0:0:
256,272,39473,2,0,P|196:244|256:152,1,208,8|0,0:0|0:0,0:0:0:0:
368,48,40053,2,0,L|412:20,2,52,2|0|8,0:0|3:0|0:0,0:0:0:0:
108,256,40441,6,0,L|104:152,1,104,6|0,0:0|0:0,0:0:0:0:
156,150,40731,1,2,0:0:0:0:
208,148,40828,1,8,0:0:0:0:
384,356,41021,2,0,L|388:252,1,104,10|0,0:0|0:0,0:0:0:0:
336,200,41312,2,0,L|232:196,1,104,2|0,0:0|0:0,0:0:0:0:
344,144,41602,2,0,L|448:140,2,104,10|0|8,0:0|0:0|0:0,0:0:0:0:
88,248,42182,6,0,L|86:196,1,52,10|0,0:0|0:0,0:0:0:0:
198,92,42473,2,0,L|200:40,1,52,2|8,0:0|0:0,0:0:0:0:
312,352,42763,2,0,L|416:348,1,104,10|0,0:0|0:0,0:0:0:0:
240,244,43150,2,0,L|236:140,1,104,10|0,0:0|0:0,0:0:0:0:
492,36,43537,6,0,L|496:140,1,104,10|0,0:0|0:0,0:0:0:0:
444,142,43828,1,2,0:0:0:0:
392,144,43924,1,8,0:0:0:0:
216,248,44118,2,0,L|112:244,1,104,10|0,0:0|0:0,0:0:0:0:
164,192,44408,2,0,L|268:188,1,104,2|0,0:0|0:0,0:0:0:0:
156,136,44699,2,0,L|52:132,2,104,10|0|8,0:0|0:0|0:0,0:0:0:0:
412,236,45279,6,0,L|414:184,1,52,8|0,0:0|0:0,0:0:0:0:
302,80,45570,2,0,L|300:28,1,52,2|8,0:0|0:0,0:0:0:0:
188,340,45860,1,10,0:0:0:0:
186,288,45957,2,0,L|290:284,1,104,0|0,0:0|0:0,0:0:0:0:
404,232,46247,2,0,L|300:228,1,104,10|0,0:0|0:0,0:0:0:0:
44,124,46634,6,0,L|44:20,1,104,14|0,0:0|0:0,0:0:0:0:
88,48,46924,1,2,0:0:0:0:
44,20,47021,1,8,0:0:0:0:
220,228,47215,2,0,L|324:224,1,104,10|0,0:0|0:0,0:0:0:0:
272,172,47505,2,0,L|168:168,1,104,2|0,0:0|1:0,0:0:0:0:
280,116,47795,2,0,L|284:12,1,104,10|0,0:0|0:0,0:0:0:0:
180,8,48182,1,8,0:0:0:0:
436,216,48376,6,0,L|384:214,1,52,10|0,0:0|1:0,0:0:0:0:
272,108,48666,2,0,L|220:106,1,52,2|8,0:0|0:0,0:0:0:0:
332,312,48957,2,0,L|336:208,1,104,10|0,0:0|0:0,0:0:0:0:
160,104,49344,2,0,L|116:76,2,52,10|0|0,0:0|1:0|0:0,0:0:0:0:
416,0,49731,6,0,P|476:28|416:120,1,208,4|8,0:0|0:0,0:0:0:0:
312,116,50312,1,0,0:0:0:0:
136,220,50505,2,0,P|164:132|264:88,1,208,2|8,0:0|0:0,0:0:0:0:
264,192,51086,1,0,0:0:0:0:
88,296,51279,6,0,L|84:192,1,104,8|2,0:0|0:0,0:0:0:0:
104,144,51570,1,0,0:0:0:0:
152,124,51666,1,8,0:0:0:0:
328,228,51860,1,2,0:0:0:0:
376,208,51957,1,0,0:0:0:0:
396,160,52053,2,0,L|292:156,1,104,8|2,0:0|0:0,0:0:0:0:
468,364,52441,1,8,0:0:0:0:
448,316,52537,1,0,1:0:0:0:
400,296,52634,1,8,0:0:0:0:
120,192,52828,6,0,L|16:188,1,104,12|2,0:0|0:0,0:0:0:0:
68,186,53118,1,2,0:0:0:0:
180,132,53215,2,0,L|284:128,1,104,0|2,0:0|0:0,0:0:0:0:
172,336,53602,2,0,L|168:232,1,104,8|2,0:0|0:0,0:0:0:0:
220,230,53892,1,0,0:0:0:0:
332,176,53989,2,0,L|228:172,1,104,0|2,0:0|0:0,0:0:0:0:
404,68,54376,6,0,L|508:64,1,104,8|0,0:0|0:0,0:0:0:0:
456,62,54666,1,2,0:0:0:0:
404,60,54763,1,0,0:0:0:0:
228,164,54957,2,0,P|168:192|228:284,1,208,2|2,0:0|0:0,0:0:0:0:
404,180,55537,2,0,L|408:76,1,104,0|2,0:0|0:0,0:0:0:0:
128,284,55924,6,0,L|124:180,1,104,8|2,0:0|0:0,0:0:0:0:
176,178,56215,1,2,0:0:0:0:
288,124,56312,2,0,L|292:20,1,104,0|2,0:0|0:0,0:0:0:0:
180,228,56699,2,0,L|284:224,1,104,8|2,0:0|0:0,0:0:0:0:
232,222,56989,1,0,0:0:0:0:
120,168,57086,2,0,L|16:164,1,104,0|2,0:0|0:0,0:0:0:0:
192,60,57473,6,0,L|88:56,1,104,8|0,0:0|0:0,0:0:0:0:
44,28,57763,1,2,0:0:0:0:
88,56,57860,1,0,0:0:0:0:
264,264,58053,2,0,P|364:220|392:132,1,208,2|2,0:0|0:0,0:0:0:0:
216,28,58634,1,0,0:0:0:0:
168,48,58731,1,0,0:0:0:0:
148,96,58828,1,2,0:0:0:0:
428,200,59021,6,0,L|432:96,1,104,12|2,0:0|0:0,0:0:0:0:
380,94,59312,1,2,0:0:0:0:
268,40,59408,2,0,L|372:36,1,104,0|2,0:0|0:0,0:0:0:0:
260,244,59795,2,0,L|156:240,1,104,8|2,0:0|0:0,0:0:0:0:
208,238,60086,1,0,0:0:0:0:
320,184,60182,2,0,L|324:80,1,104,0|2,0:0|0:0,0:0:0:0:
148,288,60570,6,0,L|44:284,1,104,8|0,0:0|0:0,0:0:0:0:
96,282,60860,1,2,0:0:0:0:
148,280,60957,1,0,0:0:0:0:
324,384,61150,2,0,P|296:296|196:252,1,208,2|2,0:0|0:0,0:0:0:0:
20,148,61731,2,0,L|16:44,1,104,0|2,0:0|0:0,0:0:0:0:
296,148,62118,6,0,P|356:120|296:28,1,208,2|2,0:0|0:0,0:0:0:0:
140,184,62795,1,2,0:0:0:0:
396,288,62989,2,0,L|398:236,1,52,2|0,0:0|0:0,0:0:0:0:
220,132,63279,2,0,L|116:128,1,104,2|0,0:0|0:0,0:0:0:0:
292,24,63666,6,0,P|392:68|420:156,1,208,2|2,0:0|0:0,0:0:0:0:
140,260,64247,2,0,L|136:156,1,104,2|0,0:0|0:0,0:0:0:0:
188,104,64537,2,0,L|292:100,1,104,0|0,0:0|0:0,0:0:0:0:
180,48,64828,2,0,L|76:44,1,104,2|0,0:0|0:0,0:0:0:0:
356,252,65215,6,0,L|360:148,1,104,12|2,0:0|0:0,0:0:0:0:
308,146,65505,1,2,0:0:0:0:
196,196,65602,2,0,L|192:92,1,104,0|2,0:0|0:0,0:0:0:0:
304,300,65989,2,0,L|200:296,1,104,8|2,0:0|0:0,0:0:0:0:
252,294,66279,1,0,0:0:0:0:
364,240,66376,2,0,L|468:236,1,104,0|2,0:0|0:0,0:0:0:0:
292,132,66763,6,0,L|292:28,1,104,8|0,0:0|0:0,0:0:0:0:
336,56,67053,1,2,0:0:0:0:
292,28,67150,1,0,0:0:0:0:
36,132,67344,2,0,P|64:220|164:264,1,208,2|2,0:0|0:0,0:0:0:0:
340,368,67924,2,0,L|344:264,1,104,0|2,0:0|0:0,0:0:0:0:
64,160,68312,6,0,L|60:56,1,104,8|2,0:0|0:0,0:0:0:0:
112,54,68602,1,2,0:0:0:0:
224,104,68699,2,0,L|328:100,1,104,0|2,0:0|0:0,0:0:0:0:
216,308,69086,2,0,L|212:204,1,104,8|2,0:0|0:0,0:0:0:0:
264,202,69376,1,0,0:0:0:0:
376,252,69473,2,0,L|380:148,1,104,0|2,0:0|0:0,0:0:0:0:
204,44,69860,6,0,L|100:40,1,104,8|0,0:0|0:0,0:0:0:0:
152,38,70150,1,2,0:0:0:0:
204,36,70247,1,0,0:0:0:0:
460,140,70441,2,0,P|432:228|332:272,1,208,2|2,0:0|0:0,0:0:0:0:
156,376,71021,1,0,0:0:0:0:
154,324,71118,1,0,0:0:0:0:
152,272,71215,1,2,0:0:0:0:
432,168,71408,6,0,L|436:64,1,104,12|2,0:0|0:0,0:0:0:0:
384,62,71699,1,2,0:0:0:0:
272,112,71795,2,0,L|168:108,1,104,0|2,0:0|0:0,0:0:0:0:
280,316,72182,2,0,L|176:312,1,104,8|2,0:0|0:0,0:0:0:0:
228,310,72473,1,0,0:0:0:0:
340,256,72570,2,0,L|236:252,1,104,0|2,0:0|0:0,0:0:0:0:
60,148,72957,6,0,L|60:44,1,104,8|0,0:0|0:0,0:0:0:0:
104,72,73247,1,2,0:0:0:0:
60,44,73344,1,0,0:0:0:0:
340,252,73537,2,0,P|400:224|340:132,1,208,2|2,0:0|0:0,0:0:0:0:
164,340,74118,2,0,L|60:336,1,104,0|2,0:0|0:0,0:0:0:0:
372,232,74505,6,0,P|472:188|500:100,1,208,2|2,0:0|0:0,0:0:0:0:
344,256,75182,1,2,0:0:0:0:
88,152,75376,2,0,L|86:100,1,52,2|0,0:0|0:0,0:0:0:0:
260,356,75666,2,0,L|264:252,1,104,2|0,0:0|0:0,0:0:0:0:
88,44,76053,5,2,0:0:0:0:
20,104,76247,1,2,0:0:0:0:
40,152,76344,1,0,0:0:0:0:
88,164,76441,1,2,0:0:0:0:
368,268,76634,2,0,L|264:264,1,104,2|8,0:0|0:0,0:0:0:0:
212,212,76924,2,0,L|316:208,1,104,0|0,0:0|0:0,0:0:0:0:
428,156,77215,2,0,L|432:52,1,104,2|0,0:0|0:0,0:0:0:0:
176,260,77602,6,0,P|140:212|176:132,1,156,12|2,0:0|0:0,0:0:0:0:
228,80,77989,2,0,L|332:76,1,104,8|2,0:0|0:0,0:0:0:0:
156,180,78376,2,0,P|92:156|56:80,1,156,8|2,0:0|0:0,0:0:0:0:
56,28,78763,2,0,L|160:24,1,104,8|2,0:0|0:0,0:0:0:0:
336,336,79150,6,0,P|372:288|336:208,1,156,8|2,0:0|0:0,0:0:0:0:
284,156,79537,2,0,L|180:152,2,104,8|2|8,0:0|0:0|0:0,0:0:0:0:
460,260,80118,2,0,L|504:232,1,52,2|0,0:0|0:0,0:0:0:0:
460,260,80312,2,0,L|356:256,1,104,8|0,0:0|0:0,0:0:0:0:
180,360,80699,6,0,P|144:312|180:232,1,156,8|2,0:0|0:0,0:0:0:0:
232,284,81086,2,0,L|236:180,1,104,8|2,0:0|0:0,0:0:0:0:
60,284,81473,2,0,P|96:208|160:184,1,156,8|2,0:0|0:0,0:0:0:0:
212,132,81860,2,0,L|108:128,1,104,8|2,0:0|0:0,0:0:0:0:
284,232,82247,6,0,P|348:208|384:132,1,156,8|2,0:0|0:0,0:0:0:0:
332,80,82634,2,0,L|228:76,2,104,8|2|8,0:0|0:0|0:0,0:0:0:0:
156,184,83215,1,2,0:0:0:0:
108,164,83312,1,0,0:0:0:0:
88,116,83408,2,0,L|192:112,1,104,8|0,0:0|0:0,0:0:0:0:
472,320,83795,6,0,L|476:216,1,104,12|0,0:0|0:0,0:0:0:0:
424,214,84086,1,0,0:0:0:0:
372,212,84182,2,0,L|476:208,1,104,8|2,0:0|0:0,0:0:0:0:
300,312,84570,2,0,L|296:208,1,104,8|0,0:0|0:0,0:0:0:0:
348,206,84860,1,0,0:0:0:0:
400,204,84957,2,0,L|404:100,1,104,8|2,0:0|0:0,0:0:0:0:
228,308,85344,6,0,L|224:204,1,104,8|0,0:0|0:0,0:0:0:0:
276,202,85634,1,0,0:0:0:0:
328,200,85731,2,0,L|332:96,1,104,8|2,0:0|0:0,0:0:0:0:
156,200,86118,2,0,L|152:96,1,104,8|2,0:0|0:0,0:0:0:0:
204,94,86408,1,0,0:0:0:0:
256,92,86505,2,0,L|152:88,1,104,8|0,0:0|0:0,0:0:0:0:
432,296,86892,5,8,0:0:0:0:
480,276,86989,1,0,0:0:0:0:
500,228,87086,1,0,0:0:0:0:
388,124,87279,2,0,L|386:72,2,52,8|0|0,0:0|0:0|0:0,0:0:0:0:
212,176,87666,1,8,0:0:0:0:
164,156,87763,1,0,0:0:0:0:
144,108,87860,1,0,0:0:0:0:
256,316,88053,1,8,0:0:0:0:
304,296,88150,1,0,0:0:0:0:
324,248,88247,1,0,0:0:0:0:
44,40,88441,5,8,0:0:0:0:
16,84,88537,1,0,0:0:0:0:
4,136,88634,1,2,0:0:0:0:
16,188,88731,1,0,0:0:0:0:
44,232,88828,1,8,0:0:0:0:
88,260,88924,1,0,0:0:0:0:
140,272,89021,1,2,0:0:0:0:
316,376,89215,2,0,B|316:168|316:168|212:164,1,312,8|0,0:0|0:0,0:0:0:0:
472,60,89989,5,12,0:0:0:0:
512,156,90182,1,2,0:0:0:0:
504,208,90279,1,0,0:0:0:0:
472,252,90376,1,2,0:0:0:0:
376,292,90570,1,2,0:0:0:0:
200,188,90763,2,0,L|196:84,1,104,8|0,0:0|0:0,0:0:0:0:
308,292,91150,2,0,L|312:188,1,104,2|2,0:0|0:0,0:0:0:0:
136,84,91537,5,8,0:0:0:0:
40,124,91731,1,0,0:0:0:0:
0,220,91924,1,2,0:0:0:0:
40,316,92118,1,2,0:0:0:0:
136,356,92312,1,8,0:0:0:0:
312,252,92505,2,0,L|208:248,2,104,2|2|2,0:0|0:0|0:0,0:0:0:0:
136,356,93086,5,8,0:0:0:0:
40,316,93279,1,2,0:0:0:0:
8,272,93376,1,0,0:0:0:0:
0,220,93473,1,2,0:0:0:0:
40,124,93666,1,2,0:0:0:0:
216,20,93860,2,0,L|320:24,1,104,8|0,0:0|0:0,0:0:0:0:
208,128,94247,2,0,L|104:132,1,104,2|2,0:0|0:0,0:0:0:0:
280,236,94634,6,0,L|176:240,1,104,8|2,0:0|0:0,0:0:0:0:
64,344,95021,2,0,L|168:348,1,104,2|2,0:0|0:0,0:0:0:0:
344,244,95408,2,0,L|388:216,2,52,8|0|0,0:0|0:0|0:0,0:0:0:0:
232,140,95795,2,0,L|232:36,1,104,2|2,0:0|0:0,0:0:0:0:
408,140,96182,5,8,0:0:0:0:
380,240,96376,1,2,0:0:0:0:
352,284,96473,1,0,0:0:0:0:
308,316,96570,1,2,0:0:0:0:
204,336,96763,1,2,0:0:0:0:
380,232,96957,2,0,L|384:128,1,104,8|0,0:0|0:0,0:0:0:0:
272,24,97344,2,0,L|376:20,1,104,2|2,0:0|0:0,0:0:0:0:
200,228,97731,6,0,L|96:224,1,104,8|2,0:0|0:0,0:0:0:0:
208,120,98118,2,0,L|212:16,1,104,2|2,0:0|0:0,0:0:0:0:
36,120,98505,1,8,0:0:0:0:
44,172,98602,1,0,0:0:0:0:
64,220,98699,1,0,3:0:0:0:
136,296,98892,1,2,0:0:0:0:
240,316,99086,1,0,3:0:0:0:
496,212,99279,6,0,P|468:124|368:80,1,208,4|2,0:0|0:0,0:0:0:0:
212,236,99957,1,8,0:0:0:0:
388,340,100150,2,0,L|432:312,1,52,8|0,0:0|0:0,0:0:0:0:
324,232,100441,2,0,L|320:128,1,104,2|0,0:0|0:0,0:0:0:0:
140,76,100828,6,0,P|40:120|12:208,1,208,2|2,0:0|0:0,0:0:0:0:
188,312,101408,2,0,P|248:284|188:192,1,208,8|0,0:0|0:0,0:0:0:0:
76,296,101989,2,0,L|72:192,1,104,8|0,0:0|0:0,0:0:0:0:
328,88,102376,6,0,L|432:84,2,104,12|2|2,0:0|0:0|0:0,0:0:0:0:
152,192,102957,2,0,P|92:164|152:72,1,208,8|2,0:0|0:0,0:0:0:0:
204,70,103441,1,0,0:0:0:0:
256,68,103537,1,2,0:0:0:0:
432,380,103731,6,0,L|432:172,1,208,8|2,0:0|0:0,0:0:0:0:
328,168,104312,1,2,0:0:0:0:
152,272,104505,2,0,L|360:264,1,208,8|2,0:0|0:0,0:0:0:0:
360,264,105279,2,0,L|308:262,1,52,2|0,0:0|0:0,0:0:0:0:
196,208,105473,6,0,L|92:204,2,104,8|2|2,0:0|0:0|0:0,0:0:0:0:
372,312,106053,2,0,P|472:268|500:180,1,208,8|2,0:0|0:0,0:0:0:0:
396,176,106634,1,2,0:0:0:0:
220,280,106828,6,0,L|220:72,1,208,8|2,0:0|0:0,0:0:0:0:
324,68,107408,1,2,0:0:0:0:
148,172,107602,2,0,P|48:128|20:40,1,208,8|2,0:0|0:0,0:0:0:0:
132,144,108182,1,2,0:0:0:0:
80,146,108279,1,0,0:0:0:0:
28,148,108376,1,2,0:0:0:0:
204,252,108570,6,0,L|208:148,1,104,8|2,0:0|0:0,0:0:0:0:
104,144,108957,1,2,0:0:0:0:
280,352,109150,2,0,L|488:344,1,208,8|2,0:0|0:0,0:0:0:0:
488,240,109731,1,0,0:0:0:0:
312,136,109924,6,0,P|412:92|440:4,1,208,8|2,0:0|0:0,0:0:0:0:
336,0,110505,1,2,0:0:0:0:
160,312,110699,2,0,P|220:284|160:192,1,208,8|2,0:0|0:0,0:0:0:0:
48,88,111279,1,2,0:0:0:0:
100,86,111376,1,0,3:0:0:0:
152,84,111473,1,2,0:0:0:0:
328,292,111666,6,0,L|432:288,1,104,8|2,0:0|0:0,0:0:0:0:
412,240,111957,1,0,0:0:0:0:
364,220,112053,1,2,0:0:0:0:
188,116,112247,1,8,0:0:0:0:
140,96,112344,1,0,0:0:0:0:
120,48,112441,2,0,L|224:44,1,104,2|2,0:0|0:0,0:0:0:0:
400,148,112828,2,0,L|404:44,1,104,2|8,0:0|0:0,0:0:0:0:
148,252,113215,5,10,0:0:0:0:
36,148,113408,2,0,L|32:44,1,104,10|0,0:0|0:0,0:0:0:0:
288,356,113795,2,0,P|260:268|160:224,1,208,10|0,0:0|0:0,0:0:0:0:
148,172,114279,1,0,0:0:0:0:
160,224,114376,1,2,0:0:0:0:
148,172,114473,1,0,3:0:0:0:
160,224,114570,1,8,0:0:0:0:
440,276,114763,6,0,L|444:172,1,104,12|2,0:0|0:0,0:0:0:0:
392,170,115053,1,2,0:0:0:0:
280,116,115150,2,0,L|384:112,1,104,0|2,0:0|0:0,0:0:0:0:
272,216,115537,2,0,L|268:112,1,104,8|2,0:0|0:0,0:0:0:0:
320,110,115828,1,0,0:0:0:0:
432,160,115924,2,0,L|436:56,1,104,0|2,0:0|0:0,0:0:0:0:
260,368,116312,6,0,L|156:364,1,104,8|0,0:0|0:0,0:0:0:0:
208,362,116602,1,2,0:0:0:0:
260,360,116699,1,0,0:0:0:0:
84,256,116892,2,0,P|24:228|84:136,1,208,2|2,0:0|0:0,0:0:0:0:
260,32,117473,2,0,L|364:28,1,104,0|2,0:0|0:0,0:0:0:0:
84,236,117860,6,0,L|80:132,1,104,8|2,0:0|0:0,0:0:0:0:
132,130,118150,1,2,0:0:0:0:
244,180,118247,2,0,L|248:76,1,104,0|2,0:0|0:0,0:0:0:0:
360,284,118634,2,0,L|364:180,1,104,8|2,0:0|0:0,0:0:0:0:
312,178,118924,1,0,0:0:0:0:
200,228,119021,2,0,L|96:224,1,104,0|2,0:0|0:0,0:0:0:0:
272,120,119408,6,0,L|168:116,1,104,8|0,0:0|0:0,0:0:0:0:
124,88,119699,1,2,0:0:0:0:
168,116,119795,1,0,0:0:0:0:
344,324,119989,2,0,L|448:320,1,104,2|8,0:0|0:0,0:0:0:0:
484,284,120279,1,0,0:0:0:0:
496,232,120376,1,2,0:0:0:0:
484,180,120473,1,0,0:0:0:0:
448,144,120570,2,0,L|404:116,2,52,0|0|2,0:0|0:0|0:0,0:0:0:0:
168,248,120957,6,0,L|64:244,1,104,12|2,0:0|0:0,0:0:0:0:
116,242,121247,1,2,0:0:0:0:
228,188,121344,2,0,L|332:184,1,104,0|2,0:0|0:0,0:0:0:0:
220,288,121731,2,0,L|216:184,1,104,8|2,0:0|0:0,0:0:0:0:
268,182,122021,1,0,0:0:0:0:
380,128,122118,2,0,L|384:24,1,104,0|2,0:0|0:0,0:0:0:0:
212,336,122505,6,0,L|208:232,1,104,8|0,0:0|0:0,0:0:0:0:
260,230,122795,1,2,0:0:0:0:
312,228,122892,1,0,0:0:0:0:
136,124,123086,2,0,P|164:212|264:256,1,208,2|2,0:0|0:0,0:0:0:0:
440,360,123666,2,0,L|336:364,1,104,0|2,0:0|0:0,0:0:0:0:
56,260,124053,6,0,L|48:52,1,208,2|2,0:0|0:0,0:0:0:0:
204,208,124731,1,2,0:0:0:0:
460,312,124924,2,0,L|462:260,1,52,2|0,0:0|0:0,0:0:0:0:
284,156,125215,2,0,L|388:152,1,104,2|0,0:0|0:0,0:0:0:0:
212,48,125602,6,0,P|112:92|84:180,1,208,2|2,0:0|0:0,0:0:0:0:
364,284,126182,2,0,L|368:180,1,104,2|0,0:0|0:0,0:0:0:0:
316,128,126473,2,0,L|212:124,1,104,0|0,0:0|0:0,0:0:0:0:
324,72,126763,2,0,L|428:68,1,104,2|0,0:0|0:0,0:0:0:0:
172,264,127150,6,0,L|68:260,1,104,12|2,0:0|0:0,0:0:0:0:
120,258,127441,1,2,0:0:0:0:
232,308,127537,2,0,L|236:204,1,104,0|2,0:0|0:0,0:0:0:0:
348,100,127924,2,0,L|452:96,1,104,8|2,0:0|0:0,0:0:0:0:
400,94,128215,1,0,0:0:0:0:
288,40,128312,2,0,L|184:36,1,104,0|2,0:0|0:0,0:0:0:0:
360,244,128699,6,0,L|464:240,1,104,8|0,0:0|0:0,0:0:0:0:
412,238,128989,1,2,0:0:0:0:
360,236,129086,1,0,0:0:0:0:
104,340,129279,2,0,P|132:252|232:208,1,208,2|2,0:0|0:0,0:0:0:0:
408,104,129860,2,0,L|412:0,1,104,0|2,0:0|0:0,0:0:0:0:
132,312,130247,6,0,L|128:208,1,104,8|2,0:0|0:0,0:0:0:0:
180,206,130537,1,2,0:0:0:0:
292,152,130634,2,0,L|296:48,1,104,0|2,0:0|0:0,0:0:0:0:
120,256,131021,2,0,L|16:252,1,104,8|2,0:0|0:0,0:0:0:0:
68,250,131312,1,0,0:0:0:0:
180,196,131408,2,0,L|284:192,1,104,0|2,0:0|0:0,0:0:0:0:
108,296,131795,6,0,L|212:292,1,104,8|0,0:0|0:0,0:0:0:0:
160,290,132086,1,2,0:0:0:0:
108,288,132182,1,0,0:0:0:0:
364,184,132376,1,2,0:0:0:0:
260,80,132570,1,8,0:0:0:0:
240,128,132666,1,0,0:0:0:0:
260,176,132763,1,2,0:0:0:0:
308,196,132860,1,0,0:0:0:0:
356,216,132957,1,0,0:0:0:0:
376,264,133053,1,0,0:0:0:0:
356,312,133150,1,2,0:0:0:0:
76,208,133344,6,0,L|72:104,1,104,12|2,0:0|0:0,0:0:0:0:
124,102,133634,1,2,0:0:0:0:
236,152,133731,2,0,L|340:148,1,104,0|2,0:0|0:0,0:0:0:0:
228,252,134118,2,0,L|332:248,1,104,8|2,0:0|0:0,0:0:0:0:
280,246,134408,1,0,0:0:0:0:
168,192,134505,2,0,L|164:88,1,104,0|2,0:0|0:0,0:0:0:0:
340,296,134892,6,0,L|340:192,1,104,8|0,0:0|0:0,0:0:0:0:
296,220,135182,1,2,0:0:0:0:
340,192,135279,1,0,0:0:0:0:
84,88,135473,2,0,P|112:176|212:220,1,208,2|2,0:0|0:0,0:0:0:0:
388,324,136053,2,0,L|492:320,1,104,0|2,0:0|0:0,0:0:0:0:
212,112,136441,6,0,P|152:140|212:232,1,208,2|2,0:0|0:0,0:0:0:0:
368,76,137118,1,2,0:0:0:0:
112,180,137312,2,0,L|110:128,1,52,2|0,0:0|0:0,0:0:0:0:
284,280,137602,2,0,L|388:276,1,104,2|0,0:0|0:0,0:0:0:0:
212,172,137989,5,2,0:0:0:0:
308,132,138182,1,2,0:0:0:0:
340,88,138279,1,0,0:0:0:0:
348,36,138376,1,2,0:0:0:0:
36,344,138570,2,0,L|32:240,1,104,2|8,0:0|0:0,0:0:0:0:
84,188,138860,2,0,L|188:184,1,104
300,132,139150,2,0,L|344:104,2,52,2|0|0,0:0|0:0|0:0,0:0:0:0:
44,340,139537,6,0,L|40:236,1,104,14|2,0:0|0:0,0:0:0:0:
152,132,139924,1,8,0:0:0:0:
104,112,140021,1,2,0:0:0:0:
84,64,140118,1,0,0:0:0:0:
104,16,140215,1,2,0:0:0:0:
280,224,140408,2,0,L|282:172,1,52,0|2,0:0|0:0,0:0:0:0:
168,276,140699,1,8,0:0:0:0:
148,228,140795,1,2,0:0:0:0:
168,180,140892,1,0,0:0:0:0:
216,160,140989,1,2,0:0:0:0:
392,56,141182,6,0,L|444:58,1,52,0|2,0:0|0:0,0:0:0:0:
332,164,141473,2,0,L|280:166,1,52,8|2,0:0|0:0,0:0:0:0:
24,272,141763,1,2,0:0:0:0:
22,324,141860,2,0,L|126:328,1,104,8|2,0:0|0:0,0:0:0:0:
304,224,142247,1,8,0:0:0:0:
252,222,142344,1,2,0:0:0:0:
200,220,142441,1,8,0:0:0:0:
456,116,142634,6,0,L|460:12,1,104,10|0,0:0|0:0,0:0:0:0:
408,10,142924,1,10,0:0:0:0:
356,8,143021,1,0,0:0:0:0:
76,112,143215,2,0,P|104:200|204:244,1,208,14|2,0:0|0:0,0:0:0:0:
256,242,143699,1,0,0:0:0:0:
144,188,143795,2,0,L|40:184,1,104,8|2,0:0|0:0,0:0:0:0:
296,288,144182,6,0,L|192:284,1,104,10|0,0:0|0:0,0:0:0:0:
148,256,144473,1,10,0:0:0:0:
192,284,144570,1,0,0:0:0:0:
472,180,144763,2,0,P|444:92|344:48,1,208,14|2,0:0|0:0,0:0:0:0:
168,152,145344,1,10,0:0:0:0:
344,256,145537,2,0,L|346:204,1,52,10|2,0:0|0:0,0:0:0:0:
