osu file format v14

[General]
AudioFilename: audio.mp3
AudioLeadIn: 0
PreviewTime: 105021
Countdown: 1
SampleSet: None
StackLeniency: 0.7
Mode: 0
LetterboxInBreaks: 0
WidescreenStoryboard: 1

[Editor]
Bookmarks: 11976,23612,35249,46885,58521,70158,75976,81794,87612,93430,105067,116703
DistanceSpacing: 0.5
BeatDivisor: 4
GridSize: 8
TimelineZoom: 1.7

[Metadata]
Title:Birdsong
TitleUnicode:Birdsong
Artist:James Landino & Kabuki
ArtistUnicode:James Landino & Kabuki
Creator:Skidooskei
Version:Collab Cac
Source:
Tags:anfeargorm
BeatmapID:2058725
BeatmapSetID:982936

[Difficulty]
HPDrainRate:6.9
CircleSize:4
OverallDifficulty:8.5
ApproachRate:9.5
SliderMultiplier:1.8
SliderTickRate:1

[Events]
//Background and Video events
0,0,"birdsong.jpg",0,0
//Break Periods
//Storyboard Layer 0 (Background)
//Storyboard Layer 1 (Fail)
//Storyboard Layer 2 (Pass)
//Storyboard Layer 3 (Foreground)
//Storyboard Sound Samples

[TimingPoints]
340,363.636363636364,4,2,0,50,1,0
11971,-125,4,2,0,50,0,0
23612,-166.666666666667,4,2,0,50,0,0
32703,-153.846153846154,4,2,0,50,0,0
33067,-142.857142857143,4,2,0,50,0,0
33430,-133.333333333333,4,2,0,50,0,0
33794,-125,4,2,0,50,0,0
35249,-166.666666666667,4,2,0,50,0,0
44340,-125,4,2,0,50,0,0
45430,-100,4,2,0,50,0,0
46885,-83.3333333333333,4,2,0,50,0,0
57067,-100,4,2,0,50,0,0
58521,-200,4,2,0,50,0,0
64340,-100,4,2,0,50,0,0
68521,-66.6666666666667,4,2,0,50,0,0
68703,-100,4,2,0,50,0,0
69794,-333.333333333333,4,2,0,50,0,0
70158,-71.4285714285714,4,2,0,50,0,1
71249,-100,4,2,0,50,0,1
71794,-83.3333333333333,4,2,0,50,0,1
72703,-66.6666666666667,4,2,0,50,0,1
73067,-71.4285714285714,4,2,0,50,0,1
75249,-58.8235294117647,4,2,0,50,0,1
75612,-71.4285714285714,4,2,0,50,0,1
75976,-66.6666666666667,4,2,0,50,0,1
77430,-83.3333333333333,4,2,0,50,0,1
78885,-58.8235294117647,4,2,0,50,0,1
79249,-83.3333333333333,4,2,0,50,0,1
79612,-66.6666666666667,4,2,0,50,0,1
79976,-100,4,2,0,50,0,1
81794,-71.4285714285714,4,2,0,50,0,1
83794,-66.6666666666667,4,2,0,50,0,1
84703,-71.4285714285714,4,2,0,50,0,1
87249,-66.6666666666667,4,2,0,50,0,1
87976,-50,4,2,0,50,0,1
90521,-76.9230769230769,4,2,0,50,0,1
91249,-90.9090909090909,4,2,0,50,0,1
92521,-111.111111111111,4,2,0,50,0,1
93430,-100,4,2,0,50,0,0
93794,-142.857142857143,4,2,0,50,0,0
94158,-100,4,2,0,50,0,0
94522,-142.857142857143,4,2,0,50,0,0
94885,-100,4,2,0,50,0,0
95249,-142.857142857143,4,2,0,50,0,0
95612,-100,4,2,0,50,0,0
95976,-142.857142857143,4,2,0,50,0,0
97794,-125,4,2,0,50,0,0
98521,-111.111111111111,4,2,0,50,0,0
99249,-100,4,2,0,50,0,0
99794,-90.9090909090909,4,2,0,50,0,0
100340,-83.3333333333333,4,2,0,50,0,0
100885,-76.9230769230769,4,2,0,50,0,0
102158,-100,4,2,0,50,0,0
102521,-83.3333333333333,4,2,0,50,0,0
103612,-100,4,2,0,50,0,0
103976,-90.9090909090909,4,2,0,50,0,0
104340,-83.3333333333333,4,2,0,50,0,0
104521,-76.9230769230769,4,2,0,50,0,0
105067,-66.6666666666667,4,2,0,50,0,1
124158,-58.8235294117647,4,2,0,50,0,1
126885,-66.6666666666667,4,2,0,50,0,1
128340,-100,4,2,0,50,0,0

[Colours]
Combo1 : 254,243,203
Combo2 : 82,167,252
Combo3 : 185,113,251

[HitObjects]
245,42,340,6,0,P|294:24|359:39,1,90
429,94,703,1,0,0:0:0:0:
312,130,885,2,0,P|357:155|387:215,1,90
390,304,1248,1,0,0:0:0:0:
287,237,1430,2,0,P|296:288|270:349,1,90
207,160,1794,5,0,0:0:0:0:
145,64,3249,6,0,P|154:128|184:162,1,90
270,189,3612,1,0,0:0:0:0:
339,102,3794,2,0,P|279:77|234:86,1,90
167,147,4158,1,0,0:0:0:0:
209,251,4340,2,0,P|259:211|274:168,1,90
255,79,4703,5,0,0:0:0:0:
325,29,4885,1,0,0:0:0:0:
410,40,5067,1,0,0:0:0:0:
351,154,5249,1,0,0:0:0:0:
285,278,5430,2,0,L|268:178,1,90
170,285,5794,2,0,L|174:247,1,22.5
149,289,5976,1,0,0:0:0:0:
48,100,6158,6,0,P|29:155|39:188,1,90
187,63,6521,1,0,0:0:0:0:
256,183,6703,2,0,P|275:238|265:271,1,90
117,146,7066,1,0,0:0:0:0:
48,266,7249,2,0,P|29:321|39:354,1,90
187,229,7612,1,0,0:0:0:0:
421,112,9067,5,0,0:0:0:0:
346,80,9249,1,0,0:0:0:0:
273,115,9430,1,0,0:0:0:0:
253,131,9612,5,0,0:0:0:0:
346,49,9793,1,0,0:0:0:0:
447,135,9975,1,0,0:0:0:0:
353,214,10158,5,0,0:0:0:0:
284,322,10339,1,0,0:0:0:0:
265,234,10521,1,0,0:0:0:0:
237,218,10703,5,0,0:0:0:0:
288,349,10885,1,0,0:0:0:0:
379,207,11066,1,0,0:0:0:0:
263,80,11249,5,0,0:0:0:0:
209,200,11430,1,0,0:0:0:0:
32,265,11612,1,0,0:0:0:0:
63,74,11794,1,0,0:0:0:0:
165,310,11976,6,0,B|71:328|113:279|12:297,1,144
204,191,12521,1,0,0:0:0:0:
204,191,12703,2,0,P|224:232|225:268,1,72
341,112,13067,1,0,0:0:0:0:
344,136,13249,1,0,0:0:0:0:
308,206,13430,5,0,0:0:0:0:
434,97,13612,2,0,L|427:167,1,72
458,337,13976,1,0,0:0:0:0:
348,231,14158,1,0,0:0:0:0:
500,269,14340,1,0,0:0:0:0:
302,320,14521,2,0,L|377:313,1,72
237,193,14885,5,0,0:0:0:0:
234,221,15066,1,0,0:0:0:0:
232,246,15248,1,0,0:0:0:0:
278,44,15430,5,0,0:0:0:0:
182,107,15611,1,0,0:0:0:0:
184,132,15793,1,0,0:0:0:0:
110,35,15976,1,0,0:0:0:0:
108,60,16158,1,0,0:0:0:0:
77,243,16340,5,0,0:0:0:0:
167,325,16521,1,0,0:0:0:0:
247,286,16703,1,0,0:0:0:0:
73,265,16885,5,0,0:0:0:0:
163,345,17067,1,0,0:0:0:0:
159,317,17249,1,0,0:0:0:0:
262,170,17430,2,0,L|259:196,1,18
280,173,17612,1,0,0:0:0:0:
108,98,17794,6,0,P|192:108|241:58,1,144
346,217,18340,1,0,0:0:0:0:
346,217,18521,2,0,P|319:202|276:196,1,72
446,114,18885,1,0,0:0:0:0:
422,124,19067,1,0,0:0:0:0:
470,326,19249,5,0,0:0:0:0:
345,243,19430,2,0,L|423:236,1,72
314,351,19794,1,0,0:0:0:0:
257,182,19976,1,0,0:0:0:0:
183,334,20158,1,0,0:0:0:0:
123,165,20340,2,0,L|115:245,1,72
346,283,20703,5,0,0:0:0:0:
309,271,20884,1,0,0:0:0:0:
273,261,21066,1,0,0:0:0:0:
489,133,21249,5,0,0:0:0:0:
433,151,21430,1,0,0:0:0:0:
379,166,21612,1,0,0:0:0:0:
300,26,21794,2,0,L|371:32,1,72
197,103,22158,5,0,0:0:0:0:
300,261,22340,1,0,0:0:0:0:
306,233,22521,1,0,0:0:0:0:
185,85,22703,5,0,0:0:0:0:
300,261,22885,1,0,0:0:0:0:
320,155,23067,1,0,0:0:0:0:
143,228,23249,1,0,0:0:0:0:
174,381,23430,1,0,0:0:0:0:
300,261,23612,6,0,P|243:265|191:304,1,107.999996704102
325,287,24158,2,0,P|382:283|434:244,1,107.999996704102
351,192,24703,2,0,B|286:188|266:138|266:138|261:209|203:239|142:236|103:214|95:158|73:123|110:59|178:55,1,485.999985168458
267,36,26521,6,0,P|239:47|198:47,1,53.9999983520508
375,34,26885,1,0,0:0:0:0:
414,132,27249,1,0,0:0:0:0:
337,185,27612,1,0,0:0:0:0:
450,272,27976,2,0,L|438:201,1,53.9999983520508
409,348,28340,1,0,0:0:0:0:
332,282,28703,1,0,0:0:0:0:
255,358,29067,1,0,0:0:0:0:
144,239,29430,6,0,P|201:243|253:282,1,107.999996704102
119,265,29976,2,0,P|62:261|10:222,1,107.999996704102
98,167,30521,2,0,B|162:159|186:107|186:107|233:170|319:168|300:143|363:114|449:173|469:242|451:306,1,485.999985168458
353,350,32340,2,0,P|401:318|436:313,1,80.9999975280763
324,329,32703,6,0,L|319:247,1,58.4999973220826
211,237,33067,2,0,L|216:155,1,62.9999980773926
386,159,33430,2,0,L|381:77,1,67.5000025749208
235,18,33794,2,0,P|253:64|218:163,1,144
5,78,34340,2,0,B|112:59|112:59|152:78,1,144
120,231,34885,2,0,P|98:193|102:157,1,72
221,117,35249,6,0,L|330:126,1,107.999996704102
429,9,35794,2,0,L|319:18,1,107.999996704102
227,150,36340,2,0,B|269:150|294:180|294:180|354:108|436:158|436:158|380:224|382:304|382:304|324:249|229:266,1,539.999983520508
100,142,38521,6,0,P|107:183|107:207,1,53.9999983520508
190,199,38885,2,0,P|175:238|163:258,1,53.9999983520508
239,292,39249,2,0,P|206:318|186:330,1,53.9999983520508
332,110,39612,6,0,P|346:149|358:169,1,53.9999983520508
283,203,39976,2,0,P|315:229|335:241,1,53.9999983520508
491,94,40340,2,0,P|470:112|448:127,1,53.9999983520508
441,0,40704,2,0,P|432:25|420:49,1,53.9999983520508
286,162,41067,6,0,L|174:152,1,107.999996704102
116,30,41612,2,0,L|227:20,1,107.999996704102
105,188,42158,2,0,B|94:137|157:95|245:124|229:269|133:309|44:284|44:284|78:317|89:361|89:361|136:362|196:329,1,539.999983520508
356,258,44158,5,0,0:0:0:0:
282,201,44340,2,0,P|236:214|205:234,1,72
352,147,44703,1,0,0:0:0:0:
326,353,44885,1,0,0:0:0:0:
343,129,45067,1,0,0:0:0:0:
478,318,45249,1,0,0:0:0:0:
221,247,45430,6,0,L|327:256,1,90
137,109,45794,1,0,0:0:0:0:
111,343,45976,2,0,L|217:333,1,90
116,120,46340,1,0,0:0:0:0:
32,352,46521,1,0,0:0:0:0:
0,35,46703,1,0,0:0:0:0:
200,334,46885,6,0,P|210:274|248:243,1,107.999996704102
401,324,47430,2,0,P|344:345|298:327,1,107.999996704102
353,243,47794,1,0,0:0:0:0:
492,150,47976,2,0,B|428:210|333:130|388:55|388:55|293:22|293:22|243:26|207:92|207:92|153:49|88:78,1,539.999983520508
165,276,49067,2,0,L|142:167,1,107.999996704102
195,286,49430,1,0,0:0:0:0:
368,201,49794,6,0,P|319:165|268:163,1,107.999996704102
413,310,50158,2,0,L|406:186,1,107.999996704102
502,85,50521,2,0,P|513:116|498:152,1,53.9999983520508
290,14,50703,1,0,0:0:0:0:
103,91,50885,2,0,L|170:95,1,53.9999983520508
293,248,51067,2,0,B|237:237|237:237|175:257,1,107.999996704102
361,73,51430,2,0,P|366:130|369:180,1,107.999996704102
504,363,51794,2,0,L|512:255,1,107.999996704102
291,310,52158,2,0,L|359:314,1,53.9999983520508
273,161,52340,2,0,B|220:152|220:152|165:169,1,107.999996704102
0,318,52703,6,0,P|16:267|59:235,1,107.999996704102
215,340,53249,2,0,P|163:351|113:329,1,107.999996704102,0|0,2:0|2:0,2:0:0:0:
175,254,53612,1,0,0:0:0:0:
336,263,53794,2,0,B|374:205|345:150|325:168|302:111|338:59,1,215.999993408203
504,135,54340,2,0,B|455:108|455:108|389:114,1,107.999996704102
467,308,54703,2,0,B|435:253|435:253|440:192,1,107.999996704102
253,372,55067,2,0,P|304:338|370:343,1,107.999996704102
260,209,55430,1,0,0:0:0:0:
98,354,55612,5,0,0:0:0:0:
26,123,55794,2,0,P|63:181|59:232,1,107.999996704102
241,84,56158,1,0,0:0:0:0:
61,9,56340,1,0,0:0:0:0:
189,252,56521,2,0,L|180:180,1,53.9999983520508
338,30,56703,2,0,L|329:102,1,53.9999983520508
392,292,57067,6,0,P|366:236|404:161,1,135
444,160,57430,2,0,L|283:147,1,135
274,147,57794,1,0,0:0:0:0:
182,288,57976,1,0,0:0:0:0:
194,300,58340,1,0,0:0:0:0:
79,325,58521,6,0,L|83:377,1,45
107,257,58885,2,0,L|102:309,1,45
37,166,59249,2,0,L|41:218,1,45
65,98,59613,2,0,L|60:150,1,45
222,41,59976,6,0,L|169:45,1,45
298,58,60340,2,0,L|245:62,1,45
274,163,60703,2,0,L|221:158,1,45
345,192,61067,2,0,L|292:187,1,45
278,334,61430,6,0,L|273:286,1,45
321,226,61794,2,0,L|368:221,1,45
429,269,62158,2,0,L|433:316,1,45
386,377,62521,2,0,L|338:381,1,45
224,282,62885,6,0,L|229:225,1,45
173,154,63249,2,0,L|117:148,1,45
45,205,63613,2,0,L|40:260,1,45
96,332,63976,2,0,L|152:336,1,45
286,171,64340,6,0,L|290:225,1,45
302,162,64521,2,0,L|306:216,1,45
212,71,64703,2,0,L|207:125,1,45
196,62,64885,2,0,L|191:116,1,45
385,231,65067,2,0,L|389:285,1,45
401,222,65249,2,0,L|405:276,1,45
127,231,65430,2,0,L|122:285,1,45
111,222,65612,2,0,L|106:276,1,45
343,350,65794,6,0,L|391:345,1,45
177,350,65976,2,0,L|128:345,1,45
411,322,66158,2,0,L|455:318,1,45
111,322,66340,2,0,L|66:318,1,45
371,217,66521,2,0,L|437:211,1,45
144,217,66703,2,0,L|77:211,1,45
426,180,66885,2,0,L|475:175,1,45
93,180,67067,2,0,L|43:175,1,45
234,16,67249,5,0,0:0:0:0:
209,59,67339,1,0,0:0:0:0:
213,108,67430,1,0,0:0:0:0:
244,147,67521,1,0,0:0:0:0:
291,162,67612,1,0,0:0:0:0:
339,148,67703,1,0,0:0:0:0:
371,110,67794,1,0,0:0:0:0:
376,61,67885,1,0,0:0:0:0:
361,49,67976,5,0,0:0:0:0:
332,93,68066,1,0,0:0:0:0:
331,145,68157,1,0,0:0:0:0:
358,190,68248,1,0,0:0:0:0:
377,243,68339,1,0,0:0:0:0:
360,295,68430,1,0,0:0:0:0:
318,329,68521,2,0,B|286:326|286:326|282:329|282:329|251:326,1,67.5000025749208
235,92,68703,5,0,0:0:0:0:
235,92,68885,2,0,P|227:118|228:145,1,45
274,232,69067,1,0,0:0:0:0:
135,184,69249,2,0,P|149:206|171:223,1,45
391,93,69430,1,0,0:0:0:0:
358,86,69520,1,0,0:0:0:0:
328,99,69611,1,0,0:0:0:0:
312,127,69702,1,0,0:0:0:0:
314,160,69794,6,0,L|330:158,1,13.4999995880127
388,216,69976,2,0,L|404:218,1,13.4999995880127
139,356,70158,6,0,B|194:316|231:331|239:349|282:364|321:328,1,188.999994232178
40,202,70521,1,0,0:0:0:0:
84,208,70611,1,0,0:0:0:0:
129,214,70702,1,0,0:0:0:0:
173,221,70793,1,0,0:0:0:0:
218,227,70885,2,0,L|306:215,1,62.9999980773926
212,48,71067,2,0,L|149:57,1,62.9999980773926
34,325,71249,2,0,P|86:296|172:316,1,135
206,335,71612,1,0,0:0:0:0:
455,253,71794,2,0,P|426:294|426:334,1,53.9999983520508
380,77,71976,1,0,0:0:0:0:
375,121,72066,1,0,0:0:0:0:
370,166,72157,1,0,0:0:0:0:
366,211,72248,1,0,0:0:0:0:
288,239,72340,5,0,0:0:0:0:
282,180,72430,1,0,0:0:0:0:
276,122,72521,1,0,0:0:0:0:
270,64,72612,1,0,0:0:0:0:
263,10,72703,2,0,P|215:36|174:29,1,67.5000025749208
21,210,72885,2,0,L|112:214,1,67.5000025749208
389,344,73067,6,0,B|358:334|319:332|330:348|289:358|255:342,1,125.999996154785
215,199,73430,1,0,0:0:0:0:
199,164,73521,1,0,0:0:0:0:
234,149,73612,1,0,0:0:0:0:
249,183,73703,1,0,0:0:0:0:
247,127,73794,5,0,0:0:0:0:
178,157,73885,1,0,0:0:0:0:
210,225,73976,1,0,0:0:0:0:
276,194,74067,1,0,0:0:0:0:
250,102,74158,2,0,L|262:13,1,62.9999980773926
417,43,74340,2,0,L|429:132,1,62.9999980773926
434,230,74521,5,0,0:0:0:0:
372,225,74611,1,0,0:0:0:0:
342,271,74703,1,0,0:0:0:0:
280,266,74793,1,0,0:0:0:0:
270,301,74885,5,0,0:0:0:0:
345,307,74975,1,0,0:0:0:0:
365,237,75067,1,0,0:0:0:0:
440,243,75157,1,0,0:0:0:0:
512,227,75249,6,0,P|508:293|484:326,1,76.5000014591217
373,129,75430,2,0,P|377:63|401:30,1,76.5000014591217
122,189,75612,6,0,B|162:174|199:179|184:195|220:199|246:192,1,125.999996154785
25,85,75976,6,0,B|-15:130|-15:130|8:287,1,202.500007724762
190,70,76340,1,0,0:0:0:0:
132,99,76430,1,0,0:0:0:0:
127,163,76521,1,0,0:0:0:0:
180,201,76612,1,0,0:0:0:0:
239,175,76703,2,0,P|202:168|168:168,1,67.5000025749208
366,190,76885,2,0,P|344:159|320:135,1,67.5000025749208
248,344,77067,6,0,P|244:280|291:355,1,202.500007724762
101,264,77430,6,0,L|155:268,1,53.9999983520508
259,94,77612,2,0,B|235:103|235:103|204:98,1,53.9999983520508
98,289,77794,1,0,0:0:0:0:
151,293,77884,1,0,0:0:0:0:
205,298,77975,1,0,0:0:0:0:
259,303,78066,1,0,0:0:0:0:
372,206,78158,1,0,0:0:0:0:
332,208,78248,1,0,0:0:0:0:
293,212,78339,1,0,0:0:0:0:
253,216,78430,1,0,0:0:0:0:
194,177,78521,6,0,P|228:185|253:197,1,53.9999983520508
394,100,78703,2,0,P|360:108|335:120,1,53.9999983520508
450,316,78885,6,0,B|435:226|484:252|461:148,1,153.000002918243
227,332,79248,1,0,0:0:0:0:
244,352,79339,1,0,0:0:0:0:
265,368,79430,2,0,L|324:362,1,53.9999983520508
149,185,79612,2,0,P|167:232|171:256,1,67.5000025749208
315,85,79794,2,0,P|297:132|293:156,1,67.5000025749208
127,207,79976,2,0,P|140:241|143:258,1,45
399,145,80158,5,0,0:0:0:0:
172,85,80340,1,0,0:0:0:0:
401,169,80521,5,0,0:0:0:0:
174,229,80703,1,0,0:0:0:0:
402,313,80885,5,0,0:0:0:0:
171,252,81067,1,0,0:0:0:0:
349,155,81249,2,0,P|382:190|402:244,1,90
210,154,81612,1,0,0:0:0:0:
265,368,81794,6,0,B|307:317|307:317|276:190,1,188.999994232178
86,346,82158,1,0,0:0:0:0:
76,314,82248,1,0,0:0:0:0:
86,282,82339,1,0,0:0:0:0:
112,262,82430,1,0,0:0:0:0:
141,254,82521,2,0,B|164:169|164:169|126:128,1,125.999996154785
308,70,82794,1,0,0:0:0:0:
308,70,82885,2,0,P|288:113|260:127,1,62.9999980773926
404,144,83067,2,0,L|419:215,1,62.9999980773926
236,247,83249,6,0,P|223:326|228:402,1,125.999996154785
137,199,83521,1,0,0:0:0:0:
137,199,83612,2,0,P|157:156|185:142,1,62.9999980773926
432,112,83794,2,0,L|451:202,1,67.5000025749208
210,210,83976,2,0,P|193:310|199:407,1,135.000005149842
180,69,84249,1,0,0:0:0:0:
180,69,84340,2,0,L|258:60,1,67.5000025749208
458,281,84521,2,0,L|380:272,1,67.5000025749208
334,0,84703,6,0,B|361:47|361:47|324:202,1,188.999994232178
108,291,85068,5,0,0:0:0:0:
86,262,85158,1,0,0:0:0:0:
96,227,85249,1,0,0:0:0:0:
130,216,85340,1,0,0:0:0:0:
147,194,85430,5,0,0:0:0:0:
90,213,85521,1,0,0:0:0:0:
73,271,85612,1,0,0:0:0:0:
111,319,85702,1,0,0:0:0:0:
184,319,85794,2,0,L|265:307,1,62.9999980773926
287,87,85976,2,0,L|206:75,1,62.9999980773926
368,306,86158,5,0,0:0:0:0:
348,247,86248,1,0,0:0:0:0:
365,187,86339,1,0,0:0:0:0:
413,147,86430,1,0,0:0:0:0:
467,176,86521,5,0,0:0:0:0:
470,138,86611,1,0,0:0:0:0:
474,100,86702,1,0,0:0:0:0:
479,63,86793,1,0,0:0:0:0:
429,29,86885,5,0,0:0:0:0:
420,87,86976,1,0,0:0:0:0:
413,147,87067,1,0,0:0:0:0:
407,206,87157,1,0,0:0:0:0:
348,247,87249,6,0,B|284:271|284:271|284:246|284:246|248:261|209:251|185:220,1,202.500007724762
115,311,87612,6,0,B|156:260|156:260|131:124,1,202.500007724762
430,347,87976,6,0,P|336:327|258:267,1,180
77,181,88249,2,0,L|121:177,1,45
69,205,88340,2,0,P|163:185|241:125,1,180
396,85,88612,2,0,P|335:70|304:50,1,90
500,228,88794,1,0,0:0:0:0:
506,199,88885,2,0,P|445:214|414:234,1,90
282,232,89067,5,0,0:0:0:0:
258,212,89158,2,0,L|254:167,1,45
288,204,89249,2,0,L|271:397,1,180
63,183,89612,1,0,0:0:0:0:
161,40,89794,2,0,L|177:233,1,180
329,0,90067,2,0,L|312:193,1,180
133,20,90340,2,0,L|141:116,1,90
401,320,90521,6,0,B|373:282|303:258,1,116.999994644165
109,350,90885,1,0,0:0:0:0:
255,133,91067,1,0,0:0:0:0:
253,153,91157,1,0,0:0:0:0:
251,173,91249,2,0,L|151:164,1,99.0000030212403
414,81,91612,1,0,0:0:0:0:
343,23,91794,2,0,L|243:31,1,99.0000030212403
417,190,92158,1,0,0:0:0:0:
420,164,92340,1,0,0:0:0:0:
269,246,92521,6,0,L|350:253,1,80.9999975280763
197,166,92885,1,0,0:0:0:0:
215,161,93067,1,0,0:0:0:0:
115,320,93249,1,0,0:0:0:0:
107,161,93430,6,0,P|87:204|96:251,1,90
119,176,93794,2,0,P|109:205|114:241,1,62.9999980773926
221,143,94158,6,0,P|255:176|263:223,1,90
215,161,94522,2,0,P|234:185|242:221,1,62.9999980773926
95,92,94885,6,0,P|52:112|28:153,1,90
95,111,95249,2,0,P|68:127|49:158,1,62.9999980773926
234,0,95612,6,0,P|281:4|317:34,1,90
241,18,95976,2,0,P|271:23|300:46,1,62.9999980773926
316,184,96249,1,0,0:0:0:0:
316,184,96340,6,0,P|341:135|366:121,1,62.9999980773926
201,295,96703,2,0,L|182:179,1,94.499997116089
172,258,97067,2,0,L|156:164,1,94.499997116089
189,130,97430,2,0,L|204:223,1,94.499997116089
323,192,97794,6,0,P|295:227|226:247,1,108
302,170,98158,2,0,P|330:135|399:115,1,108
434,243,98521,2,0,B|445:198|445:198|413:111,1,121.499996292114
346,232,98885,2,0,B|335:277|335:277|353:332,1,80.9999975280763
242,282,99158,1,0,0:0:0:0:
242,282,99249,6,0,P|219:340|179:364,1,90
105,226,99612,1,0,0:0:0:0:
242,282,99794,6,0,P|204:336|154:353,1,99.0000030212403
85,163,100157,1,0,0:0:0:0:
242,282,100340,6,0,P|196:329|133:338,1,107.999996704102
65,103,100703,1,0,0:0:0:0:
242,282,100885,6,0,P|188:320|122:317,1,116.999994644165
43,39,101248,1,0,0:0:0:0:
105,226,101430,5,0,0:0:0:0:
250,120,101612,1,0,0:0:0:0:
219,227,101794,1,0,0:0:0:0:
132,28,101976,1,0,0:0:0:0:
404,45,102158,6,0,L|399:109,1,45
337,241,102340,2,0,L|342:177,1,45
220,91,102521,2,0,L|278:95,1,53.9999983520508
505,203,102703,2,0,L|446:198,1,53.9999983520508
274,95,102884,1,0,0:0:0:0:
282,153,102975,1,0,0:0:0:0:
289,211,103066,1,0,0:0:0:0:
268,265,103157,1,0,0:0:0:0:
250,297,103249,5,0,0:0:0:0:
303,273,103339,1,0,0:0:0:0:
361,272,103430,1,0,0:0:0:0:
415,293,103521,1,0,0:0:0:0:
456,310,103612,6,0,P|481:326|492:341,1,45
471,233,103794,2,0,P|499:239|515:249,1,45
341,243,103976,2,0,P|311:261|298:279,1,49.5000015106202
328,138,104158,2,0,P|293:145|275:157,1,49.5000015106202
212,343,104340,1,0,0:0:0:0:
206,303,104430,1,0,0:0:0:0:
201,260,104521,6,0,L|194:199,1,58.4999973220826
74,58,104703,2,0,L|67:119,1,58.4999973220826
70,311,104885,2,0,L|76:349,2,38.9999982147218
122,252,105067,6,0,B|254:236|184:299|319:281,1,202.500007724762
333,268,105430,1,0,0:0:0:0:
189,30,105612,1,0,0:0:0:0:
170,47,105703,1,0,0:0:0:0:
153,62,105794,2,0,P|99:56|23:24,1,135.000005149842
416,146,106158,1,0,0:0:0:0:
291,358,106340,5,0,0:0:0:0:
291,358,106521,1,0,0:0:0:0:
153,89,106703,2,0,L|140:229,1,135.000005149842
400,29,107067,2,0,L|412:169,1,135.000005149842
122,26,107430,2,0,L|109:166,1,135.000005149842
15,362,107794,2,0,P|14:318|3:281,1,67.5000025749208,0|0,2:0|0:0,0:0:0:0:
39,53,107976,6,0,P|85:106|211:139,1,202.500007724762
231,125,108340,1,0,0:0:0:0:
295,3,108521,1,0,0:0:0:0:
423,283,108703,2,0,P|420:216|448:150,1,135.000005149842
347,106,108976,1,0,0:0:0:0:
353,139,109067,1,0,0:0:0:0:
455,18,109249,1,0,0:0:0:0:
281,244,109430,5,0,0:0:0:0:
472,40,109612,2,0,L|332:27,1,135.000005149842
186,326,109976,2,0,L|325:313,1,135.000005149842
61,152,110340,1,0,0:0:0:0:
166,357,110521,2,0,L|384:336,1,202.500007724762
401,348,110885,6,0,B|416:219|349:273|374:140,1,202.500007724762
396,127,111249,1,0,0:0:0:0:
88,98,111430,1,0,0:0:0:0:
105,117,111521,1,0,0:0:0:0:
120,134,111612,2,0,P|114:188|82:264,1,135.000005149842
365,20,111976,1,0,0:0:0:0:
298,291,112158,5,0,0:0:0:0:
298,291,112340,1,0,0:0:0:0:
164,19,112521,2,0,L|150:171,1,135.000005149842
394,369,112885,2,0,L|380:216,1,135.000005149842
27,96,113249,2,0,P|59:153|64:229,1,135.000005149842
365,356,113612,2,0,P|354:316|351:278,1,67.5000025749208
381,37,113794,6,0,P|355:108|223:140,1,202.500007724762
225,123,114158,1,0,0:0:0:0:
512,246,114340,1,0,0:0:0:0:
512,246,114430,1,0,0:0:0:0:
512,246,114521,1,0,0:0:0:0:
285,374,114703,1,0,0:0:0:0:
354,32,114885,1,0,0:0:0:0:
207,342,115067,5,0,0:0:0:0:
207,342,115249,1,0,0:0:0:0:
101,62,115430,2,0,L|236:73,1,135.000005149842
454,322,115794,2,0,L|318:333,1,135.000005149842
349,45,116158,1,0,0:0:0:0:
484,295,116340,2,0,L|266:314,1,202.500007724762
35,162,116703,6,0,B|108:209|191:179|163:149|246:140|316:182,1,270.000010299683
120,338,117249,1,0,0:0:0:0:
120,338,117430,1,0,0:0:0:0:
208,2,117612,2,0,L|202:146,1,135.000005149842
239,326,117976,2,0,P|239:252|288:200,1,135.000005149842
496,307,118340,2,0,P|431:344|362:327,1,135.000005149842
432,52,118703,1,0,0:0:0:0:
423,269,118885,1,0,0:0:0:0:
216,70,119067,2,0,B|314:39|314:39|363:60,1,135.000005149842
126,271,119430,2,0,P|156:194|124:135,1,135.000005149842
414,185,119794,5,0,0:0:0:0:
414,185,119976,2,0,B|385:160|385:160|276:179,1,135.000005149842
72,303,120340,2,0,B|101:278|101:278|210:297,1,135.000005149842
73,38,120703,2,0,L|81:109,1,67.5000025749208
221,318,120885,2,0,L|229:247,1,67.5000025749208
250,66,121067,5,0,0:0:0:0:
250,66,121249,2,0,B|279:41|279:41|388:60,1,135.000005149842
507,307,121613,2,0,B|478:282|478:282|369:301,1,135.000005149842
161,341,121976,2,0,L|241:326,1,67.5000025749208
261,200,122158,2,0,L|181:185,1,67.5000025749208
51,163,122340,1,0,0:0:0:0:
36,120,122430,1,0,0:0:0:0:
26,82,122521,6,0,B|98:99|159:78|159:51|223:34|320:63,1,270.000010299683
344,371,123067,1,0,0:0:0:0:
169,225,123249,1,0,0:0:0:0:
406,102,123430,2,0,P|438:187|436:265,1,135.000005149842
134,315,123794,1,0,0:0:0:0:
221,55,123976,1,0,0:0:0:0:
272,223,124158,6,0,P|216:133|230:50,1,153.000002918243
437,9,124521,2,0,P|387:102|308:131,1,153.000002918243
28,93,124885,1,0,0:0:0:0:
299,43,125067,1,0,0:0:0:0:
117,346,125249,1,0,0:0:0:0:
119,110,125430,5,0,0:0:0:0:
125,383,125612,2,0,B|156:403|156:403|285:360,1,153.000002918243
512,107,125976,2,0,B|481:127|481:127|352:84,1,153.000002918243
106,0,126340,2,0,P|153:-4|187:18,1,76.5000014591217,0|0,2:0|0:0,0:0:0:0:
269,363,126521,2,0,P|221:367|187:344,1,76.5000014591217,0|0,2:0|0:0,0:0:0:0:
342,78,126703,1,0,0:0:0:0:
409,355,126885,6,0,L|396:194,1,135.000005149842
168,114,127249,2,0,L|178:248,1,135.000005149842
317,128,127612,1,0,0:0:0:0:
130,45,127794,2,0,L|148:269,1,202.500007724762
155,366,128158,1,0,0:0:0:0:
331,228,128340,5,0,0:0:0:0:
