osu file format v14

[General]
AudioFilename: audio.mp3
AudioLeadIn: 0
PreviewTime: 70067
Countdown: 0
SampleSet: Normal
StackLeniency: 0.7
Mode: 1
LetterboxInBreaks: 0
WidescreenStoryboard: 0

[Editor]
DistanceSpacing: 2.5
BeatDivisor: 4
GridSize: 8
TimelineZoom: 1.8

[Metadata]
Title:Birdsong
TitleUnicode:Birdsong
Artist:James Landino & Kabuki
ArtistUnicode:James Landino & Kabuki
Creator:Nifty
Version:Oni
Source:osu!
Tags:featured artist fa mappers guild mg electronic video game instrumental swan collection
BeatmapID:2115067
BeatmapSetID:1010367

[Difficulty]
HPDrainRate:5
CircleSize:2
OverallDifficulty:5
ApproachRate:10
SliderMultiplier:1.4
SliderTickRate:1

[Events]
//Background and Video events
0,0,"birb.jpg",0,80
//Break Periods
//Storyboard Layer 0 (Background)
//Storyboard Layer 1 (Fail)
//Storyboard Layer 2 (Pass)
//Storyboard Layer 3 (Foreground)
//Storyboard Layer 4 (Overlay)
//Storyboard Sound Samples

[TimingPoints]
340,363.636363636364,4,1,0,40,1,0
340,-142.857142857143,4,1,0,40,0,0
9067,-142.857142857143,4,1,0,40,0,0
9249,-144.237703735757,4,1,0,40,0,0
9430,-145.623998835008,4,1,0,40,0,0
9612,-147.058823529412,4,1,0,40,0,0
9794,-148.522204069508,4,1,0,40,0,0
9976,-149.992500374981,4,1,0,40,0,0
10158,-151.515151515152,4,1,0,40,0,0
10340,-153.069034134395,4,1,0,40,0,0
10521,-154.631204577084,4,1,0,40,0,0
10703,-156.25,4,1,0,40,0,0
10885,-157.903047528817,4,1,0,40,0,0
11067,-159.56598053295,4,1,0,40,0,0
11249,-161.290322580645,4,1,0,40,0,0
11430,-163.052339801076,4,1,0,40,0,0
11612,-164.826108455579,4,1,0,40,0,0
11794,-166.666666666667,4,1,0,40,0,0
11976,-125,4,1,0,60,0,0
20703,-125,4,1,0,60,0,0
21067,-129.032258064516,4,1,0,60,0,0
21249,-131.147540983607,4,1,0,60,0,0
21430,-133.333333333333,4,1,0,60,0,0
21612,-135.593220338983,4,1,0,60,0,0
21976,-140.350877192982,4,1,0,60,0,0
22158,-142.857142857143,4,1,0,60,0,0
22340,-145.454545454545,4,1,0,60,0,0
22521,-148.148148148148,4,1,0,60,0,0
22703,-150.943396226415,4,1,0,60,0,0
22885,-153.846153846154,4,1,0,60,0,0
23067,-156.862745098039,4,1,0,60,0,0
23249,-160,4,1,0,60,0,0
23430,-163.265306122449,4,1,0,60,0,0
23612,-166.666666666667,4,1,0,30,0,0
42521,-166.666666666667,4,1,0,40,0,0
43249,-153.869826127096,4,1,0,40,0,0
43612,-148.170099273967,4,1,0,40,0,0
43976,-142.897970848814,4,1,0,50,0,0
44340,-137.969094922737,4,1,0,50,0,0
44521,-135.6300013563,4,1,0,50,0,0
44703,-133.386688008537,4,1,0,50,0,0
44885,-131.199160325374,4,1,0,50,0,0
45067,-129.082225377565,4,1,0,50,0,0
45430,-125.046892584719,4,1,0,60,0,0
45612,-123.13754463736,4,1,0,60,0,0
45794,-121.270919233568,4,1,0,60,0,0
45976,-119.460040616414,4,1,0,60,0,0
46158,-117.702448210923,4,1,0,60,0,0
46340,-116.009280742459,4,1,0,60,0,0
46521,-114.351057747284,4,1,0,60,0,0
46703,-112.739571589628,4,1,0,60,0,0
46885,-90.9504320145521,4,1,0,70,0,0
47703,-111.172873818788,4,1,0,70,0,0
47976,-90.9504320145521,4,1,0,70,0,0
48249,-111.172873818788,4,1,0,70,0,0
49703,-90.9504320145521,4,1,0,70,0,0
49976,-111.172873818788,4,1,0,70,0,0
50521,-111.111111111111,4,1,0,70,0,0
50703,-103.54110581901,4,1,0,70,0,0
50885,-96.9461948618517,4,1,0,70,0,0
51067,-91.1327804611319,4,1,0,70,0,0
51158,-111.445447453472,4,1,0,70,0,0
52612,-91.1327804611319,4,1,0,70,0,0
53521,-111.445447453472,4,1,0,70,0,0
53794,-91.1327804611319,4,1,0,70,0,0
54067,-111.111111111111,4,1,0,70,0,0
54703,-101.450745662981,4,1,0,70,0,0
55067,-93.3358222885944,4,1,0,70,0,0
55430,-86.4229539365655,4,1,0,70,0,0
55612,-83.3333333333333,4,1,0,70,0,0
57067,-83.3333333333333,4,1,0,70,0,0
57430,-88.8888888888889,4,1,0,70,0,0
57612,-91.9540229885058,4,1,0,70,0,0
57794,-95.2380952380953,4,1,0,70,0,0
57976,-98.7654320987654,4,1,0,70,0,0
58249,-106.666666666667,4,1,0,70,0,0
58521,-110.253583241455,4,1,0,70,0,0
58885,-108.565845185105,4,1,0,70,0,0
59067,-107.747010020472,4,1,0,70,0,0
59249,-106.940434178163,4,1,0,70,0,0
59612,-105.362975450427,4,1,0,70,0,0
59976,-103.820598006645,4,1,0,70,0,0
60158,-103.07153164296,4,1,0,70,0,0
60340,-102.333196889071,4,1,0,70,0,0
60521,-101.605364763259,4,1,0,70,0,0
60703,-100.88781275222,4,1,0,70,0,0
61067,-99.4727941907888,4,1,0,70,0,0
61430,-98.1065437064652,4,1,0,70,0,0
61794,-96.7773153972709,4,1,0,70,0,0
61976,-96.1168781237985,4,1,0,70,0,0
62158,-95.4745083062822,4,1,0,70,0,0
62521,-94.2151874882231,4,1,0,70,0,0
62703,-93.5979034069637,4,1,0,70,0,0
62885,-92.9886553840432,4,1,0,70,0,0
63249,-91.7852225791648,4,1,0,70,0,0
63430,-91.1992704058368,4,1,0,70,0,0
63612,-90.6207521522429,4,1,0,70,0,0
63794,-90.049527239982,4,1,0,70,0,0
63976,-89.4854586129754,4,1,0,70,0,0
64340,-88.3704489218805,4,1,0,70,0,0
64521,-87.8271561566837,4,1,0,70,0,0
64703,-87.2905027932961,4,1,0,70,0,0
64885,-86.7603678639598,4,1,0,70,0,0
65067,-86.2366333218351,4,1,0,70,0,0
65249,-85.7118368046627,4,1,0,70,0,0
65430,-85.2006475249212,4,1,0,70,0,0
65612,-84.6955196070128,4,1,0,70,0,0
65794,-84.1963458785889,4,1,0,70,0,0
65976,-83.7030216790826,4,1,0,70,0,0
66158,-83.2085205525046,4,1,0,70,0,0
66340,-82.7266710787558,4,1,0,70,0,0
66521,-82.2503701266656,4,1,0,70,0,0
66703,-81.7795224075891,4,1,0,70,0,0
66885,-81.3140348024069,4,1,0,70,0,0
67067,-80.8538163001294,4,1,0,70,0,0
67249,-80.3923144947343,4,1,0,70,0,0
67340,-80.1667468334135,4,1,0,70,0,0
67430,-79.9424414421617,4,1,0,70,0,0
67612,-79.4975753239526,4,1,0,70,0,0
67794,-79.0576330144676,4,1,0,70,0,0
67885,-78.8394828129927,4,1,0,70,0,0
67976,-78.6225332180203,4,1,0,70,0,0
68067,-78.4067743453034,4,1,0,70,0,0
68158,-78.1921964187974,4,1,0,70,0,0
68340,-77.7604976671851,4,1,0,70,0,0
68521,-77.3395204949729,4,1,0,70,0,0
68612,-77.1307365985345,4,1,0,70,0,0
68703,-76.9230769230769,4,1,0,70,0,0
68885,-83.3333333333333,4,1,0,70,0,0
68976,-85.6971462850287,4,1,0,70,0,0
69067,-88.1989768918681,4,1,0,70,0,0
69249,-93.6680404645935,4,1,0,70,0,0
69340,-96.665055582407,4,1,0,70,0,0
69430,-99.8601957259836,4,1,0,70,0,0
69521,-103.273778787566,4,1,0,70,0,0
69612,-106.928999144568,4,1,0,70,0,0
69794,-115.074798619102,4,1,0,70,0,0
69885,-119.631534872592,4,1,0,70,0,0
69976,-124.564025909317,4,1,0,70,0,0
70158,-66.5424540857067,4,1,0,70,0,1
70249,-83.139341536415,4,1,0,70,0,1
78885,-83.4724540901503,4,1,0,70,0,0
79249,-81.9672131147541,4,1,0,70,0,0
79430,-80.6451612903226,4,1,0,70,0,0
79612,-79.3650793650794,4,1,0,70,0,0
79794,-78.125,4,1,0,70,0,0
79976,-76.9230769230769,4,1,0,70,0,0
80067,-76.3358778625954,4,1,0,70,0,0
80158,-75.7575757575758,4,1,0,70,0,0
80340,-74.6268656716418,4,1,0,70,0,0
80521,-73.5294117647059,4,1,0,70,0,0
80703,-72.463768115942,4,1,0,70,0,0
80885,-71.4285714285714,4,1,0,70,0,0
80976,-70.9219858156028,4,1,0,70,0,0
81067,-70.4225352112676,4,1,0,70,0,0
81249,-69.4444444444444,4,1,0,70,0,0
81430,-68.4931506849315,4,1,0,70,0,0
81521,-68.0272108843538,4,1,0,70,0,0
81612,-67.5675675675676,4,1,0,70,0,0
81794,-66.6666666666667,4,1,0,70,0,1
81885,-83.3333333333333,4,1,0,70,0,1
87976,-90.9090909090909,4,1,0,70,0,1
88067,-90.0333123255605,4,1,0,70,0,1
88158,-89.1742464776173,4,1,0,70,0,1
88218,-88.1057268722467,4,1,0,70,0,1
88340,-87.4967188730423,4,1,0,70,0,1
88612,-85.1063829787234,4,1,0,70,0,1
88794,-83.5840855901037,4,1,0,70,0,1
88885,-82.8431778643029,4,1,0,70,0,1
89067,-81.3934559661403,4,1,0,70,0,1
89127,-80.8080808080808,4,1,0,70,0,1
89249,-80,4,1,0,70,0,1
89430,-78.6534528865817,4,1,0,70,0,1
89612,-77.3455023590378,4,1,0,70,0,1
89794,-76.0861294985924,4,1,0,70,0,1
89885,-75.4716981132076,4,1,0,70,0,1
90067,-74.2721330956625,4,1,0,70,0,1
90249,-73.1047591198187,4,1,0,70,0,1
90340,-72.5373567387204,4,1,0,70,0,1
90521,-71.4285714285714,4,1,0,70,0,0
90703,-73.0566919929866,4,1,0,70,0,0
90885,-74.7663551401869,4,1,0,70,0,0
91067,-76.5520936997627,4,1,0,70,0,0
91158,-77.4833410816674,4,1,0,70,0,0
91249,-78.4313725490196,4,1,0,70,0,0
91430,-80.3987779385753,4,1,0,70,0,0
91612,-82.4742268041237,4,1,0,70,0,0
91794,-84.6525014814188,4,1,0,70,0,0
91976,-86.9565217391304,4,1,0,70,0,0
92158,-89.3814801573114,4,1,0,70,0,0
92340,-91.9540229885058,4,1,0,70,0,0
92430,-93.292284728053,4,1,0,70,0,0
92521,-94.6700747893591,4,1,0,70,0,0
92703,-97.5609756097561,4,1,0,70,0,0
92885,-100.623867981485,4,1,0,70,0,0
92976,-102.239034863511,4,1,0,70,0,0
93158,-105.607772732073,4,1,0,70,0,0
93249,-107.376785139053,4,1,0,70,0,0
93430,-111.111111111111,4,1,0,70,0,0
99249,-111.111111111111,4,1,0,70,0,0
99430,-109.086942293008,4,1,0,70,0,0
99612,-107.146683810136,4,1,0,70,0,0
99794,-105.263157894737,4,1,0,70,0,0
99976,-103.444708803145,4,1,0,70,0,0
100158,-101.698362656361,4,1,0,70,0,0
100340,-100,4,1,0,70,0,0
100521,-98.3574309039048,4,1,0,70,0,0
100703,-96.7773153972709,4,1,0,70,0,0
100885,-95.2380952380953,4,1,0,70,0,0
101067,-93.7470704040499,4,1,0,70,0,0
101249,-92.3105326317733,4,1,0,70,0,0
101430,-90.9090909090909,4,1,0,70,0,0
101612,-89.5495656846064,4,1,0,70,0,0
101794,-88.2378893496868,4,1,0,70,0,0
101976,-86.9565217391304,4,1,0,70,0,0
102158,-85.7118368046627,4,1,0,70,0,0
102249,-86.7227473766369,4,1,0,70,0,0
102340,-88.0049282759835,4,1,0,70,0,0
102521,-90.702947845805,4,1,0,70,0,0
102612,-92.1149594694178,4,1,0,70,0,0
102703,-93.562874251497,4,1,0,70,0,0
102885,-96.6183574879227,4,1,0,70,0,0
102976,-98.2221785679206,4,1,0,70,0,0
103067,-99.8701687805853,4,1,0,70,0,0
103158,-101.584721657863,4,1,0,70,0,0
103249,-103.359173126615,4,1,0,70,0,0
103430,-107.089312486614,4,1,0,70,0,0
103521,-109.063147562439,4,1,0,70,0,0
103612,-111.111111111111,4,1,0,70,0,0
103794,-106.689427077777,4,1,0,70,0,0
103885,-104.602510460251,4,1,0,70,0,0
103976,-102.606197414324,4,1,0,70,0,0
104158,-98.8239944658563,4,1,0,70,0,0
104249,-97.0308558121483,4,1,0,70,0,0
104340,-95.3107129241327,4,1,0,70,0,0
104430,-93.6417267534413,4,1,0,70,0,0
104521,-92.038656235619,4,1,0,70,0,0
104703,-88.9838049474996,4,1,0,70,0,0
104885,-86.1252260787185,4,1,0,70,0,0
104946,-84.7457627118644,4,1,0,70,0,0
105067,-83.4445927903872,4,1,0,70,0,1
114067,-81.3008130081301,4,1,0,70,0,1
125430,-81.3008130081301,4,1,0,70,0,1
125612,-80.9519954666883,4,1,0,70,0,1
125703,-80.6061583104949,4,1,0,70,0,1
125794,-80.2632635042941,4,1,0,70,0,1
125855,-79.9168864381044,4,1,0,70,0,1
125976,-79.2455820588002,4,1,0,70,0,1
126158,-78.5854616895874,4,1,0,70,0,1
126340,-78.2595085302864,4,1,0,70,0,1
126430,-77.9362481490141,4,1,0,70,0,1
126521,-77.6156473144986,4,1,0,70,0,1
126582,-77.2916988715412,4,1,0,70,0,1
126703,-76.6636001226618,4,1,0,70,0,1
126885,-76.0456273764259,4,1,0,70,0,1
127067,-75.7403620389306,4,1,0,70,0,1
127158,-75.4375377187689,4,1,0,70,0,1
127249,-75.1371252535878,4,1,0,70,0,1
127309,-74.8334954725735,4,1,0,70,0,1
127430,-74.2445615858638,4,1,0,70,0,1
127612,-73.6648250460405,4,1,0,70,0,1
127794,-73.0940720707551,4,1,0,70,0,1
127885,-72.811999417504,4,1,0,70,0,1
127976,-72.5268349289237,4,1,0,70,0,1
128036,-72.2491149483419,4,1,0,70,0,1
128158,-71.7000071700007,4,1,0,70,0,1
128340,-66.6666666666667,4,1,0,70,0,0

[HitObjects]
288,166,340,5,0,0:0:0:0:
293,153,521,1,0,0:0:0:0:
293,153,703,1,8,0:0:0:0:
293,153,885,1,0,0:0:0:0:
300,149,1067,1,0,0:0:0:0:
300,160,1249,1,8,0:0:0:0:
300,160,1430,1,0,0:0:0:0:
291,160,1612,1,0,0:0:0:0:
291,160,1794,1,8,0:0:0:0:
281,147,3249,1,8,0:0:0:0:
288,159,3430,1,0,0:0:0:0:
288,159,3612,1,8,0:0:0:0:
296,157,3794,1,0,0:0:0:0:
281,147,3976,1,8,0:0:0:0:
281,147,4158,1,8,0:0:0:0:
293,153,4340,1,0,0:0:0:0:
294,153,4521,1,8,0:0:0:0:
294,153,4703,1,8,0:0:0:0:
294,153,4885,1,0,0:0:0:0:
294,153,5067,1,0,0:0:0:0:
294,153,5249,1,8,0:0:0:0:
294,153,5430,1,0,0:0:0:0:
294,153,5612,1,0,0:0:0:0:
294,153,5794,1,8,0:0:0:0:
294,153,6158,1,0,0:0:0:0:
291,145,6340,1,0,0:0:0:0:
291,145,6521,1,8,0:0:0:0:
291,145,6703,1,0,0:0:0:0:
291,145,6885,1,0,0:0:0:0:
291,145,7067,1,8,0:0:0:0:
291,145,7249,1,0,0:0:0:0:
291,145,7430,1,0,0:0:0:0:
291,145,7612,1,8,0:0:0:0:
296,113,9067,1,8,0:0:0:0:
296,113,9249,1,0,0:0:0:0:
296,113,9430,1,8,0:0:0:0:
296,113,9612,1,0,0:0:0:0:
296,113,9794,1,8,0:0:0:0:
294,119,9976,1,8,0:0:0:0:
294,119,10158,1,0,0:0:0:0:
294,119,10340,1,8,0:0:0:0:
294,119,10521,1,8,0:0:0:0:
294,119,10703,1,0,0:0:0:0:
294,119,10885,1,8,0:0:0:0:
294,119,11067,1,8,0:0:0:0:
294,119,11249,1,0,0:0:0:0:
294,119,11430,1,0,0:0:0:0:
294,119,11612,1,8,0:0:0:0:
294,119,11794,1,8,0:0:0:0:
294,119,11976,1,4,0:0:0:0:
292,119,12340,1,8,0:0:0:0:
292,119,12521,1,0,0:0:0:0:
292,119,12703,1,8,0:0:0:0:
303,98,13067,1,0,0:0:0:0:
303,98,13249,1,0,0:0:0:0:
305,108,13430,1,8,0:0:0:0:
305,108,13794,1,8,0:0:0:0:
305,108,13976,1,0,0:0:0:0:
305,108,14158,1,8,0:0:0:0:
305,108,14340,1,0,0:0:0:0:
305,108,14430,1,0,0:0:0:0:
305,108,14521,1,8,0:0:0:0:
305,108,14703,1,0,0:0:0:0:
305,108,14885,1,8,0:0:0:0:
307,104,15249,1,8,0:0:0:0:
307,104,15430,1,8,0:0:0:0:
307,104,15612,1,0,0:0:0:0:
310,103,15976,1,8,0:0:0:0:
310,103,16158,1,0,0:0:0:0:
310,103,16340,1,0,0:0:0:0:
310,103,16703,1,8,0:0:0:0:
310,103,16885,1,0,0:0:0:0:
310,103,17067,1,8,0:0:0:0:
310,103,17249,1,0,0:0:0:0:
310,103,17340,1,0,0:0:0:0:
310,103,17430,1,8,0:0:0:0:
310,103,17612,1,8,0:0:0:0:
310,103,17794,1,0,0:0:0:0:
311,104,18158,1,8,0:0:0:0:
311,104,18340,1,0,0:0:0:0:
311,104,18521,1,8,0:0:0:0:
311,106,18885,1,0,0:0:0:0:
311,106,19067,1,0,0:0:0:0:
318,102,19249,1,8,0:0:0:0:
318,102,19612,1,8,0:0:0:0:
318,102,19794,1,0,0:0:0:0:
318,102,19976,1,8,0:0:0:0:
318,102,20158,1,0,0:0:0:0:
318,102,20249,1,0,0:0:0:0:
318,102,20340,1,8,0:0:0:0:
318,102,20521,1,0,0:0:0:0:
318,102,20703,1,8,0:0:0:0:
315,101,21067,1,8,0:0:0:0:
315,101,21249,1,8,0:0:0:0:
315,101,21430,1,0,0:0:0:0:
314,88,21612,1,8,0:0:0:0:
314,88,21976,1,0,0:0:0:0:
323,89,22158,1,8,0:0:0:0:
326,79,22340,1,0,0:0:0:0:
323,89,22521,1,0,0:0:0:0:
313,97,22703,1,8,0:0:0:0:
313,97,22885,1,0,0:0:0:0:
313,97,23067,1,8,0:0:0:0:
313,97,23249,1,8,0:0:0:0:
313,97,23430,1,0,0:0:0:0:
313,97,23612,1,0,0:0:0:0:
307,101,24158,1,8,0:0:0:0:
308,101,24521,1,0,0:0:0:0:
308,101,24703,1,8,0:0:0:0:
314,97,26521,1,0,0:0:0:0:
314,96,26885,1,8,0:0:0:0:
314,96,27249,1,8,0:0:0:0:
314,96,27612,1,0,0:0:0:0:
314,97,27976,1,8,0:0:0:0:
314,97,28340,1,0,0:0:0:0:
314,97,28703,1,0,0:0:0:0:
314,97,29067,1,8,0:0:0:0:
313,95,29430,1,0,0:0:0:0:
316,94,29976,1,8,0:0:0:0:
316,94,30521,1,0,0:0:0:0:
323,98,32340,1,0,0:0:0:0:
326,96,32703,1,0,0:0:0:0:
326,96,33067,1,0,0:0:0:0:
326,96,33430,1,8,0:0:0:0:
326,96,33794,1,8,0:0:0:0:
326,96,34340,1,8,0:0:0:0:
326,96,34885,1,8,0:0:0:0:
326,96,35249,1,0,0:0:0:0:
326,96,35794,1,8,0:0:0:0:
326,96,36340,1,0,0:0:0:0:
325,100,38158,1,0,0:0:0:0:
325,100,38521,1,8,0:0:0:0:
325,100,38885,1,8,0:0:0:0:
325,100,39249,1,0,0:0:0:0:
325,101,39612,1,8,0:0:0:0:
325,101,39976,1,0,0:0:0:0:
316,101,40340,1,0,0:0:0:0:
316,101,40703,1,8,0:0:0:0:
316,101,41067,1,0,0:0:0:0:
319,102,41612,1,8,0:0:0:0:
319,102,42158,1,0,0:0:0:0:
321,103,42521,1,0,0:0:0:0:
321,109,43249,1,0,0:0:0:0:
321,109,43612,1,0,0:0:0:0:
321,109,43976,1,0,0:0:0:0:
321,109,44340,1,8,0:0:0:0:
321,109,44521,1,0,0:0:0:0:
321,109,44703,1,0,0:0:0:0:
321,109,44885,1,0,0:0:0:0:
321,109,45067,1,8,0:0:0:0:
323,108,45430,1,8,0:0:0:0:
323,108,45612,1,0,0:0:0:0:
323,108,45794,1,0,0:0:0:0:
323,108,45976,1,8,0:0:0:0:
323,108,46158,1,0,0:0:0:0:
323,108,46340,1,8,0:0:0:0:
323,108,46521,1,8,0:0:0:0:
323,108,46703,1,0,0:0:0:0:
323,108,46885,1,12,0:0:0:0:
326,113,47430,1,12,0:0:0:0:
326,113,47794,1,0,0:0:0:0:
162,200,47976,2,4,L|214:179,16,38.4825000807395
304,140,49794,1,4,0:0:0:0:
304,140,50158,1,8,0:0:0:0:
303,139,50521,1,8,0:0:0:0:
307,123,50703,1,4,0:0:0:0:
307,123,50885,1,8,0:0:0:0:
307,123,51067,1,4,0:0:0:0:
306,123,51430,1,8,0:0:0:0:
306,123,51794,1,0,0:0:0:0:
306,123,52158,1,8,0:0:0:0:
306,123,52340,1,0,0:0:0:0:
306,123,52703,1,12,0:0:0:0:
308,125,53249,1,12,0:0:0:0:
308,125,53612,1,0,0:0:0:0:
308,125,53794,1,12,0:0:0:0:
308,125,54340,1,0,0:0:0:0:
308,125,54703,1,0,0:0:0:0:
308,125,55067,1,8,0:0:0:0:
308,125,55430,1,8,0:0:0:0:
308,125,55612,1,4,0:0:0:0:
308,125,55794,1,8,0:0:0:0:
310,126,56158,1,8,0:0:0:0:
310,126,56340,1,4,0:0:0:0:
310,126,56521,1,8,0:0:0:0:
310,126,56703,1,0,0:0:0:0:
313,115,57067,1,12,0:0:0:0:
311,120,57430,1,8,0:0:0:0:
311,120,57612,1,0,0:0:0:0:
311,120,57794,1,8,0:0:0:0:
311,120,57976,1,8,0:0:0:0:
311,121,58340,1,0,0:0:0:0:
311,121,58521,1,12,0:0:0:0:
312,133,58885,1,0,0:0:0:0:
312,133,59067,1,8,0:0:0:0:
312,126,59249,1,0,0:0:0:0:
312,126,59612,1,8,0:0:0:0:
310,129,59976,1,0,0:0:0:0:
310,129,60158,1,0,0:0:0:0:
310,129,60340,1,8,0:0:0:0:
310,129,60521,1,8,0:0:0:0:
310,129,60703,1,0,0:0:0:0:
311,128,61067,1,8,0:0:0:0:
311,128,61430,1,0,0:0:0:0:
311,128,61794,1,8,0:0:0:0:
311,128,61976,1,0,0:0:0:0:
311,128,62158,1,8,0:0:0:0:
311,128,62521,1,0,0:0:0:0:
311,128,62703,1,0,0:0:0:0:
311,128,62885,1,8,0:0:0:0:
311,128,63249,1,0,0:0:0:0:
311,128,63430,1,8,0:0:0:0:
311,128,63612,1,0,0:0:0:0:
311,128,63794,1,0,0:0:0:0:
311,127,63976,1,8,0:0:0:0:
311,127,64340,1,0,0:0:0:0:
311,127,64521,1,0,0:0:0:0:
311,127,64703,1,8,0:0:0:0:
311,127,64885,1,8,0:0:0:0:
311,127,65067,1,0,0:0:0:0:
311,127,65249,1,0,0:0:0:0:
311,127,65430,1,8,0:0:0:0:
311,127,65612,1,8,0:0:0:0:
311,127,65794,1,0,0:0:0:0:
311,127,65976,1,8,0:0:0:0:
311,127,66158,1,0,0:0:0:0:
311,127,66340,1,8,0:0:0:0:
311,127,66521,1,0,0:0:0:0:
311,127,66703,1,8,0:0:0:0:
311,127,66885,1,0,0:0:0:0:
311,127,67067,1,8,0:0:0:0:
311,127,67249,1,0,0:0:0:0:
321,134,67340,1,0,0:0:0:0:
321,134,67430,1,8,0:0:0:0:
321,134,67612,1,0,0:0:0:0:
321,134,67794,1,8,0:0:0:0:
321,134,67885,1,8,0:0:0:0:
321,134,67976,1,0,0:0:0:0:
321,134,68067,1,8,0:0:0:0:
321,134,68158,1,0,0:0:0:0:
321,134,68340,1,8,0:0:0:0:
285,140,68521,1,0,0:0:0:0:
321,134,68612,1,8,0:0:0:0:
321,134,68703,1,0,0:0:0:0:
321,134,68885,1,8,0:0:0:0:
321,134,68976,1,0,0:0:0:0:
321,134,69067,1,8,0:0:0:0:
315,124,69249,1,0,0:0:0:0:
315,124,69340,1,8,0:0:0:0:
315,124,69430,1,0,0:0:0:0:
315,124,69521,1,0,0:0:0:0:
315,124,69612,1,8,0:0:0:0:
315,124,69794,1,0,0:0:0:0:
315,124,69885,1,8,0:0:0:0:
315,124,69976,1,0,0:0:0:0:
315,124,70158,1,12,0:0:0:0:
321,121,70521,1,8,0:0:0:0:
321,121,70703,1,0,0:0:0:0:
321,121,70794,1,0,0:0:0:0:
321,121,70885,1,8,0:0:0:0:
321,121,71067,1,8,0:0:0:0:
321,121,71249,1,0,0:0:0:0:
321,121,71430,1,8,0:0:0:0:
321,121,71612,1,0,0:0:0:0:
321,121,71976,1,0,0:0:0:0:
321,121,72067,1,8,0:0:0:0:
321,121,72158,1,8,0:0:0:0:
321,121,72249,1,8,0:0:0:0:
321,121,72340,1,0,0:0:0:0:
321,121,72521,1,8,0:0:0:0:
321,121,72612,1,8,0:0:0:0:
321,121,72703,1,0,0:0:0:0:
321,121,72885,1,0,0:0:0:0:
321,121,73067,1,8,0:0:0:0:
327,114,73430,1,8,0:0:0:0:
327,114,73612,1,0,0:0:0:0:
327,114,73703,1,0,0:0:0:0:
327,114,73794,1,8,0:0:0:0:
327,114,73976,1,0,0:0:0:0:
327,114,74067,1,0,0:0:0:0:
327,114,74158,1,8,0:0:0:0:
327,114,74249,1,8,0:0:0:0:
327,114,74340,1,0,0:0:0:0:
327,114,74521,1,0,0:0:0:0:
327,114,74703,1,8,0:0:0:0:
327,114,74794,1,8,0:0:0:0:
327,114,74885,1,0,0:0:0:0:
327,114,75067,1,8,0:0:0:0:
327,114,75158,1,8,0:0:0:0:
327,114,75249,1,0,0:0:0:0:
327,114,75340,1,8,0:0:0:0:
327,114,75430,1,0,0:0:0:0:
327,114,75612,1,8,0:0:0:0:
327,114,75794,1,0,0:0:0:0:
327,114,75976,1,12,0:0:0:0:
318,114,76340,1,8,0:0:0:0:
318,114,76521,1,0,0:0:0:0:
313,115,76612,1,0,0:0:0:0:
318,114,76703,1,8,0:0:0:0:
311,120,76885,1,8,0:0:0:0:
311,120,77067,1,0,0:0:0:0:
311,120,77249,1,8,0:0:0:0:
311,120,77430,1,0,0:0:0:0:
306,109,77794,1,0,0:0:0:0:
306,109,77976,1,8,0:0:0:0:
306,109,78067,1,8,0:0:0:0:
306,109,78158,1,0,0:0:0:0:
306,109,78340,1,8,0:0:0:0:
306,109,78430,1,0,0:0:0:0:
306,109,78521,1,8,0:0:0:0:
306,109,78703,1,0,0:0:0:0:
306,109,78885,1,8,0:0:0:0:
287,96,79249,1,8,0:0:0:0:
308,103,79430,1,0,0:0:0:0:
308,103,79612,1,8,0:0:0:0:
308,103,79794,1,8,0:0:0:0:
308,103,79976,1,0,0:0:0:0:
303,94,80067,1,0,0:0:0:0:
308,103,80158,1,8,0:0:0:0:
301,89,80340,1,0,0:0:0:0:
308,88,80521,1,8,0:0:0:0:
308,88,80703,1,8,0:0:0:0:
308,88,80885,1,0,0:0:0:0:
308,88,80976,1,0,0:0:0:0:
308,88,81067,1,8,0:0:0:0:
308,88,81249,1,0,0:0:0:0:
308,88,81430,1,8,0:0:0:0:
308,88,81521,1,0,0:0:0:0:
308,88,81612,1,0,0:0:0:0:
308,88,81794,1,12,0:0:0:0:
289,106,82158,1,8,0:0:0:0:
295,98,82340,1,0,0:0:0:0:
295,98,82430,1,0,0:0:0:0:
295,98,82521,1,8,0:0:0:0:
284,103,82703,1,0,0:0:0:0:
293,98,82794,1,8,0:0:0:0:
293,99,82976,1,0,0:0:0:0:
293,99,83067,1,0,0:0:0:0:
271,91,83249,1,8,0:0:0:0:
271,91,83430,1,0,0:0:0:0:
394,95,83521,1,8,0:0:0:0:
281,94,83612,1,0,0:0:0:0:
281,94,83794,1,8,0:0:0:0:
281,94,83976,1,0,0:0:0:0:
281,94,84158,1,0,0:0:0:0:
281,94,84249,1,8,0:0:0:0:
274,82,84430,1,0,0:0:0:0:
278,78,84521,1,0,0:0:0:0:
278,78,84703,1,12,0:0:0:0:
285,72,85067,1,8,0:0:0:0:
285,72,85249,1,0,0:0:0:0:
285,72,85340,1,0,0:0:0:0:
285,72,85430,1,8,0:0:0:0:
285,72,85612,1,0,0:0:0:0:
301,76,85703,1,0,0:0:0:0:
285,72,85794,1,8,0:0:0:0:
285,72,85885,1,8,0:0:0:0:
285,72,85976,1,0,0:0:0:0:
285,72,86158,1,0,0:0:0:0:
285,72,86340,1,8,0:0:0:0:
285,72,86430,1,8,0:0:0:0:
291,68,86521,1,0,0:0:0:0:
291,68,86703,1,8,0:0:0:0:
291,68,86794,1,8,0:0:0:0:
291,68,86885,1,0,0:0:0:0:
291,68,86976,1,0,0:0:0:0:
298,68,87067,1,8,0:0:0:0:
298,68,87249,1,0,0:0:0:0:
298,68,87340,1,8,0:0:0:0:
299,80,87430,1,0,0:0:0:0:
299,80,87612,1,12,0:0:0:0:
303,68,87976,1,8,0:0:0:0:
303,68,88067,1,8,0:0:0:0:
300,74,88158,1,0,0:0:0:0:
303,68,88249,1,0,0:0:0:0:
310,68,88340,1,8,0:0:0:0:
303,68,88612,1,8,0:0:0:0:
303,68,88794,1,0,0:0:0:0:
303,68,88885,1,8,0:0:0:0:
303,68,89067,1,0,0:0:0:0:
308,60,89158,1,0,0:0:0:0:
307,61,89249,1,8,0:0:0:0:
314,62,89430,1,8,0:0:0:0:
314,62,89612,1,0,0:0:0:0:
314,62,89794,1,8,0:0:0:0:
314,62,89885,1,0,0:0:0:0:
314,62,90067,1,8,0:0:0:0:
314,62,90249,1,0,0:0:0:0:
314,62,90340,1,8,0:0:0:0:
314,62,90521,1,0,0:0:0:0:
310,54,90703,1,0,0:0:0:0:
314,62,90885,1,8,0:0:0:0:
314,62,91067,1,0,0:0:0:0:
307,57,91158,1,0,0:0:0:0:
306,57,91249,1,0,0:0:0:0:
306,62,91430,1,0,0:0:0:0:
309,54,91612,1,8,0:0:0:0:
309,54,91794,1,0,0:0:0:0:
309,54,91976,1,0,0:0:0:0:
309,54,92158,1,8,0:0:0:0:
309,54,92340,1,0,0:0:0:0:
309,54,92430,1,8,0:0:0:0:
309,54,92521,1,0,0:0:0:0:
309,54,92703,1,8,0:0:0:0:
309,54,92885,1,0,0:0:0:0:
309,54,92976,1,8,0:0:0:0:
309,54,93158,1,0,0:0:0:0:
309,54,93249,1,8,0:0:0:0:
309,54,93430,1,4,0:0:0:0:
314,52,93794,1,8,0:0:0:0:
314,52,94158,1,8,0:0:0:0:
314,52,94521,1,8,0:0:0:0:
314,52,94885,1,8,0:0:0:0:
314,52,95249,1,8,0:0:0:0:
314,52,95612,1,8,0:0:0:0:
314,52,95976,1,8,0:0:0:0:
314,52,96158,1,8,0:0:0:0:
314,52,96249,1,8,0:0:0:0:
314,52,96340,1,8,0:0:0:0:
314,52,96703,1,8,0:0:0:0:
301,54,97067,1,0,0:0:0:0:
301,54,97430,1,0,0:0:0:0:
301,54,97794,1,8,0:0:0:0:
301,54,98158,1,8,0:0:0:0:
301,54,98521,1,0,0:0:0:0:
309,54,98703,1,8,0:0:0:0:
301,55,98885,1,0,0:0:0:0:
309,54,99067,1,8,0:0:0:0:
309,54,99158,1,0,0:0:0:0:
309,54,99249,1,8,0:0:0:0:
309,54,99430,1,0,0:0:0:0:
309,54,99612,1,8,0:0:0:0:
309,54,99794,1,8,0:0:0:0:
309,54,99976,1,0,0:0:0:0:
309,54,100158,1,0,0:0:0:0:
309,54,100340,1,8,0:0:0:0:
309,54,100521,1,0,0:0:0:0:
309,54,100703,1,8,0:0:0:0:
309,54,100885,1,0,0:0:0:0:
309,54,101067,1,8,0:0:0:0:
309,54,101249,1,8,0:0:0:0:
309,54,101430,1,0,0:0:0:0:
309,54,101612,1,0,0:0:0:0:
309,54,101794,1,8,0:0:0:0:
309,54,101976,1,0,0:0:0:0:
309,54,102158,1,8,0:0:0:0:
309,54,102249,1,0,0:0:0:0:
309,54,102340,1,8,0:0:0:0:
309,54,102521,1,0,0:0:0:0:
309,54,102612,1,0,0:0:0:0:
309,54,102703,1,8,0:0:0:0:
309,54,102885,1,8,0:0:0:0:
309,54,102976,1,0,0:0:0:0:
309,54,103067,1,8,0:0:0:0:
309,54,103158,1,8,0:0:0:0:
309,54,103249,1,0,0:0:0:0:
309,54,103430,1,8,0:0:0:0:
309,54,103521,1,0,0:0:0:0:
309,54,103612,1,8,0:0:0:0:
309,54,103794,1,0,0:0:0:0:
309,54,103885,1,0,0:0:0:0:
309,54,103976,1,8,0:0:0:0:
309,54,104158,1,0,0:0:0:0:
309,54,104249,1,0,0:0:0:0:
309,54,104340,1,8,0:0:0:0:
309,54,104430,1,0,0:0:0:0:
309,54,104521,1,8,0:0:0:0:
309,54,104703,1,8,0:0:0:0:
309,54,104885,1,0,0:0:0:0:
325,83,104976,1,0,0:0:0:0:
300,69,105067,1,8,0:0:0:0:
314,51,105430,1,8,0:0:0:0:
314,51,105612,1,0,0:0:0:0:
314,51,105703,1,8,0:0:0:0:
314,51,105794,1,0,0:0:0:0:
314,51,105976,1,8,0:0:0:0:
314,51,106158,1,0,0:0:0:0:
315,36,106249,1,0,0:0:0:0:
314,51,106340,1,8,0:0:0:0:
314,51,106521,1,0,0:0:0:0:
314,51,106703,1,8,0:0:0:0:
314,51,106794,1,0,0:0:0:0:
314,51,106885,1,0,0:0:0:0:
314,43,107067,1,8,0:0:0:0:
313,70,107249,1,0,0:0:0:0:
323,51,107430,1,8,0:0:0:0:
323,51,107521,1,8,0:0:0:0:
323,51,107612,1,0,0:0:0:0:
315,53,107794,1,8,0:0:0:0:
313,62,107976,1,0,0:0:0:0:
318,59,108340,1,8,0:0:0:0:
317,45,108521,1,0,0:0:0:0:
317,45,108612,1,8,0:0:0:0:
317,45,108703,1,0,0:0:0:0:
317,45,108885,1,0,0:0:0:0:
317,45,109067,1,8,0:0:0:0:
317,45,109158,1,8,0:0:0:0:
317,45,109249,1,0,0:0:0:0:
317,45,109430,1,0,0:0:0:0:
317,45,109612,1,8,0:0:0:0:
317,45,109703,1,0,0:0:0:0:
320,52,109794,1,8,0:0:0:0:
317,45,109976,1,0,0:0:0:0:
325,44,110158,1,0,0:0:0:0:
325,44,110249,1,0,0:0:0:0:
327,52,110340,1,8,0:0:0:0:
327,52,110521,1,0,0:0:0:0:
325,71,110612,1,8,0:0:0:0:
325,70,110703,1,0,0:0:0:0:
336,56,110794,1,0,0:0:0:0:
326,52,110885,1,8,0:0:0:0:
323,50,111249,1,8,0:0:0:0:
323,50,111430,1,0,0:0:0:0:
323,50,111521,1,0,0:0:0:0:
323,50,111612,1,8,0:0:0:0:
323,50,111794,1,8,0:0:0:0:
323,50,111976,1,0,0:0:0:0:
334,52,112067,1,8,0:0:0:0:
334,52,112158,1,0,0:0:0:0:
327,56,112340,1,0,0:0:0:0:
327,56,112521,1,8,0:0:0:0:
327,56,112612,1,8,0:0:0:0:
333,51,112703,1,0,0:0:0:0:
333,51,112885,1,0,0:0:0:0:
333,51,113067,1,8,0:0:0:0:
318,58,113249,1,8,0:0:0:0:
341,57,113430,1,0,0:0:0:0:
341,57,113612,1,8,0:0:0:0:
341,57,113703,1,8,0:0:0:0:
341,57,113794,1,0,0:0:0:0:
336,48,114158,1,8,0:0:0:0:
336,48,114249,1,8,0:0:0:0:
342,59,114340,1,0,0:0:0:0:
342,59,114430,1,0,0:0:0:0:
342,59,114521,1,8,0:0:0:0:
342,59,114703,1,0,0:0:0:0:
342,59,114885,1,8,0:0:0:0:
341,67,114976,1,0,0:0:0:0:
337,66,115067,1,8,0:0:0:0:
341,58,115158,1,8,0:0:0:0:
337,66,115249,1,0,0:0:0:0:
337,66,115430,1,8,0:0:0:0:
337,66,115612,1,0,0:0:0:0:
316,71,115703,1,8,0:0:0:0:
320,68,115794,1,0,0:0:0:0:
333,65,115885,1,0,0:0:0:0:
335,66,115976,1,8,0:0:0:0:
335,66,116158,1,0,0:0:0:0:
335,66,116340,1,8,0:0:0:0:
348,70,116430,1,8,0:0:0:0:
303,78,116521,1,0,0:0:0:0:
303,78,116612,1,0,0:0:0:0:
308,73,116703,1,8,0:0:0:0:
313,68,117067,1,8,0:0:0:0:
313,68,117249,1,0,0:0:0:0:
328,70,117340,1,0,0:0:0:0:
328,70,117430,1,8,0:0:0:0:
328,70,117612,1,8,0:0:0:0:
328,70,117794,1,0,0:0:0:0:
328,70,117885,1,0,0:0:0:0:
328,70,117976,1,8,0:0:0:0:
328,70,118158,1,0,0:0:0:0:
328,70,118340,1,8,0:0:0:0:
328,70,118430,1,8,0:0:0:0:
328,70,118521,1,0,0:0:0:0:
328,70,118703,1,8,0:0:0:0:
328,70,118885,1,0,0:0:0:0:
328,70,119067,1,8,0:0:0:0:
328,70,119158,1,8,0:0:0:0:
328,70,119249,1,0,0:0:0:0:
328,70,119430,1,8,0:0:0:0:
328,70,119612,1,0,0:0:0:0:
327,69,119976,1,8,0:0:0:0:
327,69,120158,1,0,0:0:0:0:
327,69,120249,1,0,0:0:0:0:
327,69,120340,1,8,0:0:0:0:
321,62,120521,1,0,0:0:0:0:
321,62,120703,1,8,0:0:0:0:
321,62,120794,1,0,0:0:0:0:
321,62,120885,1,8,0:0:0:0:
321,62,121067,1,0,0:0:0:0:
321,62,121249,1,8,0:0:0:0:
321,62,121340,1,8,0:0:0:0:
329,59,121430,1,0,0:0:0:0:
329,59,121612,1,8,0:0:0:0:
329,59,121794,1,0,0:0:0:0:
329,59,121885,1,0,0:0:0:0:
329,59,121976,1,8,0:0:0:0:
323,65,122158,1,8,0:0:0:0:
290,117,122249,1,8,0:0:0:0:
311,105,122340,1,0,0:0:0:0:
331,103,122430,1,0,0:0:0:0:
323,65,122521,1,8,0:0:0:0:
312,61,122885,1,8,0:0:0:0:
321,70,123067,1,0,0:0:0:0:
321,70,123158,1,8,0:0:0:0:
321,70,123249,1,0,0:0:0:0:
321,70,123430,1,8,0:0:0:0:
321,70,123612,1,0,0:0:0:0:
321,70,123703,1,0,0:0:0:0:
321,70,123794,1,8,0:0:0:0:
321,70,123976,1,0,0:0:0:0:
321,70,124158,1,8,0:0:0:0:
321,70,124249,1,8,0:0:0:0:
321,70,124340,1,0,0:0:0:0:
321,70,124521,1,8,0:0:0:0:
321,70,124703,1,0,0:0:0:0:
321,70,124794,1,8,0:0:0:0:
321,70,124885,1,0,0:0:0:0:
321,70,125067,1,8,0:0:0:0:
321,70,125249,1,8,0:0:0:0:
321,70,125430,1,0,0:0:0:0:
321,70,125612,1,8,0:0:0:0:
321,70,125703,1,8,0:0:0:0:
321,70,125794,1,0,0:0:0:0:
321,70,125885,1,0,0:0:0:0:
321,70,125976,1,8,0:0:0:0:
321,70,126158,1,0,0:0:0:0:
321,70,126340,1,8,0:0:0:0:
321,70,126430,1,0,0:0:0:0:
321,70,126521,1,8,0:0:0:0:
313,88,126612,1,8,0:0:0:0:
321,70,126703,1,0,0:0:0:0:
321,70,126885,1,8,0:0:0:0:
312,73,127067,1,0,0:0:0:0:
312,73,127158,1,0,0:0:0:0:
312,73,127249,1,8,0:0:0:0:
321,74,127340,1,0,0:0:0:0:
324,72,127430,1,8,0:0:0:0:
312,73,127612,1,8,0:0:0:0:
312,73,127794,1,0,0:0:0:0:
312,73,127885,1,0,0:0:0:0:
312,73,127976,1,8,0:0:0:0:
286,76,128067,1,8,0:0:0:0:
286,76,128158,1,0,0:0:0:0:
312,73,128340,1,12,0:0:0:0:
