osu file format v14

[General]
AudioFilename: audio.mp3
AudioLeadIn: 0
PreviewTime: 70067
Countdown: 0
SampleSet: Normal
StackLeniency: 0.7
Mode: 1
LetterboxInBreaks: 0
WidescreenStoryboard: 0

[Editor]
DistanceSpacing: 2.5
BeatDivisor: 1
GridSize: 8
TimelineZoom: 1.8

[Metadata]
Title:Birdsong
TitleUnicode:Birdsong
Artist:James Landino & Kabuki
ArtistUnicode:James Landino & Kabuki
Creator:Nifty
Version:Muzukashii
Source:osu!
Tags:featured artist fa mappers guild mg electronic video game instrumental swan collection
BeatmapID:2125909
BeatmapSetID:1010367

[Difficulty]
HPDrainRate:5.5
CircleSize:2
OverallDifficulty:4
ApproachRate:10
SliderMultiplier:1.4
SliderTickRate:1

[Events]
//Background and Video events
0,0,"birb.jpg",0,80
//Break Periods
//Storyboard Layer 0 (Background)
//Storyboard Layer 1 (Fail)
//Storyboard Layer 2 (Pass)
//Storyboard Layer 3 (Foreground)
//Storyboard Layer 4 (Overlay)
//Storyboard Sound Samples

[TimingPoints]
340,363.636363636364,4,1,0,40,1,0
11976,-100,4,1,0,60,0,0
23612,-100,4,1,0,30,0,0
42521,-100,4,1,0,40,0,0
43976,-100,4,1,0,50,0,0
45430,-100,4,1,0,60,0,0
46885,-100,4,1,0,70,0,0
70158,-100,4,1,0,70,0,1
78885,-100,4,1,0,70,0,0
81794,-100,4,1,0,70,0,1
90521,-100,4,1,0,70,0,0
105067,-100,4,1,0,70,0,1
128340,-100,4,1,0,70,0,0

[HitObjects]
288,166,340,5,0,0:0:0:0:
293,153,703,1,8,0:0:0:0:
293,153,885,1,0,0:0:0:0:
300,160,1249,1,8,0:0:0:0:
291,160,1612,1,0,0:0:0:0:
291,160,1794,1,8,0:0:0:0:
281,147,3249,1,8,0:0:0:0:
288,159,3612,1,8,0:0:0:0:
296,157,3794,1,0,0:0:0:0:
281,147,4158,1,8,0:0:0:0:
294,153,4521,1,8,0:0:0:0:
294,153,4703,1,8,0:0:0:0:
294,153,5067,1,0,0:0:0:0:
294,153,5249,1,8,0:0:0:0:
294,153,5612,1,0,0:0:0:0:
294,153,5794,1,8,0:0:0:0:
294,153,6158,1,0,0:0:0:0:
291,145,6521,1,8,0:0:0:0:
291,145,6703,1,0,0:0:0:0:
291,145,7067,1,8,0:0:0:0:
291,145,7430,1,0,0:0:0:0:
291,145,7612,1,8,0:0:0:0:
296,113,9067,1,8,0:0:0:0:
296,113,9430,1,8,0:0:0:0:
296,113,9612,1,0,0:0:0:0:
294,119,9976,1,8,0:0:0:0:
294,119,10340,1,0,0:0:0:0:
294,119,10521,1,8,0:0:0:0:
294,119,10885,1,0,0:0:0:0:
294,119,11067,1,8,0:0:0:0:
294,119,11430,1,0,0:0:0:0:
294,119,11612,1,8,0:0:0:0:
294,119,11794,1,8,0:0:0:0:
294,119,11976,1,4,0:0:0:0:
292,119,12521,1,0,0:0:0:0:
292,119,12703,1,8,0:0:0:0:
303,98,13067,1,0,0:0:0:0:
305,108,13430,1,8,0:0:0:0:
305,108,13794,1,0,0:0:0:0:
305,108,13976,1,0,0:0:0:0:
305,108,14158,1,8,0:0:0:0:
305,108,14340,1,0,0:0:0:0:
305,108,14521,1,8,0:0:0:0:
305,108,14885,1,0,0:0:0:0:
307,104,15430,1,8,0:0:0:0:
307,104,15612,1,0,0:0:0:0:
310,103,15976,1,8,0:0:0:0:
310,103,16340,1,0,0:0:0:0:
310,103,16703,1,8,0:0:0:0:
310,103,16885,1,0,0:0:0:0:
310,103,17067,1,8,0:0:0:0:
310,103,17249,1,0,0:0:0:0:
310,103,17430,1,8,0:0:0:0:
310,103,17794,1,0,0:0:0:0:
311,104,18340,1,0,0:0:0:0:
311,104,18521,1,8,0:0:0:0:
311,106,18885,1,0,0:0:0:0:
318,102,19249,1,8,0:0:0:0:
318,102,19612,1,0,0:0:0:0:
318,102,19794,1,0,0:0:0:0:
318,102,19976,1,8,0:0:0:0:
318,102,20158,1,0,0:0:0:0:
318,102,20340,1,8,0:0:0:0:
318,102,20703,1,8,0:0:0:0:
318,102,21249,1,8,0:0:0:0:
315,101,21430,1,0,0:0:0:0:
314,88,21612,1,8,0:0:0:0:
314,88,21976,1,0,0:0:0:0:
323,89,22158,1,8,0:0:0:0:
323,89,22521,1,0,0:0:0:0:
313,97,22703,1,8,0:0:0:0:
313,97,22885,1,0,0:0:0:0:
313,97,23067,1,8,0:0:0:0:
313,97,23249,1,8,0:0:0:0:
313,97,23612,1,0,0:0:0:0:
307,101,24158,1,8,0:0:0:0:
308,101,24521,1,0,0:0:0:0:
308,101,24703,1,8,0:0:0:0:
314,96,26885,1,8,0:0:0:0:
314,96,27249,1,8,0:0:0:0:
314,96,27612,1,0,0:0:0:0:
314,97,27976,1,8,0:0:0:0:
314,97,28340,1,0,0:0:0:0:
314,97,28703,1,0,0:0:0:0:
314,97,29067,1,8,0:0:0:0:
313,95,29430,1,0,0:0:0:0:
316,94,29976,1,8,0:0:0:0:
316,94,30521,1,0,0:0:0:0:
326,96,32703,1,0,0:0:0:0:
326,96,33067,1,0,0:0:0:0:
326,96,33430,1,8,0:0:0:0:
326,96,33794,1,8,0:0:0:0:
326,96,34340,1,8,0:0:0:0:
326,96,34885,1,8,0:0:0:0:
326,96,35249,1,0,0:0:0:0:
326,96,35794,1,8,0:0:0:0:
326,96,36340,1,0,0:0:0:0:
325,100,38521,1,8,0:0:0:0:
325,100,38885,1,8,0:0:0:0:
325,100,39249,1,0,0:0:0:0:
325,101,39612,1,8,0:0:0:0:
325,101,39976,1,0,0:0:0:0:
316,101,40340,1,0,0:0:0:0:
316,101,40703,1,8,0:0:0:0:
316,101,41067,1,0,0:0:0:0:
319,102,41612,1,8,0:0:0:0:
319,102,42158,1,0,0:0:0:0:
321,103,42521,1,0,0:0:0:0:
321,109,43249,1,0,0:0:0:0:
321,109,43612,1,0,0:0:0:0:
321,109,43976,1,0,0:0:0:0:
321,109,44340,1,8,0:0:0:0:
321,109,44703,1,0,0:0:0:0:
321,109,44885,1,0,0:0:0:0:
321,109,45067,1,8,0:0:0:0:
323,108,45430,1,8,0:0:0:0:
323,108,45612,1,0,0:0:0:0:
323,108,45794,1,0,0:0:0:0:
323,108,45976,1,8,0:0:0:0:
323,108,46340,1,8,0:0:0:0:
323,108,46521,1,8,0:0:0:0:
323,108,46703,1,0,0:0:0:0:
323,108,46885,1,12,0:0:0:0:
326,113,47430,1,12,0:0:0:0:
180,189,47976,2,4,L|231:165,16,35
304,140,49794,1,4,0:0:0:0:
304,140,50158,1,8,0:0:0:0:
307,123,50703,1,4,0:0:0:0:
307,123,51067,1,4,0:0:0:0:
306,123,51430,1,8,0:0:0:0:
306,123,51794,1,0,0:0:0:0:
306,123,52158,1,8,0:0:0:0:
306,123,52340,1,0,0:0:0:0:
306,123,52703,1,12,0:0:0:0:
308,125,53249,1,12,0:0:0:0:
308,125,53794,1,12,0:0:0:0:
308,125,54340,1,0,0:0:0:0:
308,125,54703,1,0,0:0:0:0:
308,125,55067,1,8,0:0:0:0:
308,125,55430,1,8,0:0:0:0:
308,125,55612,1,4,0:0:0:0:
310,126,56158,1,8,0:0:0:0:
310,126,56340,1,4,0:0:0:0:
310,126,56703,1,0,0:0:0:0:
313,115,57067,1,12,0:0:0:0:
311,120,57430,1,8,0:0:0:0:
311,120,57794,1,0,0:0:0:0:
311,120,57976,1,8,0:0:0:0:
311,121,58340,1,0,0:0:0:0:
311,121,58521,1,12,0:0:0:0:
312,133,58885,1,0,0:0:0:0:
312,126,59249,1,0,0:0:0:0:
312,126,59612,1,8,0:0:0:0:
310,129,59976,1,0,0:0:0:0:
310,129,60340,1,8,0:0:0:0:
310,129,60521,1,8,0:0:0:0:
310,129,60703,1,0,0:0:0:0:
311,128,61430,1,0,0:0:0:0:
311,128,61794,1,8,0:0:0:0:
311,128,62158,1,8,0:0:0:0:
311,128,62521,1,0,0:0:0:0:
311,128,62703,1,0,0:0:0:0:
311,128,62885,1,8,0:0:0:0:
311,128,63249,1,0,0:0:0:0:
311,128,63430,1,8,0:0:0:0:
311,128,63612,1,0,0:0:0:0:
311,127,64340,1,0,0:0:0:0:
311,127,64521,1,0,0:0:0:0:
311,127,64703,1,8,0:0:0:0:
311,127,65067,1,0,0:0:0:0:
311,127,65249,1,0,0:0:0:0:
311,127,65430,1,8,0:0:0:0:
311,127,65794,1,0,0:0:0:0:
311,127,65976,1,8,0:0:0:0:
311,127,66158,1,0,0:0:0:0:
311,127,66521,1,0,0:0:0:0:
311,127,66703,1,8,0:0:0:0:
311,127,66885,1,0,0:0:0:0:
311,127,67249,1,0,0:0:0:0:
321,134,67430,1,8,0:0:0:0:
321,134,67612,1,0,0:0:0:0:
321,134,67794,1,8,0:0:0:0:
321,134,67976,1,0,0:0:0:0:
321,134,68158,1,0,0:0:0:0:
321,134,68340,1,8,0:0:0:0:
285,140,68521,1,8,0:0:0:0:
321,134,68703,1,0,0:0:0:0:
321,134,69067,1,8,0:0:0:0:
315,124,69249,1,0,0:0:0:0:
315,124,69340,1,0,0:0:0:0:
315,124,69430,1,0,0:0:0:0:
315,124,69612,1,8,0:0:0:0:
315,124,69794,1,8,0:0:0:0:
315,124,70158,1,12,0:0:0:0:
321,121,70521,1,8,0:0:0:0:
321,121,70703,1,0,0:0:0:0:
321,121,70794,1,0,0:0:0:0:
321,121,70885,1,0,0:0:0:0:
321,121,71067,1,8,0:0:0:0:
321,121,71249,1,0,0:0:0:0:
321,121,71794,1,8,0:0:0:0:
321,121,71976,1,0,0:0:0:0:
321,121,72158,1,8,0:0:0:0:
321,121,72249,1,8,0:0:0:0:
321,121,72340,1,8,0:0:0:0:
321,121,72521,1,8,0:0:0:0:
321,121,72703,1,0,0:0:0:0:
321,121,73067,1,8,0:0:0:0:
327,114,73430,1,8,0:0:0:0:
327,114,73612,1,0,0:0:0:0:
327,114,73794,1,8,0:0:0:0:
327,114,73976,1,0,0:0:0:0:
327,114,74067,1,0,0:0:0:0:
327,114,74158,1,0,0:0:0:0:
327,114,74521,1,0,0:0:0:0:
327,114,74703,1,8,0:0:0:0:
327,114,74885,1,0,0:0:0:0:
327,114,75067,1,8,0:0:0:0:
327,114,75158,1,8,0:0:0:0:
327,114,75249,1,8,0:0:0:0:
327,114,75430,1,0,0:0:0:0:
327,114,75612,1,8,0:0:0:0:
327,114,75976,1,12,0:0:0:0:
318,114,76340,1,8,0:0:0:0:
318,114,76521,1,0,0:0:0:0:
313,115,76612,1,0,0:0:0:0:
318,114,76703,1,0,0:0:0:0:
311,120,76885,1,8,0:0:0:0:
311,120,77067,1,0,0:0:0:0:
311,120,77612,1,8,0:0:0:0:
306,109,77794,1,0,0:0:0:0:
306,109,77976,1,8,0:0:0:0:
306,109,78067,1,8,0:0:0:0:
306,109,78158,1,8,0:0:0:0:
306,109,78340,1,8,0:0:0:0:
306,109,78521,1,0,0:0:0:0:
306,109,78703,1,0,0:0:0:0:
306,109,78885,1,8,0:0:0:0:
308,103,79430,1,0,0:0:0:0:
308,103,79612,1,8,0:0:0:0:
308,103,79794,1,8,0:0:0:0:
308,103,79976,1,0,0:0:0:0:
308,103,80158,1,8,0:0:0:0:
308,88,80521,1,8,0:0:0:0:
308,88,80885,1,0,0:0:0:0:
308,88,81067,1,8,0:0:0:0:
308,88,81249,1,0,0:0:0:0:
308,88,81430,1,8,0:0:0:0:
308,88,81612,1,0,0:0:0:0:
308,88,81794,1,12,0:0:0:0:
289,106,82158,1,8,0:0:0:0:
295,98,82340,1,0,0:0:0:0:
295,98,82430,1,0,0:0:0:0:
295,98,82521,1,0,0:0:0:0:
293,98,82794,1,8,0:0:0:0:
293,99,83067,1,0,0:0:0:0:
271,91,83249,1,8,0:0:0:0:
394,95,83521,1,8,0:0:0:0:
281,94,83794,1,0,0:0:0:0:
281,94,83976,1,8,0:0:0:0:
281,94,84249,1,8,0:0:0:0:
278,78,84521,1,0,0:0:0:0:
278,78,84703,1,12,0:0:0:0:
343,67,85067,1,8,0:0:0:0:
285,72,85249,1,0,0:0:0:0:
285,72,85430,1,8,0:0:0:0:
285,72,85612,1,0,0:0:0:0:
301,76,85703,1,0,0:0:0:0:
285,72,85794,1,0,0:0:0:0:
285,72,86158,1,8,0:0:0:0:
285,72,86340,1,8,0:0:0:0:
291,68,86521,1,0,0:0:0:0:
291,68,86703,1,8,0:0:0:0:
291,68,86794,1,8,0:0:0:0:
291,68,86885,1,8,0:0:0:0:
298,68,87067,1,8,0:0:0:0:
309,79,87249,1,0,0:0:0:0:
299,80,87612,1,12,0:0:0:0:
303,68,87976,1,8,0:0:0:0:
300,74,88158,1,0,0:0:0:0:
303,68,88249,1,0,0:0:0:0:
310,68,88340,1,0,0:0:0:0:
303,68,88612,1,8,0:0:0:0:
311,57,88794,1,8,0:0:0:0:
303,68,88885,1,8,0:0:0:0:
303,68,89067,1,0,0:0:0:0:
307,61,89249,1,8,0:0:0:0:
314,62,89430,1,8,0:0:0:0:
314,62,89612,1,0,0:0:0:0:
314,62,89794,1,8,0:0:0:0:
314,62,90067,1,8,0:0:0:0:
307,61,90249,1,8,0:0:0:0:
314,62,90340,1,8,0:0:0:0:
314,62,90521,1,0,0:0:0:0:
314,62,90885,1,8,0:0:0:0:
332,54,91067,1,0,0:0:0:0:
327,54,91158,1,0,0:0:0:0:
306,57,91249,1,0,0:0:0:0:
309,54,91612,1,8,0:0:0:0:
309,54,91794,1,0,0:0:0:0:
309,54,92158,1,8,0:0:0:0:
309,54,92340,1,0,0:0:0:0:
309,54,92430,1,0,0:0:0:0:
309,54,92521,1,0,0:0:0:0:
319,47,92703,1,8,0:0:0:0:
309,54,92885,1,8,0:0:0:0:
322,53,93067,1,0,0:0:0:0:
305,66,93249,1,8,0:0:0:0:
309,54,93430,1,4,0:0:0:0:
314,52,94158,1,8,0:0:0:0:
314,60,94521,1,8,0:0:0:0:
314,52,94885,1,8,0:0:0:0:
314,52,95612,1,8,0:0:0:0:
314,52,95976,1,8,0:0:0:0:
314,52,96158,1,8,0:0:0:0:
314,52,96340,1,8,0:0:0:0:
301,54,97067,1,0,0:0:0:0:
314,60,97430,1,0,0:0:0:0:
301,54,97794,1,8,0:0:0:0:
301,54,98158,1,8,0:0:0:0:
301,54,98521,1,0,0:0:0:0:
301,55,98885,1,0,0:0:0:0:
309,54,99067,1,8,0:0:0:0:
309,54,99249,1,8,0:0:0:0:
309,54,99612,1,8,0:0:0:0:
309,54,99794,1,8,0:0:0:0:
309,54,99976,1,0,0:0:0:0:
309,54,100340,1,8,0:0:0:0:
309,54,100521,1,0,0:0:0:0:
309,54,100703,1,8,0:0:0:0:
309,54,101067,1,8,0:0:0:0:
309,54,101249,1,8,0:0:0:0:
309,54,101430,1,0,0:0:0:0:
309,54,101794,1,8,0:0:0:0:
309,54,101976,1,0,0:0:0:0:
309,54,102158,1,8,0:0:0:0:
309,54,102249,1,8,0:0:0:0:
309,54,102340,1,8,0:0:0:0:
309,54,102521,1,0,0:0:0:0:
309,54,102703,1,8,0:0:0:0:
309,54,102885,1,0,0:0:0:0:
309,54,102976,1,0,0:0:0:0:
309,54,103067,1,0,0:0:0:0:
309,54,103249,1,8,0:0:0:0:
309,54,103430,1,0,0:0:0:0:
309,54,103612,1,8,0:0:0:0:
309,54,103976,1,8,0:0:0:0:
309,54,104158,1,0,0:0:0:0:
309,54,104249,1,0,0:0:0:0:
309,54,104340,1,0,0:0:0:0:
309,54,104521,1,8,0:0:0:0:
309,54,104703,1,8,0:0:0:0:
320,51,104885,1,0,0:0:0:0:
300,69,105067,1,8,0:0:0:0:
314,51,105612,1,0,0:0:0:0:
321,59,105703,1,0,0:0:0:0:
322,59,105794,1,0,0:0:0:0:
314,51,105976,1,8,0:0:0:0:
314,51,106158,1,0,0:0:0:0:
314,51,106340,1,8,0:0:0:0:
314,51,106703,1,8,0:0:0:0:
314,51,106885,1,0,0:0:0:0:
314,43,107067,1,8,0:0:0:0:
323,51,107430,1,8,0:0:0:0:
323,51,107521,1,8,0:0:0:0:
323,51,107612,1,8,0:0:0:0:
315,53,107794,1,8,0:0:0:0:
313,62,107976,1,0,0:0:0:0:
318,59,108340,1,8,0:0:0:0:
317,45,108521,1,0,0:0:0:0:
335,55,108612,1,0,0:0:0:0:
317,45,108703,1,0,0:0:0:0:
317,45,109067,1,8,0:0:0:0:
317,45,109249,1,0,0:0:0:0:
317,45,109612,1,8,0:0:0:0:
317,45,109703,1,8,0:0:0:0:
320,52,109794,1,8,0:0:0:0:
317,45,109976,1,0,0:0:0:0:
325,44,110158,1,0,0:0:0:0:
327,52,110340,1,8,0:0:0:0:
298,108,110521,1,0,0:0:0:0:
298,108,110612,1,0,0:0:0:0:
336,56,110703,1,0,0:0:0:0:
326,52,110885,1,8,0:0:0:0:
323,50,111430,1,0,0:0:0:0:
327,48,111521,1,0,0:0:0:0:
328,49,111612,1,0,0:0:0:0:
323,50,111794,1,8,0:0:0:0:
323,50,111976,1,0,0:0:0:0:
329,47,112158,1,8,0:0:0:0:
327,56,112521,1,8,0:0:0:0:
333,51,112703,1,0,0:0:0:0:
323,50,112794,1,0,0:0:0:0:
333,51,112885,1,0,0:0:0:0:
318,58,113249,1,8,0:0:0:0:
341,57,113340,1,8,0:0:0:0:
341,57,113430,1,8,0:0:0:0:
341,57,113612,1,0,0:0:0:0:
341,57,113794,1,8,0:0:0:0:
336,48,114158,1,8,0:0:0:0:
336,48,114249,1,8,0:0:0:0:
342,59,114340,1,8,0:0:0:0:
342,59,114521,1,0,0:0:0:0:
342,59,114703,1,0,0:0:0:0:
342,59,114885,1,8,0:0:0:0:
341,67,114976,1,8,0:0:0:0:
337,66,115067,1,8,0:0:0:0:
337,66,115249,1,0,0:0:0:0:
337,66,115612,1,0,0:0:0:0:
316,71,115703,1,0,0:0:0:0:
320,68,115794,1,0,0:0:0:0:
335,66,115976,1,8,0:0:0:0:
335,66,116158,1,0,0:0:0:0:
335,66,116340,1,8,0:0:0:0:
348,70,116430,1,8,0:0:0:0:
303,78,116521,1,8,0:0:0:0:
308,73,116703,1,8,0:0:0:0:
313,68,117249,1,0,0:0:0:0:
325,48,117340,1,0,0:0:0:0:
326,47,117430,1,0,0:0:0:0:
328,70,117612,1,8,0:0:0:0:
328,70,117794,1,0,0:0:0:0:
328,70,117976,1,8,0:0:0:0:
328,70,118340,1,8,0:0:0:0:
328,70,118521,1,0,0:0:0:0:
326,49,118612,1,0,0:0:0:0:
326,48,118703,1,0,0:0:0:0:
328,70,119067,1,8,0:0:0:0:
328,70,119158,1,8,0:0:0:0:
328,70,119249,1,8,0:0:0:0:
328,70,119430,1,8,0:0:0:0:
328,70,119612,1,0,0:0:0:0:
327,69,119976,1,8,0:0:0:0:
329,49,120158,1,0,0:0:0:0:
329,47,120249,1,0,0:0:0:0:
327,69,120340,1,0,0:0:0:0:
321,62,120703,1,8,0:0:0:0:
321,62,120794,1,8,0:0:0:0:
321,62,120885,1,8,0:0:0:0:
321,62,121067,1,0,0:0:0:0:
321,62,121249,1,8,0:0:0:0:
329,59,121430,1,0,0:0:0:0:
329,59,121612,1,8,0:0:0:0:
329,59,121976,1,8,0:0:0:0:
323,65,122158,1,0,0:0:0:0:
290,117,122249,1,0,0:0:0:0:
311,105,122340,1,0,0:0:0:0:
323,65,122521,1,8,0:0:0:0:
331,52,123067,1,0,0:0:0:0:
332,52,123158,1,0,0:0:0:0:
331,52,123249,1,0,0:0:0:0:
321,70,123430,1,8,0:0:0:0:
321,70,123612,1,0,0:0:0:0:
321,70,123794,1,8,0:0:0:0:
321,70,124158,1,8,0:0:0:0:
321,70,124340,1,0,0:0:0:0:
321,70,124521,1,8,0:0:0:0:
321,70,124703,1,0,0:0:0:0:
321,70,124794,1,0,0:0:0:0:
321,70,124885,1,0,0:0:0:0:
321,70,125067,1,8,0:0:0:0:
336,51,125158,1,8,0:0:0:0:
321,70,125249,1,8,0:0:0:0:
321,70,125612,1,8,0:0:0:0:
321,70,125794,1,0,0:0:0:0:
321,70,125885,1,0,0:0:0:0:
321,70,125976,1,0,0:0:0:0:
321,70,126158,1,8,0:0:0:0:
321,70,126340,1,0,0:0:0:0:
321,70,126521,1,8,0:0:0:0:
313,88,126612,1,8,0:0:0:0:
321,70,126703,1,8,0:0:0:0:
321,70,126885,1,0,0:0:0:0:
312,73,127067,1,0,0:0:0:0:
312,73,127249,1,8,0:0:0:0:
321,74,127340,1,8,0:0:0:0:
324,72,127430,1,8,0:0:0:0:
312,73,127612,1,0,0:0:0:0:
312,73,127794,1,8,0:0:0:0:
312,73,127976,1,0,0:0:0:0:
286,76,128067,1,0,0:0:0:0:
286,76,128158,1,0,0:0:0:0:
312,73,128340,1,12,0:0:0:0:
