osu file format v14

[General]
AudioFilename: audio.mp3
AudioLeadIn: 0
PreviewTime: 104976
Countdown: 0
SampleSet: Soft
StackLeniency: 0.4
Mode: 0
LetterboxInBreaks: 0
EpilepsyWarning: 1
WidescreenStoryboard: 1

[Editor]
DistanceSpacing: 1.3
BeatDivisor: 4
GridSize: 4
TimelineZoom: 1.399999

[Metadata]
Title:Birdsong
TitleUnicode:Birdsong
Artist:James Landino & Kabuki
ArtistUnicode:James Landino & Kabuki
Creator:Cris-
Version:Hard
Source:osu!
Tags:Hantrik Gero Hazu- Fall _tranquility Tatan Minorsonek M2Usonek Featured Artist FA Mappers' Guild MG Electronic Instrumental
BeatmapID:2491611
BeatmapSetID:980826

[Difficulty]
HPDrainRate:5
CircleSize:4.2
OverallDifficulty:6
ApproachRate:7.5
SliderMultiplier:1.5
SliderTickRate:1

[Events]
//Background and Video events
0,0,"Birdsong.jpg",0,0
//Break Periods
//Storyboard Layer 0 (Background)
//Storyboard Layer 1 (Fail)
//Storyboard Layer 2 (Pass)
//Storyboard Layer 3 (Foreground)
//Storyboard Layer 4 (Overlay)
//Storyboard Sound Samples

[TimingPoints]
340,363.636363636364,4,2,2,55,1,0
340,-125,4,2,2,55,0,0
11976,-111.111111111111,4,2,2,60,0,0
13430,-111.111111111111,4,2,2,60,0,0
13794,-111.111111111111,4,2,2,60,0,0
14158,-111.111111111111,4,2,2,60,0,0
14521,-111.111111111111,4,2,2,60,0,0
14885,-111.111111111111,4,2,2,60,0,0
19249,-111.111111111111,4,2,2,60,0,0
19612,-111.111111111111,4,2,2,60,0,0
19976,-111.111111111111,4,2,2,60,0,0
20340,-111.111111111111,4,2,2,60,0,0
20703,-111.111111111111,4,2,2,60,0,0
23612,-133.333333333333,4,2,1,40,0,0
35249,-133.333333333333,4,2,1,50,0,0
35703,-133.333333333333,4,2,1,5,0,0
35794,-133.333333333333,4,2,1,50,0,0
36249,-133.333333333333,4,2,1,5,0,0
36340,-133.333333333333,4,2,1,50,0,0
38794,-133.333333333333,4,2,1,5,0,0
38885,-133.333333333333,4,2,1,50,0,0
39158,-133.333333333333,4,2,1,5,0,0
39249,-133.333333333333,4,2,1,50,0,0
39521,-133.333333333333,4,2,1,5,0,0
39612,-133.333333333333,4,2,1,50,0,0
39885,-133.333333333333,4,2,1,5,0,0
39976,-133.333333333333,4,2,1,50,0,0
40249,-133.333333333333,4,2,1,5,0,0
40340,-133.333333333333,4,2,1,50,0,0
40612,-133.333333333333,4,2,1,5,0,0
40703,-133.333333333333,4,2,1,50,0,0
40976,-133.333333333333,4,2,1,5,0,0
41067,-133.333333333333,4,2,1,55,0,0
41521,-133.333333333333,4,2,1,5,0,0
41612,-133.333333333333,4,2,1,55,0,0
42067,-133.333333333333,4,2,1,5,0,0
42158,-133.333333333333,4,2,1,55,0,0
42521,-133.333333333333,4,2,2,57,0,0
43976,-111.111111111111,4,2,2,60,0,0
45430,-111.111111111111,4,2,2,65,0,0
46340,-111.111111111111,4,2,1,65,0,0
46885,-100,4,2,2,70,0,0
47340,-100,4,2,2,5,0,0
47430,-100,4,2,2,60,0,0
47976,-100,4,2,2,70,0,0
49794,-100,4,2,2,65,0,0
50067,-100,4,2,2,5,0,0
50158,-100,4,2,2,65,0,0
50430,-100,4,2,2,5,0,0
50521,-100,4,2,2,65,0,0
50703,-100,4,2,2,65,0,0
52340,-100,4,2,2,65,0,0
52703,-100,4,2,2,65,0,0
53158,-100,4,2,2,5,0,0
53249,-100,4,2,2,65,0,0
53794,-100,4,2,2,65,0,0
54340,-100,4,2,2,65,0,0
54612,-100,4,2,2,5,0,0
54703,-100,4,2,2,65,0,0
54976,-100,4,2,2,5,0,0
55067,-100,4,2,2,65,0,0
55612,-100,4,2,2,65,0,0
57067,-111.111111111111,4,2,2,65,0,0
57430,-111.111111111111,4,2,2,65,0,0
57794,-111.111111111111,4,2,2,65,0,0
58158,-111.111111111111,4,2,2,65,0,0
58521,-111.111111111111,4,2,1,50,0,0
59976,-111.111111111111,4,2,1,50,0,0
61430,-111.111111111111,4,2,1,55,0,0
62885,-111.111111111111,4,2,1,55,0,0
64340,-100,4,2,1,65,0,0
65794,-100,4,2,1,65,0,0
67249,-100,4,2,1,75,0,0
68703,-90.9090909090909,4,2,1,75,0,0
68794,-90.9090909090909,4,2,1,55,0,0
70158,-83.3333333333333,4,2,1,75,0,1
70521,-83.3333333333333,4,2,1,75,0,1
71249,-83.3333333333333,4,2,1,75,0,1
71612,-83.3333333333333,4,2,1,75,0,1
71794,-83.3333333333333,4,2,1,75,0,1
72703,-83.3333333333333,4,2,1,75,0,1
73067,-83.3333333333333,4,2,1,75,0,1
73430,-83.3333333333333,4,2,1,75,0,1
75249,-83.3333333333333,4,2,1,75,0,1
75612,-83.3333333333333,4,2,1,75,0,0
75976,-83.3333333333333,4,2,1,75,0,1
76340,-83.3333333333333,4,2,1,75,0,1
76703,-83.3333333333333,4,2,1,75,0,1
77067,-83.3333333333333,4,2,1,75,0,1
77430,-83.3333333333333,4,2,1,75,0,1
77612,-83.3333333333333,4,2,1,75,0,1
77794,-83.3333333333333,4,2,1,75,0,1
78521,-83.3333333333333,4,2,1,75,0,1
78703,-83.3333333333333,4,2,1,75,0,1
78885,-83.3333333333333,4,2,1,75,0,1
79249,-83.3333333333333,4,2,1,75,0,1
79794,-83.3333333333333,4,2,1,75,0,1
80158,-83.3333333333333,4,2,1,75,0,1
80521,-83.3333333333333,4,2,1,75,0,1
80885,-83.3333333333333,4,2,1,75,0,1
81249,-83.3333333333333,4,2,1,75,0,1
81612,-83.3333333333333,4,2,1,65,0,0
81794,-83.3333333333333,4,2,1,75,0,1
82158,-83.3333333333333,4,2,1,75,0,1
82703,-83.3333333333333,4,2,1,75,0,1
83249,-83.3333333333333,4,2,1,75,0,1
83612,-83.3333333333333,4,2,1,75,0,1
83703,-83.3333333333333,4,2,1,75,0,1
83976,-83.3333333333333,4,2,1,75,0,1
84521,-83.3333333333333,4,2,1,75,0,1
84703,-83.3333333333333,4,2,1,75,0,1
85067,-83.3333333333333,4,2,1,75,0,1
86158,-83.3333333333333,4,2,1,75,0,1
86340,-83.3333333333333,4,2,1,75,0,1
86521,-83.3333333333333,4,2,1,75,0,1
86885,-83.3333333333333,4,2,1,75,0,1
87249,-83.3333333333333,4,2,1,75,0,0
87612,-83.3333333333333,4,2,1,75,0,1
87976,-83.3333333333333,4,2,1,75,0,1
89067,-83.3333333333333,4,2,1,75,0,1
89430,-83.3333333333333,4,2,1,75,0,1
89794,-83.3333333333333,4,2,1,75,0,1
90158,-83.3333333333333,4,2,1,75,0,1
90521,-83.3333333333333,4,2,1,70,0,0
91976,-83.3333333333333,4,2,1,60,0,0
93430,-111.111111111111,4,2,1,50,0,0
96340,-111.111111111111,4,2,1,55,0,0
99249,-100,4,2,1,65,0,0
100703,-100,4,2,1,65,0,0
102158,-100,4,2,1,75,0,0
103612,-90.9090909090909,4,2,1,55,0,0
104521,-100,4,2,1,55,0,0
104703,-100,4,2,1,55,0,0
104885,-100,4,2,1,55,0,0
105067,-83.3333333333333,4,2,1,85,0,1
105340,-83.3333333333333,4,2,1,5,0,1
105430,-83.3333333333333,4,2,1,85,0,1
107067,-83.3333333333333,4,2,1,85,0,1
107976,-83.3333333333333,4,2,1,85,0,1
110885,-83.3333333333333,4,2,1,85,0,1
111249,-83.3333333333333,4,2,1,85,0,1
112885,-83.3333333333333,4,2,1,85,0,1
113794,-83.3333333333333,4,2,1,85,0,1
116340,-83.3333333333333,4,2,1,70,0,0
116703,-83.3333333333333,4,2,2,85,0,1
119612,-83.3333333333333,4,2,2,85,0,1
122521,-83.3333333333333,4,2,2,85,0,1
125430,-83.3333333333333,4,2,2,85,0,1
126885,-83.3333333333333,4,2,2,85,0,1
128340,-83.3333333333333,4,2,2,80,0,0
128430,-83.3333333333333,4,2,2,5,0,0

[Colours]
Combo1 : 48,228,170
Combo2 : 255,85,89
Combo3 : 79,139,240
Combo4 : 255,149,43
Combo5 : 78,220,81
Combo6 : 53,206,223
Combo7 : 234,106,164

[HitObjects]
128,256,340,6,0,P|122:286|128:314,1,60,10|0,0:3|0:0,0:0:0:0:
184,372,703,1,2,0:0:0:0:
184,372,885,1,10,0:3:0:0:
240,316,1067,2,0,P|246:286|240:258,1,60,0|2,0:0|0:0,0:0:0:0:
184,200,1430,1,10,0:3:0:0:
240,144,1612,1,0,0:0:0:0:
296,200,1794,5,10,0:3:0:0:
296,200,3249,6,0,P|326:206|354:200,1,60,10|0,0:3|0:0,0:0:0:0:
412,144,3612,1,2,0:0:0:0:
412,144,3794,1,10,0:3:0:0:
356,88,3976,2,0,P|326:82|298:88,1,60,0|2,0:0|0:0,0:0:0:0:
240,144,4339,1,10,0:3:0:0:
184,88,4521,1,0,0:0:0:0:
240,32,4703,5,2,0:0:0:0:
240,32,4885,2,0,L|240:3,4,30,10|8|8|8|10,0:3|0:3|0:3|0:3|0:3,0:0:0:0:
298,88,5430,2,0,L|327:88,3,30,10|8|8|8,0:3|0:3|0:3|0:3,0:0:0:0:
368,88,5794,2,0,L|368:59,2,30,10|0|8,0:3|0:0|0:3,0:0:0:0:
424,146,6158,6,0,P|430:175|424:204,1,60,10|0,0:3|0:0,0:0:0:0:
368,260,6521,1,2,0:0:0:0:
368,260,6703,1,10,0:3:0:0:
312,202,6885,2,0,P|305:172|311:143,1,60,0|2,0:0|0:0,0:0:0:0:
368,88,7248,1,10,0:3:0:0:
312,32,7430,1,0,0:0:0:0:
256,88,7612,5,10,0:3:0:0:
256,88,9067,6,0,P|226:82|198:88,1,60,10|0,0:3|0:0,0:0:0:0:
144,144,9430,1,2,0:0:0:0:
144,144,9612,1,10,0:3:0:0:
196,200,9794,2,0,P|226:206|254:200,1,60,0|2,0:0|0:0,0:0:0:0:
312,144,10157,1,10,0:3:0:0:
368,200,10339,1,0,0:0:0:0:
312,256,10521,5,2,0:0:0:0:
312,256,10703,2,0,L|312:285,4,30,10|8|8|8|10,0:3|0:3|0:3|0:3|0:3,0:0:0:0:
254,200,11249,2,0,L|225:200,3,30,10|8|8|8,0:3|0:3|0:3|0:3,0:0:0:0:
184,200,11612,2,0,L|184:229,2,30,10|8|8,0:3|0:3|0:3,0:0:0:0:
124,144,11976,6,0,B|91:136|91:136|59:144,1,67.4999979400635,6|0,0:0|0:0,0:0:0:0:
0,200,12340,1,2,0:0:0:0:
0,200,12521,1,2,3:2:0:0:
59,256,12703,2,0,B|92:264|92:264|124:256,1,67.4999979400635,8|2,0:1|0:0,0:0:0:0:
184,200,13067,1,2,0:0:0:0:
244,256,13248,1,0,0:0:0:0:
184,312,13430,6,0,L|202:377,1,67.4999979400635,2|0,0:0|0:0,0:0:0:0:
284,377,13794,2,0,L|302:312,1,67.4999979400635,2|2,0:0|3:2,0:0:0:0:
244,256,14158,2,0,L|262:191,1,67.4999979400635,8|2,0:1|3:2,0:0:0:0:
344,191,14522,2,0,L|362:256,1,67.4999979400635,2|0,0:0|0:0,0:0:0:0:
444,256,14885,6,0,L|462:191,1,67.4999979400635,2|0,3:2|0:0,0:0:0:0:
404,135,15249,1,2,0:0:0:0:
404,135,15430,1,2,3:2:0:0:
344,191,15612,2,0,L|362:256,1,67.4999979400635,8|2,0:1|0:0,0:0:0:0:
302,312,15976,1,2,0:0:0:0:
244,256,16158,1,0,0:0:0:0:
184,312,16340,6,0,B|151:320|151:320|119:312,1,67.4999979400635,2|2,0:0|0:0,0:0:0:0:
64,256,16703,1,0,0:0:0:0:
64,256,16885,1,2,3:2:0:0:
119,196,17067,2,0,B|152:188|152:188|184:196,1,67.4999979400635,10|0,0:1|3:2,0:0:0:0:
244,256,17430,1,2,0:0:0:0:
300,196,17612,1,0,0:0:0:0:
244,136,17794,6,0,B|236:103|236:103|244:71,1,67.4999979400635,2|0,3:2|0:0,0:0:0:0:
300,16,18157,1,2,0:0:0:0:
300,16,18339,1,2,3:2:0:0:
360,71,18521,2,0,B|368:104|368:104|360:136,1,67.4999979400635,8|2,0:1|0:0,0:0:0:0:
300,196,18884,1,2,0:0:0:0:
360,252,19066,1,0,0:0:0:0:
416,192,19249,6,0,L|481:210,1,67.4999979400635,2|0,0:0|0:0,0:0:0:0:
481,292,19613,2,0,L|416:310,1,67.4999979400635,2|2,0:0|3:2,0:0:0:0:
360,252,19977,2,0,L|295:270,1,67.4999979400635,8|2,0:1|3:2,0:0:0:0:
295,352,20341,2,0,L|360:370,1,67.4999979400635,2|0,0:0|0:0,0:0:0:0:
416,310,20703,6,0,L|481:292,1,67.4999979400635,2|0,3:2|0:0,0:0:0:0:
508,216,21067,1,2,0:0:0:0:
508,216,21249,1,2,3:2:0:0:
448,160,21430,2,0,L|383:178,1,67.4999979400635,8|2,0:1|0:0,0:0:0:0:
360,252,21794,1,2,0:0:0:0:
296,204,21976,1,0,0:0:0:0:
273,278,22158,6,0,L|208:296,1,67.4999979400635,2|2,0:0|0:0,0:0:0:0:
148,240,22522,1,0,0:0:0:0:
148,240,22704,1,2,3:2:0:0:
175,164,22885,2,0,L|240:146,1,67.4999979400635,10|0,0:1|3:2,0:0:0:0:
296,204,23249,1,2,0:0:0:0:
323,128,23430,1,0,0:0:0:0:
383,178,23612,6,0,B|393:216|393:216|383:246|383:246|393:286,1,112.500004291535,6|0,0:0|0:0,0:0:0:0:
468,286,24158,2,0,B|478:248|478:248|468:218|468:218|478:178,1,112.500004291535,2|0,0:0|0:0,0:0:0:0:
432,120,24703,6,0,B|376:120|300:68|320:-8|404:-8|424:68|328:120|296:120|296:120|264:120|168:68|188:-8|272:-8|292:68|216:120|160:120,1,562.500021457673,2|2,0:0|0:0,0:0:0:0:
84,248,26885,6,0,P|64:300|84:350,2,112.500004291535,2|2|2,0:0|0:0|0:0,0:0:0:0:
232,248,27976,2,0,P|252:300|232:350,2,112.500004291535,2|2|2,0:0|0:0|0:0,0:0:0:0:
159,120,29067,1,2,0:0:0:0:
84,248,29430,6,0,P|64:300|84:350,1,112.500004291535,2|0,0:0|0:0,0:0:0:0:
138,296,29976,2,0,P|159:245|138:194,1,112.500004291535,2|0,0:0|0:0,0:0:0:0:
84,140,30521,6,0,B|190:78|190:202|304:140|304:140|264:68|332:-12|412:-12|480:68|439:141,1,562.500021457673,2|2,0:0|0:0,0:0:0:0:
372,276,32703,6,0,B|350:332|394:332|372:384,2,112.500004291535,2|2|2,0:0|0:0|0:0,0:0:0:0:
296,142,33794,2,0,B|339:142|367:104|367:104|395:142|439:142,2,168.750006437302,2|2|2,0:0|0:0|0:0,0:0:0:0:
212,276,35249,6,0,P|161:296|110:275,1,112.500004291535,2|0,0:0|0:0,0:0:0:0:
161,223,35795,2,0,P|211:202|262:221,1,112.500004291535,2|0,0:0|0:0,0:0:0:0:
316,276,36340,6,0,B|360:220|316:168|316:168|360:116|316:60|316:60|244:128|181:122|125:94|125:18|180:-26|240:0,1,562.500021457673,2|2,0:0|0:0,0:0:0:0:
380,0,38521,6,0,B|436:22|436:-22|488:0,2,112.500004291535,2|2|2,0:0|0:0|0:0,0:0:0:0:
240,0,39612,2,0,B|184:22|184:-22|132:0,2,112.500004291535,2|2|2,0:0|0:0|0:0,0:0:0:0:
308,128,40703,1,2,0:0:0:0:
380,0,41067,6,0,P|431:-20|482:1,1,112.500004291535,2|0,0:0|0:0,0:0:0:0:
431,53,41613,2,0,P|380:73|329:53,1,112.500004291535,2|0,0:0|0:0,0:0:0:0:
272,0,42158,6,0,B|208:104|336:104|272:209|272:209|168:145|168:273|63:209,1,450.000017166138,2|2,0:0|0:0,0:0:0:0:
64,40,43976,6,0,L|129:58,3,67.4999979400635,10|8|10|8,0:0|0:0|0:0|0:0,0:0:0:0:
187,0,44703,2,0,L|252:18,1,67.4999979400635,10|8,0:0|0:0,0:0:0:0:
252,100,45067,2,0,L|187:118,1,67.4999979400635,10|8,0:0|0:0,0:0:0:0:
129,58,45430,5,10,0:0:0:0:
129,58,45612,1,8,0:0:0:0:
68,118,45794,1,10,0:0:0:0:
68,118,45976,1,8,0:0:0:0:
129,178,46158,1,8,0:0:0:0:
129,178,46340,5,10,0:0:0:0:
187,118,46521,1,10,0:0:0:0:
248,178,46702,1,10,0:0:0:0:
187,238,46885,6,0,L|207:386,1,150,14|8,3:2|0:0,0:0:0:0:
296,384,47430,2,0,L|316:236,1,150,6|2,3:2|0:0,0:0:0:0:
248,178,47976,6,0,B|316:124|380:178|380:178|323:108|366:20|402:-16|496:-16|546:19|557:63|558:99|543:128|511:146|476:137|456:116,1,600,14|8,3:2|0:0,0:0:0:0:
304,24,49794,6,0,B|232:-8|232:56|160:24,1,150,14|10,3:2|0:0,0:0:0:0:
160,208,50521,1,10,0:0:0:0:
160,208,50703,2,0,P|196:216|232:207,1,75,4|10,3:2|0:0,0:0:0:0:
312,172,51067,6,0,B|344:244|280:244|312:316,1,150,6|2,3:2|0:0,0:0:0:0:
492,244,51794,1,2,0:0:0:0:
312,172,52158,1,2,0:0:0:0:
312,172,52340,1,10,0:0:0:0:
492,100,52703,6,0,B|524:172|460:172|492:244,1,150,14|8,3:2|0:0,0:0:0:0:
436,316,53249,2,0,B|395:316|371:344|371:344|347:316|303:316,1,150,6|2,3:2|0:0,0:0:0:0:
248,244,53794,6,0,B|280:172|216:172|248:100,1,150,14|8,3:2|0:0,0:0:0:0:
304,28,54340,2,0,P|340:19|376:28,1,75,2|8,0:0|0:0,0:0:0:0:
428,104,54703,2,0,P|436:140|427:176,1,75,2|8,0:0|0:0,0:0:0:0:
368,244,55067,1,2,0:0:0:0:
308,176,55249,1,8,0:0:0:0:
248,244,55430,1,2,0:0:0:0:
188,176,55612,5,12,3:2:0:0:
188,176,55794,2,0,P|179:139|188:103,1,75,2|8,0:0|0:0,0:0:0:0:
248,36,56158,1,2,0:0:0:0:
308,104,56340,1,12,3:2:0:0:
368,36,56521,1,2,0:0:0:0:
428,104,56703,2,0,P|436:140|428:176,1,75,10|0,0:0|0:0,0:0:0:0:
368,244,57067,5,14,3:2:0:0:
308,104,57430,1,10,0:0:0:0:
248,244,57794,1,10,0:0:0:0:
308,104,58158,1,8,0:0:0:0:
368,244,58521,6,0,P|394:304|368:364,1,134.999995880127,6|10,3:2|0:0,0:0:0:0:
248,244,59249,2,0,P|222:304|248:364,1,134.999995880127,8|10,0:0|0:0,0:0:0:0:
368,244,59976,2,0,P|394:184|368:124,1,134.999995880127,10|10,0:0|0:0,0:0:0:0:
248,244,60704,2,0,P|222:184|248:124,1,134.999995880127,8|10,0:0|0:0,0:0:0:0:
368,244,61430,6,0,P|428:270|488:244,1,134.999995880127,10|10,0:0|0:0,0:0:0:0:
428,184,61976,1,2,0:0:0:0:
488,124,62158,2,0,P|427:97|367:123,1,134.999995880127,8|10,0:0|0:0,0:0:0:0:
248,244,62885,2,0,P|188:270|128:244,1,134.999995880127,10|8,0:0|0:0,0:0:0:0:
188,184,63431,1,2,0:0:0:0:
128,124,63613,2,0,P|188:97|248:123,1,134.999995880127,10|10,0:0|0:0,0:0:0:0:
368,244,64340,6,0,P|376:280|367:316,1,75,10|10,0:0|0:0,0:0:0:0:
283,280,64703,2,0,P|247:288|211:279,1,75,10|10,0:0|0:0,0:0:0:0:
247,195,65067,2,0,P|239:159|248:123,1,75,10|10,0:0|0:0,0:0:0:0:
332,160,65430,2,0,P|368:152|404:161,1,75,10|10,0:0|0:0,0:0:0:0:
368,244,65794,5,10,0:0:0:0:
283,280,65976,1,10,0:0:0:0:
247,195,66158,1,10,0:0:0:0:
332,160,66340,1,10,0:0:0:0:
368,244,66521,1,10,0:0:0:0:
283,280,66703,1,10,0:0:0:0:
247,195,66885,1,10,0:0:0:0:
332,160,67067,1,10,0:0:0:0:
368,244,67249,6,0,P|365:262|368:280,3,37.5,10|8|10|8,0:0|0:0|0:0|0:0,0:0:0:0:
400,316,67612,2,0,P|418:319|436:316,3,37.5,10|8|10|8,0:0|0:0|0:0|0:0,0:0:0:0:
468,280,67976,2,0,P|471:262|468:244,3,37.5,10|8|10|8,0:0|0:0|0:0|0:0,0:0:0:0:
436,208,68340,2,0,P|418:205|400:208,3,37.5,10|8|10|8,0:0|0:0|0:0|0:0,0:0:0:0:
368,244,68703,6,0,B|308:296|148:256|148:124|252:76|356:124|356:256|196:296|137:244,1,495.000015106202,2|2,0:0|0:0,0:0:0:0:
188,68,70158,6,0,P|252:48|314:68,1,134.999995880127,6|0,3:2|0:0,0:0:0:0:
352,92,70521,2,0,P|372:96|396:92,3,44.999998626709,10|2|2|2,0:0|0:0|0:0|0:0,0:0:0:0:
436,68,70885,2,0,B|452:112|420:112|436:155,1,89.9999972534181,2|2,3:2|0:0,0:0:0:0:
494,228,71249,2,0,B|458:228|436:256|436:256|414:228|377:228,1,134.999995880127,10|0,0:0|0:0,0:0:0:0:
332,228,71612,5,0,3:0:0:0:
272,296,71794,1,2,0:0:0:0:
332,364,71976,2,0,P|352:368|376:364,3,44.999998626709,10|2|2|2,0:0|0:0|0:0|0:0,0:0:0:0:
416,340,72340,2,0,P|436:336|460:340,3,44.999998626709,0|2|2|2,3:2|0:0|0:0|0:0,0:0:0:0:
500,364,72703,2,0,P|512:320|500:279,1,89.9999972534181,10|2,0:0|0:0,0:0:0:0:
460,196,73067,6,0,B|392:168|392:224|331:196,1,134.999995880127,2|0,3:2|0:0,0:0:0:0:
292,172,73430,2,0,P|272:168|248:172,3,44.999998626709,10|2|2|2,0:0|0:0|0:0|0:0,0:0:0:0:
208,196,73794,2,0,P|188:200|164:196,3,44.999998626709,0|2|2|2,3:0|0:0|0:0|0:0,0:0:0:0:
124,172,74158,2,0,P|104:168|80:172,3,44.999998626709,8|2|2|2,0:0|0:0|0:0|0:0,0:0:0:0:
44,196,74521,6,0,L|52:240,3,44.999998626709,0|2|2|2,3:0|0:0|0:0|0:0,0:0:0:0:
60,284,74885,2,0,L|52:328,3,44.999998626709,8|2|2|2,0:0|0:0|0:0|0:0,0:0:0:0:
44,372,75249,2,0,B|86:388|86:388|128:372,1,89.9999972534181,2|2,3:2|0:0,0:0:0:0:
212,336,75612,2,0,B|254:320|254:320|296:336,1,89.9999972534181,10|0,0:0|0:0,0:0:0:0:
380,372,75976,6,0,B|408:304|352:304|380:243,1,134.999995880127,2|0,3:2|0:0,0:0:0:0:
404,204,76340,2,0,P|408:184|404:160,3,44.999998626709,10|2|2|2,0:0|0:0|0:0|0:0,0:0:0:0:
380,120,76704,2,0,B|336:104|336:136|293:120,1,89.9999972534181,2|2,3:2|0:0,0:0:0:0:
212,160,77067,2,0,B|212:196|184:218|184:218|212:240|212:277,1,134.999995880127,10|0,0:0|0:0,0:0:0:0:
212,322,77430,5,0,3:0:0:0:
144,382,77612,1,2,0:0:0:0:
76,322,77794,2,0,P|72:302|76:278,3,44.999998626709,10|2|2|2,0:0|0:0|0:0|0:0,0:0:0:0:
100,238,78158,2,0,P|104:218|100:194,3,44.999998626709,0|2|2|2,3:0|0:0|0:0|0:0,0:0:0:0:
76,154,78521,2,0,P|120:142|161:154,1,89.9999972534181,10|2,0:0|0:0,0:0:0:0:
228,216,78885,6,0,P|272:228|313:216,1,89.9999972534181,2|0,3:2|0:0,0:0:0:0:
380,152,79249,1,10,0:0:0:0:
380,152,79340,1,0,0:0:0:0:
380,152,79430,1,2,0:0:0:0:
444,216,79612,1,2,3:2:0:0:
380,280,79794,2,0,L|368:369,1,89.9999972534181,2|8,0:0|0:0,0:0:0:0:
276,369,80158,6,0,L|264:280,1,89.9999972534181,2|0,0:0|3:2,0:0:0:0:
172,280,80521,2,0,L|160:369,1,89.9999972534181,2|8,0:0|0:0,0:0:0:0:
68,369,80885,2,0,L|56:280,1,89.9999972534181,2|0,0:0|3:2,0:0:0:0:
113,208,81249,2,0,P|126:165|113:122,1,89.9999972534181,2|8,0:0|0:0,0:0:0:0:
80,44,81612,1,2,0:0:0:0:
80,44,81794,6,0,B|148:16|148:72|209:44,1,134.999995880127,6|0,3:2|0:0,0:0:0:0:
248,20,82158,2,0,P|268:16|292:20,3,44.999998626709,10|2|2|2,0:0|0:0|0:0|0:0,0:0:0:0:
332,44,82521,1,2,3:2:0:0:
292,124,82703,1,2,0:0:0:0:
292,124,82794,1,2,0:0:0:0:
292,124,82885,2,0,P|272:128|248:124,2,44.999998626709,8|0|2,0:0|0:0|0:0,0:0:0:0:
332,204,83249,6,0,B|374:220|374:220|416:204,1,89.9999972534181,2|2,3:2|0:0,0:0:0:0:
460,188,83521,1,2,0:0:0:0:
460,188,83612,2,0,L|468:232,3,44.999998626709,8|2|2|0,0:0|0:0|0:0|0:0,0:0:0:0:
476,276,83976,2,0,L|468:320,3,44.999998626709,2|0|2|2,3:2|0:0|0:0|0:0,0:0:0:0:
460,364,84340,1,8,0:0:0:0:
388,308,84521,1,2,0:0:0:0:
316,364,84703,6,0,B|248:336|248:392|187:364,1,134.999995880127,2|0,3:2|0:0,0:0:0:0:
144,348,85067,2,0,L|152:304,3,44.999998626709,10|2|2|2,0:0|0:0|0:0|0:0,0:0:0:0:
160,260,85431,2,0,L|152:216,3,44.999998626709,0|2|2|2,3:0|0:0|0:0|0:0,0:0:0:0:
144,172,85794,2,0,L|152:128,3,44.999998626709,8|2|2|2,0:0|0:0|0:0|0:0,0:0:0:0:
192,104,86158,6,0,P|212:100|236:104,3,44.999998626709,2|2|2|2,3:2|0:0|0:0|0:0,0:0:0:0:
276,128,86522,2,0,P|296:132|320:128,3,44.999998626709,10|2|2|2,0:0|0:0|0:0|0:0,0:0:0:0:
360,104,86886,2,0,P|380:100|404:104,3,44.999998626709,0|2|2|2,3:0|0:0|0:0|0:0,0:0:0:0:
444,128,87249,2,0,P|468:192|444:250,1,134.999995880127,10|0,0:0|0:0,0:0:0:0:
404,276,87612,6,0,P|360:288|319:276,1,89.9999972534181,2|0,3:2|0:0,0:0:0:0:
252,212,87976,1,10,0:0:0:0:
188,276,88158,1,2,0:0:0:0:
188,276,88249,1,2,0:0:0:0:
188,276,88340,1,2,3:2:0:0:
124,212,88521,1,0,0:0:0:0:
124,212,88612,1,2,0:0:0:0:
124,212,88703,2,0,P|104:208|80:212,2,44.999998626709,10|0|2,0:0|0:0|0:0,0:0:0:0:
188,148,89067,5,0,3:2:0:0:
188,148,89158,1,2,0:0:0:0:
188,148,89249,1,2,0:0:0:0:
252,212,89430,2,0,P|296:224|337:212,1,89.9999972534181,10|0,0:0|0:0,0:0:0:0:
380,196,89702,1,0,0:0:0:0:
380,196,89794,2,0,L|388:240,3,44.999998626709,2|0|2|2,3:2|0:0|0:0|0:0,0:0:0:0:
396,288,90158,2,0,L|388:332,3,44.999998626709,8|0|2|0,0:0|0:0|0:0|0:0,0:0:0:0:
378,380,90521,6,0,L|289:368,1,89.9999972534181,2|0,3:2|0:0,0:0:0:0:
200,368,90885,2,0,L|156:376,3,44.999998626709,10|0|0|0,0:0|0:0|0:0|0:0,0:0:0:0:
112,383,91249,2,0,L|100:294,1,89.9999972534181,2|0,3:2|0:0,0:0:0:0:
84,204,91612,1,10,0:0:0:0:
172,188,91794,2,0,L|261:176,1,89.9999972534181,2|2,0:0|0:0,0:0:0:0:
277,264,92158,6,0,L|188:276,1,89.9999972534181,2|10,0:0|0:0,0:0:0:0:
144,287,92430,1,2,0:0:0:0:
144,287,92521,2,0,L|156:376,1,89.9999972534181,2|2,0:0|0:0,0:0:0:0:
244,360,92885,1,2,0:0:0:0:
244,360,92976,1,2,0:0:0:0:
244,360,93067,2,0,L|288:352,3,44.999998626709,8|0|2|2,0:0|0:0|0:0|0:0,0:0:0:0:
328,344,93430,6,0,P|388:370|448:344,1,134.999995880127,14|10,0:0|0:0,0:0:0:0:
388,284,93976,1,2,0:0:0:0:
328,224,94158,2,0,P|388:198|448:224,1,134.999995880127,10|10,0:0|0:0,0:0:0:0:
328,344,94885,2,0,P|268:370|208:344,1,134.999995880127,10|10,0:0|0:0,0:0:0:0:
268,284,95430,1,2,0:0:0:0:
328,224,95612,2,0,P|268:198|208:224,1,134.999995880127,10|10,0:0|0:0,0:0:0:0:
144,284,96158,1,8,0:0:0:0:
144,284,96249,1,8,0:0:0:0:
144,284,96340,6,0,B|80:312|80:256|15:284,1,134.999995880127,10|10,0:0|0:0,0:0:0:0:
144,164,97067,2,0,B|79:136|79:192|15:164,1,134.999995880127,10|10,0:0|0:0,0:0:0:0:
144,284,97794,2,0,B|208:312|208:256|273:284,1,134.999995880127,10|10,0:0|0:0,0:0:0:0:
144,164,98521,2,0,B|209:136|209:192|273:164,1,134.999995880127,10|10,0:0|0:0,0:0:0:0:
348,224,99067,1,8,0:0:0:0:
348,224,99158,1,8,0:0:0:0:
348,224,99249,6,0,P|384:232|420:223,1,75,10|8,0:0|0:0,0:0:0:0:
384,139,99612,2,0,P|392:103|383:67,1,75,10|8,0:0|0:0,0:0:0:0:
299,103,99976,2,0,P|263:95|227:104,1,75,10|8,0:0|0:0,0:0:0:0:
264,188,100339,2,0,P|256:224|265:260,1,75,10|8,0:0|0:0,0:0:0:0:
348,224,100703,5,10,0:0:0:0:
384,139,100885,1,8,0:0:0:0:
299,103,101067,1,10,0:0:0:0:
264,188,101249,1,8,0:0:0:0:
348,224,101430,1,10,0:0:0:0:
384,139,101612,1,8,0:0:0:0:
299,103,101794,1,10,0:0:0:0:
264,188,101976,1,8,0:0:0:0:
348,224,102158,6,0,P|366:221|384:224,3,37.5,10|8|10|8,0:0|0:0|0:0|0:0,0:0:0:0:
420,256,102521,2,0,P|423:274|420:292,3,37.5,10|8|10|8,0:0|0:0|0:0|0:0,0:0:0:0:
384,324,102885,2,0,P|366:327|348:324,3,37.5,10|8|10|8,0:0|0:0|0:0|0:0,0:0:0:0:
312,292,103249,2,0,P|309:274|312:256,3,37.5,10|8|10|8,0:0|0:0|0:0|0:0,0:0:0:0:
348,224,103612,6,0,B|328:175|372:80|440:80|467:144|440:208|372:208|328:113|348:64,1,330.000010070801,10|10,0:0|0:0,0:0:0:0:
280,4,104521,1,10,0:0:0:0:
212,64,104703,1,10,0:0:0:0:
144,4,104885,1,10,0:0:0:0:
144,4,104976,1,2,0:0:0:0:
144,4,105067,6,0,P|120:68|144:126,1,134.999995880127,14|0,3:2|0:0,0:0:0:0:
172,164,105430,1,8,0:0:0:0:
112,232,105612,1,2,0:0:0:0:
171,299,105794,2,0,P|214:312|255:299,1,89.9999972534181,2|2,3:2|0:0,0:0:0:0:
316,232,106158,1,8,0:0:0:0:
256,164,106340,6,0,L|268:75,1,89.9999972534181,2|0,0:0|3:2,0:0:0:0:
360,75,106704,2,0,L|372:164,1,89.9999972534181,2|8,0:0|0:0,0:0:0:0:
316,232,107067,2,0,L|328:321,1,89.9999972534181,2|0,0:0|3:2,0:0:0:0:
420,321,107431,2,0,L|432:232,1,89.9999972534181,2|8,0:0|0:0,0:0:0:0:
372,164,107794,1,2,0:0:0:0:
316,232,107976,6,0,P|273:245|232:232,1,89.9999972534181,2|0,3:2|0:0,0:0:0:0:
168,164,108340,2,0,L|156:75,1,89.9999972534181,10|0,0:0|0:0,0:0:0:0:
64,75,108704,2,0,L|52:164,1,89.9999972534181,2|0,3:2|0:0,0:0:0:0:
116,240,109067,1,10,0:0:0:0:
116,240,109158,1,0,0:0:0:0:
116,240,109248,1,2,0:0:0:0:
168,164,109430,5,0,3:2:0:0:
220,240,109612,2,0,P|263:253|304:240,1,89.9999972534181,2|8,0:0|0:0,0:0:0:0:
356,164,109976,2,0,P|369:121|356:80,1,89.9999972534181,2|0,0:0|3:2,0:0:0:0:
304,4,110339,1,2,0:0:0:0:
252,80,110521,1,8,0:0:0:0:
252,80,110612,1,0,0:0:0:0:
252,80,110702,1,0,0:0:0:0:
200,4,110885,6,0,B|132:32|132:-24|71:4,1,134.999995880127,2|0,3:2|0:0,0:0:0:0:
32,28,111249,1,8,0:0:0:0:
100,88,111430,1,2,0:0:0:0:
32,148,111612,2,0,P|19:191|32:232,1,89.9999972534181,2|2,3:2|0:0,0:0:0:0:
99,293,111976,1,8,0:0:0:0:
168,232,112158,6,0,B|210:216|210:216|252:232,1,89.9999972534181,2|0,0:0|3:2,0:0:0:0:
320,292,112521,2,0,L|332:381,1,89.9999972534181,2|8,0:0|0:0,0:0:0:0:
424,380,112885,2,0,L|436:291,1,89.9999972534181,2|0,0:0|3:2,0:0:0:0:
379,219,113249,2,0,P|366:176|379:133,1,89.9999972534181,2|8,0:0|0:0,0:0:0:0:
436,64,113612,1,2,0:0:0:0:
496,133,113794,6,0,P|509:176|496:217,1,89.9999972534181,2|0,3:2|0:0,0:0:0:0:
440,294,114158,1,10,0:0:0:0:
440,294,114249,1,0,0:0:0:0:
440,294,114339,1,0,0:0:0:0:
379,219,114521,2,0,P|336:206|295:219,1,89.9999972534181,2|0,3:2|0:0,0:0:0:0:
240,294,114885,1,10,0:0:0:0:
240,294,114976,1,0,0:0:0:0:
240,294,115066,1,2,0:0:0:0:
184,220,115249,6,0,L|172:131,1,89.9999972534181,0|2,3:2|0:0,0:0:0:0:
129,60,115612,1,8,0:0:0:0:
129,60,115703,1,0,0:0:0:0:
129,60,115794,1,2,0:0:0:0:
80,132,115976,2,0,L|68:221,1,89.9999972534181,0|2,3:2|0:0,0:0:0:0:
130,294,116340,1,10,0:0:0:0:
130,294,116431,1,0,0:0:0:0:
130,294,116522,1,0,0:0:0:0:
184,220,116703,6,0,B|252:248|252:192|313:220,1,134.999995880127,14|0,3:2|0:0,0:0:0:0:
352,244,117066,1,8,0:0:0:0:
420,304,117248,1,2,0:0:0:0:
488,244,117430,2,0,P|501:201|488:160,1,89.9999972534181,10|2,3:2|0:0,0:0:0:0:
420,100,117794,1,8,0:0:0:0:
352,160,117976,6,0,L|263:148,1,89.9999972534181,2|8,0:0|3:2,0:0:0:0:
260,56,118340,2,0,L|349:44,1,89.9999972534181,2|8,0:0|0:0,0:0:0:0:
420,100,118703,2,0,L|509:112,1,89.9999972534181,2|8,0:0|3:2,0:0:0:0:
509,204,119067,2,0,L|420:216,1,89.9999972534181,2|8,0:0|0:0,0:0:0:0:
352,160,119430,1,2,0:0:0:0:
280,216,119612,6,0,B|238:232|238:232|196:216,1,89.9999972534181,10|0,3:2|0:0,0:0:0:0:
124,160,119976,2,0,L|112:71,1,89.9999972534181,10|0,0:0|0:0,0:0:0:0:
20,72,120340,2,0,L|8:161,1,89.9999972534181,10|0,3:2|0:0,0:0:0:0:
72,236,120703,1,10,0:0:0:0:
72,236,120794,1,0,0:0:0:0:
72,236,120884,1,2,0:0:0:0:
124,160,121066,5,8,3:2:0:0:
176,236,121249,2,0,L|188:325,1,89.9999972534181,2|8,0:0|0:0,0:0:0:0:
280,324,121613,2,0,L|292:235,1,89.9999972534181,2|8,0:0|3:2,0:0:0:0:
344,160,121976,1,2,0:0:0:0:
404,240,122158,1,10,0:0:0:0:
404,240,122248,1,0,0:0:0:0:
404,240,122340,1,0,0:0:0:0:
456,164,122521,6,0,P|480:100|456:42,1,134.999995880127,2|0,3:2|0:0,0:0:0:0:
432,4,122884,1,8,0:0:0:0:
372,72,123067,1,2,0:0:0:0:
312,4,123249,2,0,P|269:-9|228:4,1,89.9999972534181,10|2,3:2|0:0,0:0:0:0:
168,72,123612,1,8,0:0:0:0:
228,140,123794,6,0,B|244:182|244:182|228:224,1,89.9999972534181,2|8,0:0|3:2,0:0:0:0:
168,292,124158,2,0,B|126:308|126:308|84:292,1,89.9999972534181,2|8,0:0|0:0,0:0:0:0:
24,224,124521,2,0,B|8:182|8:182|24:140,1,89.9999972534181,2|8,0:0|3:2,0:0:0:0:
84,72,124885,2,0,B|126:56|126:56|168:72,1,89.9999972534181,2|8,0:0|0:0,0:0:0:0:
228,140,125249,1,2,0:0:0:0:
288,72,125430,6,0,P|331:59|372:72,1,89.9999972534181,10|2,3:2|0:0,0:0:0:0:
440,140,125794,1,8,0:0:0:0:
440,140,125885,1,0,0:0:0:0:
440,140,125975,1,2,0:0:0:0:
372,200,126158,2,0,P|329:213|288:200,1,89.9999972534181,8|2,3:2|0:0,0:0:0:0:
228,140,126521,1,10,0:0:0:0:
228,140,126612,1,0,0:0:0:0:
228,140,126702,1,0,0:0:0:0:
160,200,126885,6,0,B|144:242|144:242|160:284,1,89.9999972534181,10|0,3:2|0:0,0:0:0:0:
228,356,127249,1,10,0:0:0:0:
228,356,127340,1,0,0:0:0:0:
228,356,127430,1,0,0:0:0:0:
288,284,127612,2,0,B|304:242|304:242|288:200,1,89.9999972534181,10|2,3:2|0:0,0:0:0:0:
228,140,127976,1,8,0:0:0:0:
228,140,128067,1,0,0:0:0:0:
228,140,128157,1,2,0:0:0:0:
160,200,128340,5,10,3:2:0:0:
