osu file format v14

[General]
AudioFilename: audio.mp3
AudioLeadIn: 0
PreviewTime: 32470
Countdown: 0
SampleSet: Soft
StackLeniency: 0.5
Mode: 0
LetterboxInBreaks: 0
WidescreenStoryboard: 1

[Editor]
DistanceSpacing: 1
BeatDivisor: 4
GridSize: 8
TimelineZoom: 2

[Metadata]
Title:The Powerpuff Girls (Main Theme) (TV Size)
TitleUnicode:The Powerpuff Girls (Main Theme) (TV Size)
Artist:James L. Venable, Thomas Chase, Steve Rucker
ArtistUnicode:James L. Venable, Thomas Chase, Steve Rucker
Creator:Seolv
Version:Normal
Source:The Powerpuff Girls
Tags:ppg heroes & villains soundtrack cartoon network cn opening english american instrumental dnb drum and bass tv series mynt aistre alphabet venax lukas [_l_u_k_a_s_] wanpachi
BeatmapID:3159014
BeatmapSetID:1545547

[Difficulty]
HPDrainRate:4
CircleSize:3
OverallDifficulty:4
ApproachRate:6
SliderMultiplier:1.2
SliderTickRate:1

[Events]
//Background and Video events
0,0,"i hate metadata.jpg",0,0
Video,0,"video.mp4"
//Break Periods
//Storyboard Layer 0 (Background)
//Storyboard Layer 1 (Fail)
//Storyboard Layer 2 (Pass)
//Storyboard Layer 3 (Foreground)
//Storyboard Layer 4 (Overlay)
//Storyboard Sound Samples

[TimingPoints]
21933,379.746835443038,4,2,1,70,1,0
31046,-100,4,2,1,80,0,0
35603,-100,4,2,1,60,0,0
38262,-100,4,2,1,70,0,0
38641,-100,4,2,1,80,0,0
41679,-100,4,2,1,70,0,0
47755,-100,4,2,1,50,0,0
50793,-100,4,2,1,60,0,0
51553,-100,4,2,1,70,0,0
52312,-100,4,2,1,80,0,0
58388,-100,4,2,1,90,0,0

[Colours]
Combo1 : 255,128,0
Combo2 : 255,255,128
Combo3 : 255,128,128

[HitObjects]
256,192,21932,12,0,29527,0:0:0:0:
234,347,31046,6,0,P|291:330|351:323,1,120,0|0,1:0|1:0,0:0:0:0:
406,345,31616,1,0,1:0:0:0:
406,345,31806,2,0,P|434:336|464:333,1,60,0|0,1:0|1:0,0:0:0:0:
500,284,32186,2,0,P|490:255|488:225,1,60,0|0,1:0|1:0,0:0:0:0:
442,186,32565,6,0,P|446:126|456:67,1,120,4|8,3:1|0:0,0:0:0:0:
407,30,33135,1,2,0:2:0:0:
286,27,33515,2,0,L|227:37,1,60,2|10,3:2|0:2,0:0:0:0:
179,74,33895,1,2,0:0:0:0:
179,74,34084,2,0,P|123:81|76:192,1,180,2|2,3:2|0:0,0:0:0:0:
86,242,34844,1,2,0:3:0:0:
240,334,35414,6,0,P|268:325|298:322,1,60,2|4,3:2|3:1,0:0:0:0:
396,251,35983,1,8,0:0:0:0:
396,251,36173,2,0,P|352:230|367:148,1,120,2|2,0:2|3:2,0:0:0:0:
392,122,36743,1,10,0:0:0:0:
510,107,37122,2,0,P|500:196|503:286,1,180,2|2,3:2|0:2,0:0:0:0:
491,345,37882,1,2,0:3:0:0:
376,380,38262,2,0,L|300:364,1,60,10|2,0:0|0:3,0:0:0:0:
256,359,38641,6,0,P|203:337|194:281,1,120,4|8,3:1|0:0,0:0:0:0:
236,237,39211,1,2,0:0:0:0:
138,167,39591,2,0,L|122:92,2,60,2|10|2,3:2|0:0|0:0,0:0:0:0:
99,212,40160,2,0,P|31:208|-3:154,2,120,2|8|2,3:2|0:0|0:3,0:0:0:0:
194,281,41300,1,8,0:0:0:0:
278,195,41679,6,0,P|280:136|291:77,2,120,6|8|2,3:2|0:0|0:3,0:0:0:0:
369,274,42819,1,8,0:0:0:0:
441,368,43198,2,0,P|362:327|275:344,1,180,6|2,3:2|0:0,0:0:0:0:
136,229,44338,1,10,0:0:0:0:
65,325,44717,6,0,B|28:257|84:218|84:220|142:184|88:96,1,240,6|2,3:2|0:3,0:0:0:0:
200,50,45857,2,0,P|234:64|277:62,1,60,8|2,0:0|0:3,0:0:0:0:
277,120,46236,2,0,P|328:91|387:91,2,120,4|8|2,3:2|0:0|0:3,0:0:0:0:
226,230,47376,1,8,0:0:0:0:
278,337,47755,6,0,P|335:353|395:357,2,120,0|8|2,3:2|0:0|0:3,0:0:0:0:
226,230,48895,1,8,0:0:0:0:
167,124,49274,2,0,P|116:35|1:91,1,240,0|2,3:2|0:3,0:0:0:0:
8,197,50414,1,8,0:0:0:0:
4,315,50793,6,0,P|62:300|77:299,1,60,2|2,3:2|3:2,0:0:0:0:
113,332,51173,2,0,P|170:320|247:314,1,120,10|0,0:0|3:0,0:0:0:0:
279,350,51743,1,0,3:0:0:0:
279,350,51932,1,10,0:0:0:0:
398,361,52312,6,0,L|418:182,1,180,4|2,3:1|0:0,0:0:0:0:
303,145,53262,2,0,L|296:85,1,60,2|10,3:2|0:0,0:0:0:0:
258,46,53641,1,2,0:0:0:0:
258,46,53831,2,0,P|195:58|181:126,1,120,4|8,3:1|0:0,0:0:0:0:
191,163,54401,1,2,0:0:0:0:
257,269,54781,1,2,3:2:0:0:
257,269,54970,2,0,L|315:285,1,60,10|2,0:0|0:0,0:0:0:0:
368,308,55350,6,0,P|359:249|364:171,1,120,4|8,3:1|0:0,0:0:0:0:
404,148,55920,1,2,0:0:0:0:
339,53,56300,1,2,3:2:0:0:
339,53,56489,2,0,L|279:45,1,60,10|2,0:0|0:0,0:0:0:0:
227,14,56869,2,0,B|141:-15|110:69|118:69|92:111|5:95,1,240,4|2,3:1|0:3,0:0:0:0:
14,224,58008,5,8,0:0:0:0:
14,224,58198,1,2,0:0:0:0:
14,223,58388,2,0,P|98:219|133:296,1,180,4|0,3:1|3:0,0:0:0:0:
253,299,59338,2,0,P|245:327|243:357,2,60,0|8|0,3:0|0:0|3:0,0:0:0:0:
308,275,59907,1,4,3:2:0:0:
