osu file format v14

[General]
AudioFilename: audio.mp3
AudioLeadIn: 0
PreviewTime: 32470
Countdown: 0
SampleSet: Soft
StackLeniency: 0.5
Mode: 0
LetterboxInBreaks: 0
WidescreenStoryboard: 1

[Editor]
DistanceSpacing: 0.8
BeatDivisor: 4
GridSize: 4
TimelineZoom: 2

[Metadata]
Title:The Powerpuff Girls (Main Theme) (TV Size)
TitleUnicode:The Powerpuff Girls (Main Theme) (TV Size)
Artist:James L. Venable, Thomas Chase, Steve Rucker
ArtistUnicode:James L. Venable, Thomas Chase, Steve Rucker
Creator:Seolv
Version:Aistre's Insane
Source:The Powerpuff Girls
Tags:ppg heroes & villains soundtrack cartoon network cn opening english american instrumental dnb drum and bass tv series mynt aistre alphabet venax lukas [_l_u_k_a_s_] wanpachi
BeatmapID:3159011
BeatmapSetID:1545547

[Difficulty]
HPDrainRate:6
CircleSize:4
OverallDifficulty:8
ApproachRate:8.5
SliderMultiplier:2.05
SliderTickRate:1

[Events]
//Background and Video events
0,0,"i hate metadata.jpg",0,0
Video,0,"video.mp4"
//Break Periods
//Storyboard Layer 0 (Background)
//Storyboard Layer 1 (Fail)
//Storyboard Layer 2 (Pass)
//Storyboard Layer 3 (Foreground)
//Storyboard Layer 4 (Overlay)
//Storyboard Sound Samples

[TimingPoints]
21933,379.746835443038,4,2,1,70,1,0
31046,-100,4,2,1,80,0,0
32565,-81.9672131147541,4,2,1,80,0,0
35603,-105.263157894737,4,2,1,60,0,0
38262,-52.6315789473684,4,2,1,70,0,0
38641,-81.9672131147541,4,2,1,80,0,0
40160,-66.6666666666667,4,2,1,80,0,0
41679,-100,4,2,1,70,0,0
47755,-133.333333333333,4,2,1,50,0,0
50793,-133.333333333333,4,2,1,60,0,0
51173,-100,4,2,1,60,0,0
51553,-100,4,2,1,70,0,0
52312,-81.9672131147541,4,2,1,80,0,0
53831,-74.0740740740741,4,2,1,80,0,0
55350,-66.6666666666667,4,2,1,80,0,0
56869,-60.6060606060606,4,2,1,80,0,0
58388,-54.054054054054,4,2,1,90,0,0
60667,-166.666666666667,4,2,1,90,0,1
62945,-166.666666666667,4,2,1,5,0,0

[Colours]
Combo1 : 255,128,0
Combo2 : 255,255,128
Combo3 : 255,128,128

[HitObjects]
256,192,21932,12,0,30667,0:0:0:0:
319,226,31046,5,0,1:0:0:0:
306,201,31141,1,0,1:0:0:0:
280,190,31236,2,0,P|251:187|227:194,1,51.25,0|0,1:0|1:0,0:0:0:0:
131,375,31426,5,0,1:0:0:0:
125,339,31521,1,0,1:0:0:0:
119,304,31616,1,0,1:0:0:0:
114,268,31711,1,0,1:0:0:0:
107,262,31806,5,0,1:0:0:0:
57,229,31901,1,0,1:0:0:0:
43,171,31996,1,0,1:0:0:0:
72,121,32091,1,0,1:0:0:0:
127,105,32186,6,0,P|145:109|168:131,3,51.25,0|0|0|0,1:0|1:0|1:0|1:0,0:0:0:0:
215,292,32565,6,0,B|271:316|333:265|303:227|360:177|425:202,1,250.099989696198,4|8,3:1|0:0,0:0:0:0:
473,342,33135,1,2,0:2:0:0:
471,335,33230,1,8,0:0:0:0:
469,328,33325,2,0,L|393:308,1,62.5249974240495,2|8,0:3|0:0,0:0:0:0:
222,286,33515,2,0,L|282:270,1,62.5249974240495,2|2,3:2|0:3,0:0:0:0:
444,109,33705,6,0,P|443:144|422:164,1,62.5249974240495,10|0,0:2|0:0,0:0:0:0:
437,107,33895,6,0,P|416:130|418:160,1,62.5249974240495,2|0,0:0|0:0,0:0:0:0:
458,250,34084,6,0,P|409:174|320:181,1,187.574992272148,2|0,3:2|0:0,0:0:0:0:
321,190,34464,1,8,0:0:0:0:
157,89,34654,1,2,0:0:0:0:
164,86,34749,1,8,0:0:0:0:
171,84,34844,2,0,L|155:162,1,62.5249974240495,2|8,0:3|0:0,0:0:0:0:
203,263,35034,2,0,L|219:185,1,62.5249974240495,0|2,3:0|0:3,0:0:0:0:
242,23,35224,1,8,0:0:0:0:
364,66,35414,5,2,3:2:0:0:
364,66,35508,1,2,0:0:0:0:
364,66,35603,2,0,L|153:85,1,194.749994799614,4|8,3:1|0:0,0:0:0:0:
34,224,36173,2,0,P|77:187|65:132,1,97.374997399807,2|2,0:2|0:3,0:0:0:0:
73,140,36458,1,8,0:0:0:0:
67,132,36553,1,2,3:2:0:0:
29,229,36743,2,0,L|37:284,1,48.6874986999035,10|0,0:0|0:0,0:0:0:0:
99,321,36932,2,0,L|91:369,1,48.6874986999035,2|0,0:2|0:0,0:0:0:0:
201,290,37122,6,0,P|194:206|163:80,1,194.749994799614,2|8,3:2|0:0,0:0:0:0:
190,93,37692,2,0,P|199:189|221:284,1,194.749994799614,2|0,0:2|3:2,0:0:0:0:
221,305,38167,1,2,0:0:0:0:
246,329,38262,6,0,B|286:363|355:333|384:296|324:262|425:163|521:305|419:326,1,292.124992199421,10|0,0:0|0:0,0:0:0:0:
400,375,38641,6,0,B|429:317|399:246|363:278|315:214|348:141,1,250.099989696198,4|8,3:1|0:0,0:0:0:0:
478,14,39211,2,0,P|508:70|480:122,1,125.049994848099,2|2,0:0|0:3,0:0:0:0:
475,127,39496,1,8,0:0:0:0:
469,133,39591,2,0,P|435:116|390:117,1,62.5249974240495,2|2,3:2|0:3,0:0:0:0:
205,57,39781,6,0,B|233:78|233:78|277:72,1,62.5249974240495,10|0,0:0|0:0,0:0:0:0:
208,49,39970,6,0,B|235:45|235:45|263:66,1,62.5249974240495,2|0,0:0|0:0,0:0:0:0:
405,33,40160,6,0,B|283:75|283:75|262:103|262:103|81:148,1,307.500011730195,2|8,3:2|0:0,0:0:0:0:
43,264,40730,1,2,0:3:0:0:
34,249,40825,1,8,0:0:0:0:
39,235,40920,1,2,0:3:0:0:
32,220,41015,1,8,0:0:0:0:
38,206,41110,1,0,3:0:0:0:
122,60,41300,6,0,L|102:144,1,76.8750029325486,8|0,0:0|0:0,0:0:0:0:
129,61,41489,2,0,L|109:145,1,76.8750029325486,2|0,0:3|0:0,0:0:0:0:
157,229,41679,6,0,B|217:260|264:210|234:197|291:138|353:179,1,205,6|8,3:2|0:0,0:0:0:0:
432,267,42249,2,0,L|485:259,4,51.25,2|8|2|8|0,0:3|0:0|0:3|0:0|3:0,0:0:0:0:
371,328,42819,2,0,P|334:287|280:283,1,102.5,8|2,0:0|0:3,0:0:0:0:
231,329,43103,1,2,0:3:0:0:
231,329,43198,6,0,L|11:291,1,205,6|8,3:2|0:0,0:0:0:0:
159,174,43768,1,2,0:0:0:0:
168,178,43863,1,8,0:0:0:0:
177,175,43958,1,2,0:3:0:0:
186,177,44053,1,8,0:0:0:0:
196,174,44148,1,0,3:0:0:0:
334,263,44338,2,0,L|218:240,1,102.5,10|2,0:0|0:3,0:0:0:0:
127,46,44717,6,0,B|187:14|234:64|204:77|261:136|323:95,1,205,6|8,3:2|0:0,0:0:0:0:
467,4,45287,2,0,L|477:55,4,51.25,2|8|2|8|0,0:3|0:0|0:3|0:0|3:0,0:0:0:0:
497,137,45857,2,0,L|387:115,1,102.5,8|2,0:0|0:3,0:0:0:0:
330,76,46141,1,2,0:3:0:0:
339,71,46236,6,0,L|377:297,1,205,4|8,3:2|0:0,0:0:0:0:
495,372,46806,1,2,0:3:0:0:
499,362,46901,1,8,0:0:0:0:
503,352,46996,2,0,B|464:321|464:321|404:336,1,102.5,2|0,0:3|3:0,0:0:0:0:
208,271,47376,1,8,0:0:0:0:
214,236,47470,1,2,0:3:0:0:
220,200,47565,1,2,0:3:0:0:
226,164,47660,1,2,0:3:0:0:
233,158,47755,6,0,L|245:75,2,76.8750029325486,0|0|8,3:2|3:0|0:0,0:0:0:0:
138,243,48325,2,0,L|84:251,4,38.4375014662743,2|8|2|8|0,0:3|0:0|0:3|0:0|3:0,0:0:0:0:
37,204,48895,2,0,L|26:120,1,76.8750029325486,8|2,0:0|0:3,0:0:0:0:
49,56,49179,1,2,0:3:0:0:
53,48,49274,5,0,3:2:0:0:
127,17,49464,1,0,3:0:0:0:
189,65,49654,1,8,0:0:0:0:
306,29,49844,2,0,L|355:20,4,38.4375014662743,2|8|2|8|0,0:3|0:0|0:3|0:0|3:0,0:0:0:0:
262,94,50319,1,2,0:3:0:0:
257,102,50414,2,0,L|263:151,2,38.4375014662743,8|8|8,0:0|0:3|0:3,0:0:0:0:
488,214,50793,5,2,3:2:0:0:
488,214,50888,1,0,0:0:0:0:
488,214,50983,2,0,L|427:222,1,38.4375014662743,2|0,3:2|0:0,0:0:0:0:
427,112,51173,5,10,0:0:0:0:
406,112,51268,1,2,0:0:0:0:
390,124,51363,2,0,P|371:149|367:172,1,51.25,2|10,0:3|0:0,0:0:0:0:
451,327,51553,5,0,3:0:0:0:
431,331,51648,1,10,0:0:0:0:
412,323,51743,2,0,P|388:302|379:281,1,51.25,0|2,3:0|0:0,0:0:0:0:
108,251,51932,5,10,0:0:0:0:
156,233,52027,1,8,0:0:0:0:
206,240,52122,1,10,0:0:0:0:
255,227,52217,1,8,0:0:0:0:
305,237,52312,6,0,B|295:174|295:174|298:169|298:169|289:108,2,125.049994848099,4|0|8,3:1|3:0|0:0,0:0:0:0:
131,363,52882,1,2,0:0:0:0:
139,357,52977,1,8,0:0:0:0:
146,352,53072,2,0,L|210:367,1,62.5249974240495,2|8,0:3|0:0,0:0:0:0:
32,309,53262,2,0,L|-30:290,1,62.5249974240495,2|2,3:2|0:3,0:0:0:0:
154,172,53451,6,0,P|180:140|178:112,1,62.5249974240495,10|0,0:0|0:0,0:0:0:0:
146,168,53641,6,0,P|150:137|172:116,1,62.5249974240495,2|0,0:0|0:0,0:0:0:0:
115,263,53831,6,0,P|150:170|231:10,1,276.750001055717,4|8,3:1|0:0,0:0:0:0:
425,188,54401,1,2,0:0:0:0:
429,196,54496,1,8,0:0:0:0:
434,203,54591,2,0,P|386:230|355:219,1,69.1875002639294,2|8,0:3|0:0,0:0:0:0:
303,159,54781,2,0,P|303:103|328:82,1,69.1875002639294,2|2,3:2|0:3,0:0:0:0:
441,66,54970,6,0,B|474:49|474:49|504:59,1,69.1875002639294,10|0,0:0|0:0,0:0:0:0:
442,75,55160,6,0,B|472:85|472:85|505:68,1,69.1875002639294,2|0,0:0|0:0,0:0:0:0:
429,316,55350,6,0,L|392:10,1,307.500011730195,4|8,3:1|0:0,0:0:0:0:
285,254,55920,1,2,0:0:0:0:
278,249,56015,1,8,0:0:0:0:
248,268,56110,2,0,L|263:182,1,76.8750029325486,2|8,0:3|0:0,0:0:0:0:
50,126,56300,2,0,L|37:51,1,76.8750029325486,2|2,3:2|0:3,0:0:0:0:
144,193,56489,6,0,B|161:166|161:166|158:152|158:152|171:110,1,76.8750029325486,10|0,0:0|0:0,0:0:0:0:
134,190,56679,6,0,B|143:160|143:160|140:146|140:146|157:119,1,76.8750029325486,2|0,0:0|0:0,0:0:0:0:
266,31,56869,6,0,B|214:56|214:56|131:275|131:275|66:304,1,338.250003225803,4|8,3:1|0:0,0:0:0:0:
49,55,57439,1,2,0:3:0:0:
76,35,57534,1,8,0:0:0:0:
109,42,57629,2,0,B|143:55|143:55|146:61|146:61|192:76,1,84.5625008064508,2|8,0:3|0:0,0:0:0:0:
301,242,57819,2,0,B|335:229|335:229|338:223|338:223|378:211,1,84.5625008064508,0|2,3:2|0:3,0:0:0:0:
250,138,58008,6,0,B|275:101|275:101|283:154,1,84.5625008064508,8|0,0:0|3:0,0:0:0:0:
227,219,58198,5,2,0:0:0:0:
227,219,58293,1,2,3:2:0:0:
227,219,58388,2,0,P|139:236|65:315,1,189.624999276638,4|0,3:1|3:0,0:0:0:0:
152,367,58673,1,0,3:0:0:0:
159,365,58768,2,0,P|174:313|151:277,1,94.812499638319,8|0,0:0|3:0,0:0:0:0:
11,158,58958,2,0,L|104:173,1,94.812499638319,0|8,3:0|0:0,0:0:0:0:
247,124,59148,6,0,P|276:96|272:41,1,94.812499638319,0|8,3:0|0:0,0:0:0:0:
163,15,59338,2,0,P|133:42|137:97,1,94.812499638319,0|0,3:0|3:0,0:0:0:0:
341,222,59527,5,8,0:0:0:0:
341,198,59622,1,0,3:0:0:0:
378,160,59717,1,0,3:0:0:0:
355,109,59812,1,0,3:0:0:0:
411,55,59907,5,4,3:2:0:0:
204,264,60667,6,0,B|149:245|124:191|133:151|133:151|127:145|127:145|132:92|181:38|228:40|228:40|233:35|233:35|284:18|350:57|360:101|360:101|365:104|365:104|384:143|383:187|355:220|355:220|357:228|357:228|332:266|292:286|226:274,1,737.999977478028,4|0,0:3|0:0,0:0:0:0:
