osu file format v14

[General]
AudioFilename: audio.mp3
AudioLeadIn: 0
PreviewTime: -1
Countdown: 1
SampleSet: None
StackLeniency: 0.7
Mode: 0
LetterboxInBreaks: 0
WidescreenStoryboard: 1

[Editor]
DistanceSpacing: 0.8
BeatDivisor: 4
GridSize: 4
TimelineZoom: 1

[Metadata]
Title:Crush Got It Mk (TV Size)
TitleUnicode:Crush Got It Mk (TV Size)
Artist:James
ArtistUnicode:James
Creator:Mimasu
Version:Insane
Source:King Of The Hill
Tags:koth
BeatmapID:1917057
BeatmapSetID:917986

[Difficulty]
HPDrainRate:5
CircleSize:3
OverallDifficulty:5
ApproachRate:9
SliderMultiplier:1.4
SliderTickRate:1

[Events]
//Background and Video events
0,0,"king-of-the-hill.jpg",0,0
//Break Periods
//Storyboard Layer 0 (Background)
//Storyboard Layer 1 (Fail)
//Storyboard Layer 2 (Pass)
//Storyboard Layer 3 (Foreground)
//Storyboard Sound Samples

[TimingPoints]
3931.14276533785,416.666666666667,4,1,0,30,1,0

[HitObjects]
256,196,3931,5,0,0:0:0:0:
416,64,4139,2,0,L|448:40,4,35
356,264,4764,5,0,0:0:0:0:
208,64,4972,2,0,L|180:24,4,35
448,172,5597,5,0,0:0:0:0:
368,88,5806,1,0,0:0:0:0:
359,122,5910,1,0,0:0:0:0:
351,156,6014,1,0,0:0:0:0:
284,36,6222,1,0,0:0:0:0:
285,216,6431,2,0,P|329:244|449:164,1,210
176,88,7264,5,0,0:0:0:0:
324,252,7472,2,0,L|364:296,4,35
384,56,8097,5,0,0:0:0:0:
196,232,8306,2,0,L|164:256,4,35
280,40,8931,5,0,0:0:0:0:
392,184,9139,1,0,0:0:0:0:
392,184,9243,1,0,0:0:0:0:
392,184,9347,1,0,0:0:0:0:
240,248,9556,5,0,0:0:0:0:
240,248,9660,1,0,0:0:0:0:
240,248,9764,1,0,0:0:0:0:
272,88,9972,6,0,L|280:32,4,35
144,288,10597,5,0,0:0:0:0:
88,100,10806,2,0,L|64:64,4,35
264,292,11431,5,0,0:0:0:0:
416,140,11639,2,0,L|448:92,4,35
100,260,12264,5,0,0:0:0:0:
304,68,12472,1,0,0:0:0:0:
304,68,12576,1,0,0:0:0:0:
304,68,12681,1,0,0:0:0:0:
196,296,12889,1,0,0:0:0:0:
436,204,13097,2,0,P|435:108|332:44,1,210
176,192,13931,1,0,0:0:0:0:
316,152,14139,6,0,L|352:116,1,35
272,276,14347,1,0,0:0:0:0:
196,120,14556,6,0,L|144:88,1,35
348,244,14764,1,0,0:0:0:0:
180,256,14972,6,0,L|136:288,1,35
340,164,15181,1,0,0:0:0:0:
364,300,15389,6,0,L|400:332,1,35
216,152,15597,1,0,0:0:0:0:
224,300,15806,6,0,L|212:344,1,35
296,104,16014,1,0,0:0:0:0:
296,104,16118,1,0,0:0:0:0:
296,104,16222,1,0,0:0:0:0:
212,208,16431,5,0,0:0:0:0:
88,140,16639,1,0,0:0:0:0:
88,140,16847,1,0,0:0:0:0:
88,140,17056,1,0,0:0:0:0:
376,108,17264,1,0,0:0:0:0:
224,304,17472,5,0,0:0:0:0:
248,24,17889,1,0,0:0:0:0:
32,288,18306,1,0,0:0:0:0:
400,120,18722,5,0,0:0:0:0:
200,332,19139,1,0,0:0:0:0:
72,64,19556,1,0,0:0:0:0:
360,288,19972,5,0,0:0:0:0:
32,200,20389,1,0,0:0:0:0:
176,104,20597,1,0,0:0:0:0:
60,104,20806,2,0,L|20:148,1,35
496,160,21222,1,0,0:0:0:0:
176,104,21431,1,0,0:0:0:0:
340,156,21639,1,0,0:0:0:0:
32,136,21847,1,0,0:0:0:0:
340,156,22056,1,0,0:0:0:0:
104,216,22264,2,0,L|84:264,1,35
284,68,22472,2,0,L|300:20,1,35
280,224,22681,6,0,L|260:284,1,35
424,76,22889,2,0,L|444:36,1,35
424,220,23097,6,0,L|404:272,1,35
280,80,23306,2,0,L|256:132,1,35
268,257,23514,6,0,L|292:201,1,35
420,100,23722,1,0,0:0:0:0:
100,240,23931,1,0,0:0:0:0:
344,96,24139,2,0,L|368:56,4,35
264,280,24764,1,0,0:0:0:0:
104,100,24972,2,0,L|84:64,4,35
240,292,25597,1,0,0:0:0:0:
268,88,25806,1,0,0:0:0:0:
251,119,25910,1,0,0:0:0:0:
235,150,26014,1,0,0:0:0:0:
192,40,26222,1,0,0:0:0:0:
112,212,26431,2,0,P|140:256|300:244,1,210
352,80,27264,5,0,0:0:0:0:
120,284,27472,1,0,0:0:0:0:
376,280,27681,5,0,0:0:0:0:
180,44,27889,1,0,0:0:0:0:
220,328,28097,5,0,0:0:0:0:
296,20,28306,1,0,0:0:0:0:
96,112,28514,5,0,0:0:0:0:
364,292,28722,1,0,0:0:0:0:
112,292,28931,5,0,0:0:0:0:
332,96,29139,1,0,0:0:0:0:
272,320,29347,5,0,0:0:0:0:
128,48,29556,1,0,0:0:0:0:
260,184,29764,1,0,0:0:0:0:
424,176,29972,5,0,0:0:0:0:
96,184,30180,1,0,0:0:0:0:
