osu file format v14

[General]
AudioFilename: audio.mp3
AudioLeadIn: 0
PreviewTime: -1
Countdown: 1
SampleSet: Normal
StackLeniency: 0.7
Mode: 0
LetterboxInBreaks: 0
WidescreenStoryboard: 0

[Editor]
DistanceSpacing: 0.8
BeatDivisor: 4
GridSize: 4
TimelineZoom: 1

[Metadata]
Title:Crush Got It Mk (TV Size)
TitleUnicode:Crush Got It Mk (TV Size)
Artist:James
ArtistUnicode:James
Creator:Mimasu
Version:Extra cold one
Source:King Of The Hill
Tags:koth
BeatmapID:1916983
BeatmapSetID:917986

[Difficulty]
HPDrainRate:5
CircleSize:4.6
OverallDifficulty:5
ApproachRate:9.2
SliderMultiplier:1.4
SliderTickRate:1

[Events]
//Background and Video events
0,0,"king-of-the-hill.jpg",0,0
//Break Periods
//Storyboard Layer 0 (Background)
//Storyboard Layer 1 (Fail)
//Storyboard Layer 2 (Pass)
//Storyboard Layer 3 (Foreground)
//Storyboard Sound Samples

[TimingPoints]
3931.14276533785,416.666666666667,4,1,0,30,1,0

[HitObjects]
158,279,3931,5,0,0:0:0:0:
313,164,4139,1,0,0:0:0:0:
315,129,4243,1,0,0:0:0:0:
299,99,4347,1,0,0:0:0:0:
268,83,4451,1,0,0:0:0:0:
234,86,4555,1,0,0:0:0:0:
267,273,4764,5,0,0:0:0:0:
157,178,4972,1,0,0:0:0:0:
142,146,5076,1,0,0:0:0:0:
146,112,5180,1,0,0:0:0:0:
169,86,5284,1,0,0:0:0:0:
202,77,5388,1,0,0:0:0:0:
318,301,5597,5,0,0:0:0:0:
315,189,5806,1,0,0:0:0:0:
283,201,5910,1,0,0:0:0:0:
265,231,6014,1,0,0:0:0:0:
393,330,6222,1,0,0:0:0:0:
415,190,6431,2,0,P|398:142|258:134,1,210
217,284,7264,5,0,0:0:0:0:
157,188,7472,1,0,0:0:0:0:
166,154,7576,1,0,0:0:0:0:
191,130,7680,1,0,0:0:0:0:
225,122,7784,1,0,0:0:0:0:
258,131,7888,1,0,0:0:0:0:
339,310,8097,5,0,0:0:0:0:
337,156,8306,1,0,0:0:0:0:
339,121,8410,1,0,0:0:0:0:
327,88,8514,1,0,0:0:0:0:
302,64,8618,1,0,0:0:0:0:
270,51,8722,1,0,0:0:0:0:
181,233,8931,5,0,0:0:0:0:
430,169,9139,2,0,P|453:136|451:127,1,35
307,278,9347,5,0,0:0:0:0:
232,49,9556,2,0,P|201:27|186:30,1,35
154,253,9764,5,0,0:0:0:0:
192,155,9972,1,0,0:0:0:0:
157,153,10076,1,0,0:0:0:0:
124,166,10180,1,0,0:0:0:0:
100,190,10284,1,0,0:0:0:0:
87,222,10388,1,0,0:0:0:0:
278,147,10597,5,0,0:0:0:0:
196,226,10806,1,0,0:0:0:0:
213,255,10910,1,0,0:0:0:0:
243,273,11014,1,0,0:0:0:0:
278,274,11118,1,0,0:0:0:0:
308,258,11222,1,0,0:0:0:0:
210,113,11431,5,0,0:0:0:0:
143,249,11639,1,0,0:0:0:0:
170,270,11743,1,0,0:0:0:0:
204,273,11847,1,0,0:0:0:0:
235,257,11951,1,0,0:0:0:0:
252,227,12055,1,0,0:0:0:0:
372,114,12264,5,0,0:0:0:0:
317,45,12472,1,0,0:0:0:0:
294,70,12576,1,0,0:0:0:0:
294,104,12680,1,0,0:0:0:0:
419,53,12889,1,0,0:0:0:0:
413,184,13097,2,0,P|331:221|241:132,1,210
368,53,13931,5,0,0:0:0:0:
260,242,14139,2,0,P|228:266|217:262,1,35
402,314,14347,5,0,0:0:0:0:
215,215,14556,2,0,P|177:191|179:185,1,35
118,349,14764,5,0,0:0:0:0:
216,138,14972,2,0,P|234:103|245:104,1,35
90,29,15181,5,0,0:0:0:0:
315,129,15389,2,0,P|366:140|368:147,1,35
437,18,15597,5,0,0:0:0:0:
350,244,15806,2,0,P|363:283|356:291,1,35
438,17,16014,2,0,P|446:63|442:71,1,35
394,101,16222,5,0,0:0:0:0:
320,149,16431,1,0,0:0:0:0:
253,194,16639,1,0,0:0:0:0:
253,194,16847,1,0,0:0:0:0:
253,194,17056,1,0,0:0:0:0:
253,194,17264,1,0,0:0:0:0:
424,80,17472,5,0,0:0:0:0:
198,305,17889,1,0,0:0:0:0:
444,264,18306,1,0,0:0:0:0:
152,112,18722,1,0,0:0:0:0:
268,336,19139,1,0,0:0:0:0:
356,76,19556,1,0,0:0:0:0:
120,288,19972,1,0,0:0:0:0:
428,244,20389,1,0,0:0:0:0:
178,99,20597,5,0,0:0:0:0:
305,180,20806,1,0,0:0:0:0:
333,159,20910,1,0,0:0:0:0:
32,139,21222,1,0,0:0:0:0:
335,160,21431,1,0,0:0:0:0:
179,106,21639,1,0,0:0:0:0:
335,160,21847,1,0,0:0:0:0:
506,159,22056,1,0,0:0:0:0:
28,139,22264,6,0,L|16:89,1,35
179,106,22472,2,0,L|181:151,1,35
339,154,22681,2,0,L|344:115,1,35
506,159,22889,2,0,L|499:196,1,35
411,288,23097,5,0,0:0:0:0:
386,312,23201,1,0,0:0:0:0:
355,328,23305,1,0,0:0:0:0:
320,332,23409,1,0,0:0:0:0:
286,326,23513,1,0,0:0:0:0:
256,308,23617,1,0,0:0:0:0:
233,282,23722,1,0,0:0:0:0:
220,250,23826,1,0,0:0:0:0:
217,215,23930,1,0,0:0:0:0:
313,194,24139,5,0,0:0:0:0:
320,160,24243,1,0,0:0:0:0:
309,127,24347,1,0,0:0:0:0:
283,104,24451,1,0,0:0:0:0:
249,97,24555,1,0,0:0:0:0:
197,285,24764,5,0,0:0:0:0:
187,127,24972,1,0,0:0:0:0:
181,92,25076,1,0,0:0:0:0:
192,60,25180,1,0,0:0:0:0:
217,36,25284,1,0,0:0:0:0:
251,28,25388,1,0,0:0:0:0:
323,253,25597,5,0,0:0:0:0:
397,199,25806,1,0,0:0:0:0:
379,169,25910,1,0,0:0:0:0:
346,158,26014,1,0,0:0:0:0:
399,282,26222,1,0,0:0:0:0:
397,114,26431,2,0,P|351:84|225:176,1,210
188,318,27264,5,0,0:0:0:0:
370,75,27472,1,0,0:0:0:0:
370,75,27576,1,0,0:0:0:0:
168,164,27681,1,0,0:0:0:0:
312,228,27889,5,0,0:0:0:0:
312,228,27993,1,0,0:0:0:0:
240,72,28097,1,0,0:0:0:0:
208,232,28306,5,0,0:0:0:0:
208,232,28410,1,0,0:0:0:0:
336,108,28514,1,0,0:0:0:0:
128,88,28722,5,0,0:0:0:0:
128,88,28826,1,0,0:0:0:0:
252,184,28931,1,0,0:0:0:0:
252,46,29139,5,0,0:0:0:0:
226,69,29243,1,0,0:0:0:0:
208,99,29347,1,0,0:0:0:0:
199,133,29451,1,0,0:0:0:0:
201,167,29555,1,0,0:0:0:0:
392,114,29764,1,0,0:0:0:0:
272,22,29972,1,0,0:0:0:0:
247,185,30181,1,0,0:0:0:0:
