osu file format v14

[General]
AudioFilename: Jam Project - .mp3
AudioLeadIn: 0
PreviewTime: -1
Countdown: 0
SampleSet: None
StackLeniency: 0.8
Mode: 0
LetterboxInBreaks: 0
WidescreenStoryboard: 1

[Editor]
Bookmarks: 9452,22952,24285,32285,35868,53618,66952,81452,101785
DistanceSpacing: 1
BeatDivisor: 4
GridSize: 4
TimelineZoom: 2.1

[Metadata]
Title:Okusenman
TitleUnicode:思い出は亿千万
Artist:Jam Project
ArtistUnicode:Jam Project
Creator:ceLy
Version:Insane
Source:Rockman II
Tags:Rockman,Mega Man,Ultraman,NicoNico,BiliBili
BeatmapID:1169510
BeatmapSetID:552178

[Difficulty]
HPDrainRate:6
CircleSize:4
OverallDifficulty:7.5
ApproachRate:9.3
SliderMultiplier:1.4
SliderTickRate:1

[Events]
//Background and Video events
0,0,"20161227011651.jpg",0,0
//Break Periods
//Storyboard Layer 0 (Background)
//Storyboard Layer 1 (Fail)
//Storyboard Layer 2 (Pass)
//Storyboard Layer 3 (Foreground)
//Storyboard Sound Samples

[TimingPoints]
285.377241044142,333.333333333333,4,3,0,100,1,0
286,-100,4,3,0,100,0,0
13618,-66.6666666666667,4,3,0,100,0,0
24285,-100,4,3,0,100,0,0
28118,-100,4,3,0,100,0,0
41618,-100,4,3,0,5,0,0
41785,-100,4,3,0,100,0,0
41952,-100,4,3,0,5,0,0
42118,-100,4,3,0,100,0,0
42285,-100,4,3,0,5,0,0
42452,-100,4,3,0,100,0,0
42618,-100,4,3,0,5,0,0
42785,-100,4,3,0,100,0,0
77452,-100,4,3,0,100,0,1
77552,-100,4,3,0,100,0,1
87618,-100,4,3,0,100,0,0
154785,-100,4,3,0,100,0,1
164285,-100,4,3,0,100,0,1
164385,-100,4,3,0,100,0,0
202785,-100,4,3,0,100,0,1
226952,-100,4,3,0,100,0,1
227052,-100,4,3,0,100,0,0
236304,333.333333333333,4,3,0,100,1,0
236304,333.333333333333,4,3,0,100,1,0

[Colours]
Combo1 : 237,82,118
Combo2 : 255,255,255

[HitObjects]
320,196,285,6,0,P|496:152|400:244,1,490
402,152,1618,2,0,B|318:124|318:124|230:224|142:120,1,280
76,164,2452,2,0,B|40:144|40:144|8:144,2,70
304,304,2952,6,0,B|300:216|336:112|336:112|340:220|320:280,1,350
144,240,4118,1,0,0:0:0:0:
412,204,4452,1,0,0:0:0:0:
96,148,4785,1,0,0:0:0:0:
448,84,5118,2,0,P|372:40|304:52,1,140
96,244,5618,6,0,B|128:364|128:364|188:304|188:304|236:364|236:364|280:308,1,350
416,156,6785,1,0,0:0:0:0:
416,156,7118,2,0,L|328:144,1,70
188,104,7452,1,0,0:0:0:0:
188,104,7785,2,0,L|112:132,1,70
308,244,8118,6,0,B|332:276|388:284|388:284|416:260|388:248,1,140
112,292,8618,1,0,0:0:0:0:
396,96,8785,1,0,0:0:0:0:
204,140,8952,2,0,L|104:116,1,70
308,244,9285,1,0,0:0:0:0:
152,272,9452,6,0,B|128:304|72:312|72:312|44:288|72:276,1,140
368,252,9952,1,0,0:0:0:0:
180,104,10119,1,0,0:0:0:0:
412,92,10286,2,0,L|492:52,1,70
256,328,10618,1,0,0:0:0:0:
256,293,10701,1,0,0:0:0:0:
256,258,10784,1,0,0:0:0:0:
256,192,10952,12,0,13285,0:0:0:0:
384,204,13618,5,0,0:0:0:0:
284,172,13785,2,0,L|152:192,1,105.000004005432
80,216,14118,2,0,B|84:176|84:176|104:148|104:148|112:92,2,105.000004005432
176,260,14618,2,0,P|256:280|288:336,1,105.000004005432
344,220,14952,6,0,P|385:189|437:185,1,105.000004005432
492,276,15285,1,0,0:0:0:0:
388,320,15452,2,0,B|300:340|300:340|264:328|264:328,1,105.000004005432
208,264,15785,1,0,0:0:0:0:
104,276,15952,2,0,P|42:260|6:221,1,105.000004005432
120,124,16285,5,0,0:0:0:0:
220,92,16452,1,0,0:0:0:0:
320,120,16618,2,0,B|368:144|368:144|436:144,1,105.000004005432
416,248,16952,2,0,B|364:248|364:248|316:272,1,105.000004005432
244,196,17285,2,0,L|120:196,1,105.000004005432
264,100,17618,6,0,P|320:128|341:175,1,105.000004005432
228,280,17952,2,0,P|172:252|151:205,1,105.000004005432
312,232,18285,2,0,B|392:240|392:240|420:264,1,105.000004005432
200,152,18618,2,0,B|120:144|120:144|92:120,1,105.000004005432
248,64,18952,5,0,0:0:0:0:
340,112,19118,2,0,B|356:144|356:144|384:160|384:160|404:196,1,105.000004005432
332,272,19452,2,0,P|280:304|232:304,2,105.000004005432
256,200,19952,2,0,P|224:148|176:120,1,105.000004005432
340,88,20285,6,0,P|372:40|420:16,1,105.000004005432
448,116,20618,1,0,0:0:0:0:
376,192,20785,2,0,P|312:232|272:240,1,105.000004005432
192,188,21118,1,0,0:0:0:0:
92,216,21285,2,0,B|72:268|72:268|88:328,1,105.000004005432
236,356,21618,5,0,0:0:0:0:
336,328,21785,1,0,0:0:0:0:
436,360,21952,2,0,P|500:312|512:264,1,105.000004005432
428,220,22285,2,0,P|404:143|363:115,1,105.000004005432
288,164,22618,2,0,P|208:159|168:188,1,105.000004005432
68,68,22952,5,0,0:0:0:0:
68,68,23035,1,0,0:0:0:0:
68,68,23118,1,0,0:0:0:0:
68,68,23202,1,0,0:0:0:0:
68,68,23285,1,0,0:0:0:0:
68,68,23368,1,0,0:0:0:0:
68,68,23452,1,0,0:0:0:0:
68,68,23535,1,0,0:0:0:0:
68,68,23618,5,0,0:0:0:0:
96,96,23702,1,0,0:0:0:0:
88,136,23785,1,0,0:0:0:0:
60,164,23868,1,0,0:0:0:0:
48,204,23952,1,0,0:0:0:0:
52,244,24035,1,0,0:0:0:0:
68,280,24118,2,0,B|100:292|100:292|152:268|204:300,1,105.000004005432
324,340,24452,6,0,P|352:320|372:272,1,70
320,84,24785,1,0,0:0:0:0:
296,109,24868,1,0,0:0:0:0:
287,143,24952,2,0,B|236:128|236:128|192:152|136:124,1,140
240,248,25452,1,0,0:0:0:0:
408,108,25618,5,0,0:0:0:0:
192,64,25785,1,0,0:0:0:0:
352,260,25952,1,0,0:0:0:0:
368,24,26118,2,0,P|336:57|322:108,1,70
192,280,26452,1,0,0:0:0:0:
192,280,26535,1,0,0:0:0:0:
192,280,26618,2,0,P|184:235|156:194,1,70
40,104,26952,5,0,0:0:0:0:
128,52,27118,2,0,P|176:44|212:44,2,70
188,144,27618,2,0,P|228:160|248:188,1,70
340,232,27952,1,0,0:0:0:0:
352,36,28118,6,0,P|316:44|280:80,1,70
468,172,28452,2,0,P|479:136|465:87,1,70
284,192,28785,2,0,P|308:219|358:232,1,70
320,344,29118,2,0,B|253:328|215:282|215:282|165:272|113:304,1,210
96,76,29785,6,0,P|56:68|20:80,2,70
200,104,30285,1,0,0:0:0:0:
296,16,30452,2,0,P|308:80|300:116,1,70
424,124,30785,2,0,P|472:116|516:124,1,70
356,192,31118,2,0,P|312:184|276:188,1,70
132,116,31452,2,0,P|168:104|208:104,1,70
52,48,31785,2,0,P|-4:40|-36:48,1,70
96,204,32118,5,0,0:0:0:0:
96,204,32202,1,0,0:0:0:0:
96,204,32285,2,0,L|176:216,1,70
352,172,32618,1,0,0:0:0:0:
192,68,32785,1,0,0:0:0:0:
391,249,32952,2,0,P|436:197|427:126,1,140
76,240,33452,5,0,0:0:0:0:
76,240,33535,1,0,0:0:0:0:
76,240,33619,2,0,L|142:217,1,70
336,272,33952,1,0,0:0:0:0:
156,364,34118,1,0,0:0:0:0:
312,192,34285,2,0,P|379:207|421:283,1,140
316,112,34785,6,0,B|259:111|235:164|235:164|192:128|192:128,1,140
80,88,35285,1,0,0:0:0:0:
80,88,35618,2,0,B|44:176|44:176|56:232|56:232,1,140
205,139,36118,2,0,B|240:56|240:56|228:0|230:12,2,140
48,220,37118,2,0,P|90:282|166:309,1,140
252,140,37618,6,0,P|192:152|168:172,1,70
360,200,37952,1,0,0:0:0:0:
360,200,38285,1,0,0:0:0:0:
360,200,38452,2,0,B|396:232|396:232|496:260|496:260,1,140
276,256,38952,1,0,0:0:0:0:
184,292,39118,1,0,0:0:0:0:
100,240,39285,1,0,0:0:0:0:
12,284,39452,1,0,0:0:0:0:
132,82,39785,6,0,P|155:44|195:18,2,70
208,176,40285,2,0,B|256:196|256:196|308:288|400:264|400:264,1,210
464,84,40952,2,0,P|412:92|376:120,1,70
304,140,41285,1,0,0:0:0:0:
208,92,41452,2,0,P|128:124|128:124,1,70
208,176,41785,2,0,P|128:208|128:208,1,70
208,260,42118,2,0,P|128:292|128:292,1,70
208,344,42452,2,0,P|128:376|128:376,1,70
332,268,42785,6,0,B|368:256|368:256|404:208|404:208,1,70
432,128,43118,1,0,0:0:0:0:
432,128,43285,1,0,0:0:0:0:
236,60,43618,1,0,0:0:0:0:
236,60,43784,1,0,0:0:0:0:
176,124,43952,2,0,B|144:148|144:148|88:152|88:152,1,70
208,252,44285,5,0,0:0:0:0:
240,240,44368,1,0,0:0:0:0:
274,245,44451,1,0,0:0:0:0:
400,328,44618,2,0,P|348:344|320:336,1,70
384,212,44952,2,0,B|455:202|509:273|509:273,1,140
196,124,45618,6,0,B|172:100|172:100|104:88|56:128,1,140
104,200,46118,1,0,0:0:0:0:
192,228,46285,2,0,P|224:232|276:212,1,70
392,104,46618,1,0,0:0:0:0:
392,104,46785,6,0,P|348:100|308:120,1,70
228,60,47118,2,0,P|196:84|180:116,1,70
76,148,47452,2,0,P|72:188|88:224,1,70
176,264,47785,1,0,0:0:0:0:
210,258,47868,1,0,0:0:0:0:
244,266,47951,1,0,0:0:0:0:
320,304,48118,1,0,0:0:0:0:
320,304,48285,6,0,B|344:280|344:280|412:268|460:308,1,140
382,202,48785,2,0,B|343:198|302:218|302:218|283:237|283:237|239:218,1,140
148,176,49285,1,0,0:0:0:0:
108,68,49452,6,0,L|208:88,1,70
332,136,49785,2,0,L|240:152,1,70
128,212,50118,2,0,L|228:232,1,70
352,256,50452,1,0,0:0:0:0:
363,288,50535,1,0,0:0:0:0:
356,322,50618,1,0,0:0:0:0:
264,284,50785,1,0,0:0:0:0:
336,232,50952,6,0,P|364:140|256:88,1,210
184,124,51618,2,0,P|132:120|112:116,2,70
280,172,52118,2,0,B|276:196|232:216|232:216|216:260|232:308,1,140
344,348,52618,2,0,P|396:348|432:328,1,70
440,200,52952,2,0,P|436:165|427:131,2,70
280,172,53452,5,0,0:0:0:0:
262,168,53535,1,0,0:0:0:0:
248,164,53618,2,0,B|232:160|232:160|156:152,1,70
8,224,53952,1,0,0:0:0:0:
204,312,54118,1,0,0:0:0:0:
312,256,54285,2,0,P|360:200|348:117,1,140
64,106,54785,5,0,0:0:0:0:
82,102,54868,1,0,0:0:0:0:
96,98,54952,2,0,B|112:94|112:94|188:86,1,70
358,136,55285,1,0,0:0:0:0:
195,229,55452,1,0,0:0:0:0:
81,187,55618,2,0,B|73:230|73:230|84:289|84:289|77:327,1,140
171,122,56118,1,0,0:0:0:0:
171,122,56202,1,0,0:0:0:0:
171,122,56285,2,0,L|247:113,1,70
400,57,56618,1,0,0:0:0:0:
416,45,56952,6,0,P|467:35|510:37,2,70
360,160,57452,2,0,L|375:251,1,70
303,341,57785,2,0,B|280:327|280:327|221:323,1,70
44,219,58118,1,0,0:0:0:0:
44,219,58202,1,0,0:0:0:0:
44,219,58285,2,0,B|69:232|69:232|111:235,1,70
245,195,58618,2,0,P|254:153|245:102,1,70
132,71,58952,2,0,L|52:91,1,70
227,2,59285,2,0,L|310:7,1,70
414,83,59618,6,0,B|428:123|419:169|419:168,1,70
457,247,59952,1,0,0:0:0:0:
352,227,60118,1,0,0:0:0:0:
352,227,60202,1,0,0:0:0:0:
352,227,60285,2,0,P|295:243|262:240,2,70
