osu file format v14

[General]
AudioFilename: audio.ogg
AudioLeadIn: 0
PreviewTime: 18275
Countdown: 0
SampleSet: Soft
StackLeniency: 0.7
Mode: 3
LetterboxInBreaks: 0
SpecialStyle: 0
WidescreenStoryboard: 1

[Editor]
DistanceSpacing: 1.6
BeatDivisor: 4
GridSize: 32
TimelineZoom: 2

[Metadata]
Title:The Nightmare Woods (Run Run Rottytops!)
TitleUnicode:The Nightmare Woods (Run Run Rottytops!)
Artist:Jake Kaufman
ArtistUnicode:Jake Kaufman
Creator:icouldentthink
Version:Hard
Source:Shantae and the Pirate's Curse
Tags:video game instrumental ost soundtrack virt wayforward technologies indie pirates electronic chiptune official tdg andreychomik
BeatmapID:4357762
BeatmapSetID:2080049

[Difficulty]
HPDrainRate:8
CircleSize:4
OverallDifficulty:8
ApproachRate:5
SliderMultiplier:1.4
SliderTickRate:1

[Events]
//Background and Video events
0,0,"bg.jpg",0,0
//Break Periods
//Storyboard Layer 0 (Background)
//Storyboard Layer 1 (Fail)
//Storyboard Layer 2 (Pass)
//Storyboard Layer 3 (Foreground)
//Storyboard Layer 4 (Overlay)
//Storyboard Sound Samples

[TimingPoints]
172,413.793103448276,4,2,1,70,1,0
1827,-100,4,2,1,90,0,0
5137,-100,4,2,1,80,0,0
18378,-100,4,2,1,90,0,1
28309,-100,4,2,1,80,0,0
33275,-100,4,2,1,90,0,0
39896,-100,4,2,1,80,0,0
53137,-100,4,2,1,90,0,1
63068,-100,4,2,1,80,0,0
66378,-100,4,2,1,70,0,0
66792,-100,4,2,1,65,0,0
67206,-100,4,2,1,60,0,0
67620,-100,4,2,1,55,0,0
68034,-100,4,2,1,50,0,0

[HitObjects]
64,192,172,1,0,0:0:0:90:HIT_6.wav
448,192,172,1,0,0:0:0:0:
192,192,275,1,0,0:0:0:0:
320,192,378,1,0,0:0:0:0:
448,192,482,1,0,0:0:0:0:
64,192,585,1,0,0:0:0:0:
192,192,689,1,0,0:0:0:0:
320,192,792,1,0,0:0:0:0:
448,192,896,1,0,0:0:0:0:
64,192,999,1,0,0:0:0:0:
192,192,1103,1,0,0:0:0:0:
320,192,1206,1,0,0:0:0:0:
448,192,1309,1,0,0:0:0:0:
64,192,1413,1,0,0:0:0:0:
192,192,1482,1,0,0:0:0:0:
448,192,1551,1,0,0:0:0:0:
320,192,1620,1,0,0:0:0:0:
64,192,1689,1,0,0:0:0:0:
192,192,1758,1,0,0:0:0:0:
320,192,1827,1,6,0:0:0:0:
448,192,1827,1,0,0:0:0:60:FPC Glass Bell.wav
64,192,2034,1,8,0:0:0:0:
192,192,2137,1,8,0:0:0:0:
64,192,2240,1,2,0:0:0:0:
320,192,2240,1,0,0:0:0:60:FPC Glass Bell.wav
448,192,2240,1,0,0:0:0:0:
320,192,2447,1,8,0:0:0:0:
64,192,2654,1,2,0:0:0:0:
192,192,2654,1,0,0:0:0:60:FPC Glass Bell.wav
448,192,2654,1,0,0:0:0:0:
320,192,2861,1,8,0:0:0:0:
192,192,2965,1,8,0:0:0:0:
64,192,3068,1,2,0:0:0:0:
320,192,3068,1,0,0:0:0:60:FPC Glass Bell.wav
448,192,3068,1,0,0:0:0:0:
448,192,3275,1,8,0:0:0:0:
64,192,3482,1,2,0:0:0:0:
192,192,3482,1,0,0:0:0:60:FPC Glass Bell.wav
320,192,3482,1,0,0:0:0:0:
64,192,3689,1,8,0:0:0:0:
192,192,3792,1,8,0:0:0:0:
64,192,3896,1,2,0:0:0:0:
320,192,3896,1,0,0:0:0:60:FPC Glass Bell.wav
448,192,3896,1,0,0:0:0:0:
320,192,4103,1,8,0:0:0:0:
64,192,4309,1,2,0:0:0:0:
192,192,4309,1,0,0:0:0:60:FPC Glass Bell.wav
448,192,4309,1,0,0:0:0:0:
320,192,4516,1,2,0:0:0:0:
448,192,4516,1,0,0:0:0:0:
192,192,4620,1,2,0:0:0:0:
64,192,4723,1,0,0:0:0:70:HIT_2.wav
320,192,4723,1,0,0:0:0:0:
448,192,4723,1,0,0:0:0:0:
64,192,4930,1,0,0:0:0:70:Grv Snareclap 02.wav
320,192,4930,1,0,0:0:0:0:
192,192,5137,1,2,0:0:0:0:
448,192,5137,1,0,0:0:0:0:
64,192,5344,1,8,0:0:0:0:
192,192,5447,1,8,0:0:0:0:
320,192,5551,1,2,0:0:0:0:
448,192,5551,1,0,0:0:0:0:
64,192,5758,1,8,0:0:0:0:
320,192,5965,1,2,0:0:0:0:
448,192,5965,1,0,0:0:0:0:
192,192,6172,1,8,0:0:0:0:
64,192,6275,1,8,0:0:0:0:
320,192,6378,1,2,0:0:0:0:
448,192,6378,1,0,0:0:0:0:
64,192,6585,1,8,0:0:0:0:
320,192,6792,1,2,0:0:0:0:
448,192,6792,1,0,0:0:0:0:
64,192,6999,1,8,0:0:0:0:
192,192,7103,1,8,0:0:0:0:
320,192,7206,1,2,0:0:0:0:
448,192,7206,1,0,0:0:0:0:
64,192,7309,1,0,0:0:0:0:
448,192,7413,1,8,0:0:0:0:
64,192,7516,1,8,0:0:0:0:
320,192,7620,1,2,0:0:0:0:
448,192,7620,1,0,0:0:0:0:
192,192,7827,1,8,0:0:0:0:
320,192,7930,1,0,0:0:0:0:
64,192,8034,1,8,0:0:0:0:
448,192,8034,1,2,0:0:0:0:
320,192,8240,1,0,0:0:0:0:
64,192,8447,1,2,0:0:0:0:
192,192,8447,1,0,0:0:0:0:
320,192,8654,1,8,0:0:0:0:
448,192,8758,1,8,0:0:0:0:
64,192,8861,1,2,0:0:0:0:
192,192,8861,1,0,0:0:0:0:
448,192,9068,1,8,0:0:0:0:
64,192,9275,1,2,0:0:0:0:
192,192,9275,1,0,0:0:0:0:
448,192,9482,1,8,0:0:0:0:
320,192,9585,1,8,0:0:0:0:
64,192,9689,1,2,0:0:0:0:
192,192,9689,1,0,0:0:0:0:
448,192,9896,1,8,0:0:0:0:
64,192,10103,1,2,0:0:0:0:
192,192,10103,1,0,0:0:0:0:
320,192,10309,1,8,0:0:0:0:
448,192,10413,1,8,0:0:0:0:
64,192,10516,1,2,0:0:0:0:
192,192,10516,1,0,0:0:0:0:
320,192,10723,1,8,0:0:0:0:
448,192,10723,1,0,0:0:0:0:
64,192,10930,1,2,0:0:0:0:
192,192,10930,1,0,0:0:0:0:
448,192,11034,1,0,0:0:0:0:
192,192,11137,1,8,0:0:0:0:
320,192,11137,1,2,0:0:0:0:
64,192,11240,1,0,0:0:0:0:
320,192,11344,1,8,0:0:0:0:
448,192,11344,1,2,0:0:0:0:
64,192,11551,1,0,0:0:0:0:
192,192,11620,1,0,0:0:0:0:
320,192,11689,1,0,0:0:0:0:
64,192,11758,1,2,0:0:0:0:
448,192,11758,1,0,0:0:0:0:
320,192,11965,1,8,0:0:0:0:
192,192,12068,1,8,0:0:0:0:
64,192,12172,1,2,0:0:0:0:
448,192,12172,1,0,0:0:0:0:
192,192,12378,1,8,0:0:0:0:
64,192,12585,1,2,0:0:0:0:
448,192,12585,1,0,0:0:0:0:
192,192,12792,1,8,0:0:0:0:
320,192,12896,1,8,0:0:0:0:
64,192,12999,1,2,0:0:0:0:
448,192,12999,1,0,0:0:0:0:
320,192,13206,1,8,0:0:0:0:
64,192,13413,1,2,0:0:0:0:
448,192,13413,1,0,0:0:0:0:
320,192,13620,1,8,0:0:0:0:
192,192,13723,1,8,0:0:0:0:
64,192,13827,1,2,0:0:0:0:
448,192,13827,1,0,0:0:0:0:
192,192,13930,1,0,0:0:0:0:
320,192,14034,1,8,0:0:0:0:
192,192,14137,1,0,0:0:0:0:
64,192,14240,1,2,0:0:0:0:
448,192,14240,1,0,0:0:0:0:
320,192,14447,1,8,0:0:0:0:
64,192,14654,1,2,0:0:0:0:
448,192,14654,1,8,0:0:0:0:
192,192,14861,1,0,0:0:0:0:
64,192,15068,1,2,0:0:0:0:
320,192,15068,1,0,0:0:0:80:Grv Snareclap 02.wav
448,192,15068,1,0,0:0:0:0:
320,192,15275,1,2,0:0:0:0:
448,192,15275,1,0,0:0:0:80:Grv Snareclap 02.wav
64,192,15482,1,2,0:0:0:0:
192,192,15482,1,0,0:0:0:80:Grv Snareclap 02.wav
448,192,15482,1,0,0:0:0:0:
64,192,15689,1,2,0:0:0:0:
192,192,15689,1,0,0:0:0:80:Grv Snareclap 02.wav
64,192,15896,1,0,0:0:0:30:VidG Slide SFX.wav
320,192,15896,1,0,0:0:0:0:
448,192,15896,1,0,0:0:0:0:
192,192,16103,1,0,0:0:0:70:Grv Snareclap 02.wav
320,192,16206,1,0,0:0:0:70:Grv Snareclap 02.wav
64,192,16309,1,0,0:0:0:100:HIT_6.wav
192,192,16309,1,0,0:0:0:0:
448,192,16309,1,0,0:0:0:0:
192,192,16723,1,2,0:0:0:0:
320,192,16723,1,0,0:0:0:0:
448,192,16723,1,0,0:0:0:0:
64,192,16930,1,8,0:0:0:0:
192,192,17034,1,8,0:0:0:0:
64,192,17137,1,2,0:0:0:0:
320,192,17137,1,0,0:0:0:0:
448,192,17137,1,0,0:0:0:0:
320,192,17344,1,8,0:0:0:0:
64,192,17551,1,2,0:0:0:0:
192,192,17551,1,0,0:0:0:0:
448,192,17551,1,0,0:0:0:0:
64,192,17758,1,8,0:0:0:0:
192,192,17827,1,0,0:0:0:0:
320,192,17896,1,0,0:0:0:0:
64,192,17965,1,8,0:0:0:0:
448,192,17965,1,0,0:0:0:90:PERC_Isle Mallet_C4.wav
448,192,18172,1,0,0:0:0:0:
64,192,18378,1,2,0:0:0:0:
192,192,18378,1,0,0:0:0:0:
320,192,18585,1,8,0:0:0:0:
192,192,18689,1,8,0:0:0:0:
64,192,18792,1,2,0:0:0:0:
448,192,18792,1,0,0:0:0:0:
320,192,18896,1,0,0:0:0:0:
448,192,18999,1,8,0:0:0:0:
320,192,19103,1,0,0:0:0:0:
64,192,19206,1,2,0:0:0:0:
192,192,19206,1,0,0:0:0:0:
320,192,19413,1,8,0:0:0:0:
448,192,19516,1,8,0:0:0:0:
64,192,19620,1,2,0:0:0:0:
192,192,19620,1,0,0:0:0:0:
64,192,19827,1,8,0:0:0:0:
320,192,20034,1,2,0:0:0:0:
448,192,20034,1,0,0:0:0:0:
192,192,20240,1,8,0:0:0:0:
320,192,20344,1,8,0:0:0:0:
64,192,20447,1,2,0:0:0:0:
448,192,20447,1,0,0:0:0:0:
192,192,20551,1,0,0:0:0:0:
64,192,20654,1,8,0:0:0:0:
192,192,20758,1,0,0:0:0:0:
320,192,20861,1,2,0:0:0:0:
448,192,20861,1,0,0:0:0:0:
192,192,21068,1,8,0:0:0:0:
64,192,21172,1,8,0:0:0:0:
320,192,21275,1,2,0:0:0:0:
448,192,21275,1,0,0:0:0:0:
448,192,21482,1,8,0:0:0:0:
64,192,21689,1,2,0:0:0:0:
192,192,21689,1,0,0:0:0:0:
320,192,21896,1,8,0:0:0:0:
192,192,21999,1,8,0:0:0:0:
64,192,22103,1,2,0:0:0:0:
448,192,22103,1,0,0:0:0:0:
320,192,22206,1,0,0:0:0:0:
448,192,22309,1,8,0:0:0:0:
320,192,22413,1,0,0:0:0:0:
64,192,22516,1,2,0:0:0:0:
192,192,22516,1,0,0:0:0:0:
320,192,22723,1,8,0:0:0:0:
448,192,22827,1,8,0:0:0:0:
64,192,22930,1,2,0:0:0:0:
192,192,22930,1,0,0:0:0:0:
320,192,23034,1,0,0:0:0:0:
64,192,23137,1,8,0:0:0:0:
192,192,23344,1,2,0:0:0:0:
448,192,23344,1,0,0:0:0:0:
320,192,23447,1,0,0:0:0:0:
448,192,23551,1,8,0:0:0:0:
320,192,23654,1,8,0:0:0:0:
64,192,23758,1,2,0:0:0:0:
448,192,23758,1,0,0:0:0:0:
192,192,23861,1,0,0:0:0:0:
64,192,23965,1,8,0:0:0:0:
192,192,24068,1,0,0:0:0:0:
64,192,24172,1,2,0:0:0:0:
320,192,24172,1,0,0:0:0:80:Grv Snareclap 02.wav
448,192,24172,1,0,0:0:0:0:
320,192,24378,1,2,0:0:0:0:
448,192,24378,1,0,0:0:0:80:Grv Snareclap 02.wav
64,192,24585,1,2,0:0:0:0:
192,192,24585,1,0,0:0:0:80:Grv Snareclap 02.wav
448,192,24585,1,0,0:0:0:0:
64,192,24792,1,0,0:0:0:0:
192,192,24999,1,2,0:0:0:0:
448,192,24999,1,0,0:0:0:0:
192,192,25206,1,8,0:0:0:0:
320,192,25309,1,8,0:0:0:0:
64,192,25413,1,2,0:0:0:0:
448,192,25413,1,0,0:0:0:0:
192,192,25516,1,0,0:0:0:0:
64,192,25620,1,8,0:0:0:0:
192,192,25723,1,0,0:0:0:0:
64,192,25827,1,2,0:0:0:0:
448,192,25827,1,0,0:0:0:0:
320,192,26034,1,8,0:0:0:0:
192,192,26137,1,8,0:0:0:0:
320,192,26240,1,2,0:0:0:0:
448,192,26240,1,0,0:0:0:0:
448,192,26447,1,8,0:0:0:0:
64,192,26654,1,2,0:0:0:0:
192,192,26654,1,0,0:0:0:0:
320,192,26861,1,8,0:0:0:0:
192,192,26965,1,8,0:0:0:0:
64,192,27068,1,2,0:0:0:0:
448,192,27068,1,0,0:0:0:0:
320,192,27172,1,0,0:0:0:0:
448,192,27275,1,8,0:0:0:0:
320,192,27378,1,0,0:0:0:0:
64,192,27482,1,2,0:0:0:0:
192,192,27482,1,0,0:0:0:0:
448,192,27482,1,0,0:0:0:0:
192,192,27689,1,8,0:0:0:0:
320,192,27792,1,8,0:0:0:0:
64,192,27896,1,2,0:0:0:0:
192,192,27896,1,0,0:0:0:0:
448,192,27896,1,0,0:0:0:0:
64,192,28103,1,8,0:0:0:0:
192,192,28309,1,2,0:0:0:0:
320,192,28309,1,0,0:0:0:0:
448,192,28309,1,0,0:0:0:0:
64,192,28516,1,8,0:0:0:0:
320,192,28620,1,8,0:0:0:0:
64,192,28723,1,2,0:0:0:0:
192,192,28723,1,0,0:0:0:0:
320,192,28930,1,8,0:0:0:0:
64,192,29137,1,2,0:0:0:0:
192,192,29137,1,0,0:0:0:80:Grv Snareclap 02.wav
448,192,29137,1,0,0:0:0:0:
320,192,29344,1,2,0:0:0:0:
448,192,29344,1,0,0:0:0:80:Grv Snareclap 02.wav
64,192,29551,1,2,0:0:0:0:
192,192,29551,1,0,0:0:0:80:Grv Snareclap 02.wav
320,192,29551,1,0,0:0:0:0:
192,192,29965,1,8,0:0:0:0:
448,192,29965,1,2,0:0:0:0:
320,192,30068,1,0,0:0:0:0:
448,192,30172,1,0,0:0:0:0:
192,192,30275,1,8,0:0:0:0:
64,192,30378,1,8,0:0:0:0:
320,192,30378,1,2,0:0:0:0:
192,192,30482,1,0,0:0:0:0:
64,192,30585,1,8,0:0:0:0:
192,192,30792,1,2,0:0:0:0:
320,192,30792,1,0,0:0:0:80:Grv Snareclap 02.wav
448,192,30792,1,0,0:0:0:0:
64,192,30999,1,2,0:0:0:0:
448,192,30999,1,0,0:0:0:80:Grv Snareclap 02.wav
64,192,31206,1,2,0:0:0:0:
192,192,31206,1,0,0:0:0:80:Grv Snareclap 02.wav
320,192,31206,1,0,0:0:0:0:
64,192,31620,1,2,0:0:0:0:
320,192,31620,1,8,0:0:0:0:
192,192,31723,1,0,0:0:0:0:
64,192,31827,1,0,0:0:0:0:
320,192,31930,1,8,0:0:0:0:
192,192,32034,1,2,0:0:0:0:
448,192,32034,1,8,0:0:0:0:
320,192,32137,1,0,0:0:0:0:
448,192,32240,1,8,0:0:0:0:
64,192,32447,1,2,0:0:0:0:
192,192,32447,1,0,0:0:0:80:Grv Snareclap 02.wav
320,192,32447,1,0,0:0:0:0:
64,192,32654,1,2,0:0:0:0:
448,192,32654,1,0,0:0:0:80:Grv Snareclap 02.wav
192,192,32861,1,4,0:0:0:0:
320,192,32861,1,2,0:0:0:0:
448,192,32861,1,0,0:0:0:80:Grv Snareclap 02.wav
64,192,33275,1,2,0:0:0:0:
192,192,33275,1,0,0:0:0:60:FPC Glass Bell.wav
448,192,33275,1,0,0:0:0:0:
320,192,33482,1,8,0:0:0:0:
192,192,33585,1,8,0:0:0:0:
64,192,33689,1,2,0:0:0:0:
320,192,33689,1,0,0:0:0:60:FPC Glass Bell.wav
448,192,33689,1,0,0:0:0:0:
448,192,33896,1,8,0:0:0:0:
64,192,34103,1,2,0:0:0:0:
192,192,34103,1,0,0:0:0:60:FPC Glass Bell.wav
320,192,34103,1,0,0:0:0:0:
64,192,34309,1,8,0:0:0:0:
192,192,34413,1,8,0:0:0:0:
64,192,34516,1,2,0:0:0:0:
320,192,34516,1,0,0:0:0:60:FPC Glass Bell.wav
448,192,34516,1,0,0:0:0:0:
320,192,34723,1,8,0:0:0:0:
64,192,34930,1,2,0:0:0:0:
192,192,34930,1,0,0:0:0:60:FPC Glass Bell.wav
448,192,34930,1,0,0:0:0:0:
448,192,35137,1,8,0:0:0:0:
320,192,35240,1,8,0:0:0:0:
64,192,35344,1,2,0:0:0:0:
192,192,35344,1,0,0:0:0:60:FPC Glass Bell.wav
448,192,35344,1,0,0:0:0:0:
192,192,35551,1,8,0:0:0:0:
64,192,35758,1,2,0:0:0:0:
320,192,35758,1,0,0:0:0:60:FPC Glass Bell.wav
448,192,35758,1,0,0:0:0:0:
192,192,35965,1,8,0:0:0:0:
320,192,36068,1,8,0:0:0:0:
64,192,36172,1,2,0:0:0:0:
192,192,36172,1,0,0:0:0:60:FPC Glass Bell.wav
448,192,36172,1,0,0:0:0:0:
64,192,36378,1,8,0:0:0:0:
192,192,36585,1,2,0:0:0:0:
320,192,36585,1,0,0:0:0:60:FPC Glass Bell.wav
448,192,36585,1,0,0:0:0:0:
64,192,36792,1,8,0:0:0:0:
192,192,36896,1,8,0:0:0:0:
64,192,36999,1,2,0:0:0:0:
320,192,36999,1,0,0:0:0:60:FPC Glass Bell.wav
448,192,36999,1,0,0:0:0:0:
448,192,37206,1,8,0:0:0:0:
64,192,37413,1,2,0:0:0:0:
192,192,37413,1,0,0:0:0:60:FPC Glass Bell.wav
320,192,37413,1,0,0:0:0:0:
448,192,37620,1,8,0:0:0:0:
320,192,37723,1,8,0:0:0:0:
64,192,37827,1,2,0:0:0:0:
192,192,37827,1,0,0:0:0:60:FPC Glass Bell.wav
448,192,37827,1,0,0:0:0:0:
192,192,38034,1,8,0:0:0:0:
64,192,38240,1,2,0:0:0:0:
320,192,38240,1,0,0:0:0:60:FPC Glass Bell.wav
448,192,38240,1,0,0:0:0:0:
64,192,38447,1,8,0:0:0:0:
192,192,38551,1,8,0:0:0:0:
64,192,38654,1,2,0:0:0:0:
320,192,38654,1,0,0:0:0:60:FPC Glass Bell.wav
448,192,38654,1,0,0:0:0:0:
320,192,38861,1,8,0:0:0:0:
64,192,39068,1,2,0:0:0:0:
192,192,39068,1,0,0:0:0:60:FPC Glass Bell.wav
448,192,39068,1,0,0:0:0:0:
64,192,39275,1,2,0:0:0:0:
192,192,39275,1,0,0:0:0:0:
320,192,39378,1,2,0:0:0:0:
64,192,39482,1,0,0:0:0:80:HIT_2.wav
192,192,39482,1,0,0:0:0:0:
448,192,39482,1,0,0:0:0:0:
320,192,39689,1,0,0:0:0:70:Grv Snareclap 02.wav
448,192,39689,1,0,0:0:0:0:
64,192,39896,1,2,0:0:0:0:
192,192,39896,1,0,0:0:0:0:
448,192,40103,1,8,0:0:0:0:
320,192,40206,1,8,0:0:0:0:
64,192,40309,1,2,0:0:0:0:
192,192,40309,1,0,0:0:0:0:
448,192,40516,1,8,0:0:0:0:
64,192,40723,1,2,0:0:0:0:
192,192,40723,1,0,0:0:0:0:
320,192,40930,1,8,0:0:0:0:
448,192,41034,1,8,0:0:0:0:
64,192,41137,1,2,0:0:0:0:
192,192,41137,1,0,0:0:0:0:
448,192,41344,1,8,0:0:0:0:
64,192,41551,1,2,0:0:0:0:
192,192,41551,1,0,0:0:0:0:
448,192,41758,1,8,0:0:0:0:
320,192,41861,1,8,0:0:0:0:
64,192,41965,1,2,0:0:0:0:
192,192,41965,1,0,0:0:0:0:
448,192,42068,1,0,0:0:0:0:
64,192,42172,1,8,0:0:0:0:
448,192,42275,1,8,0:0:0:0:
64,192,42378,1,2,0:0:0:0:
192,192,42378,1,0,0:0:0:0:
320,192,42585,1,8,0:0:0:0:
192,192,42689,1,0,0:0:0:0:
64,192,42792,1,8,0:0:0:0:
448,192,42792,1,2,0:0:0:0:
192,192,42999,1,0,0:0:0:0:
320,192,43206,1,2,0:0:0:0:
448,192,43206,1,0,0:0:0:0:
64,192,43413,1,8,0:0:0:0:
192,192,43516,1,8,0:0:0:0:
320,192,43620,1,2,0:0:0:0:
448,192,43620,1,0,0:0:0:0:
64,192,43827,1,8,0:0:0:0:
320,192,44034,1,2,0:0:0:0:
448,192,44034,1,0,0:0:0:0:
192,192,44240,1,8,0:0:0:0:
64,192,44344,1,8,0:0:0:0:
320,192,44447,1,2,0:0:0:0:
448,192,44447,1,0,0:0:0:0:
64,192,44654,1,8,0:0:0:0:
320,192,44861,1,2,0:0:0:0:
448,192,44861,1,0,0:0:0:0:
64,192,45068,1,8,0:0:0:0:
192,192,45172,1,8,0:0:0:0:
320,192,45275,1,2,0:0:0:0:
448,192,45275,1,0,0:0:0:0:
64,192,45482,1,8,0:0:0:0:
320,192,45689,1,2,0:0:0:0:
448,192,45689,1,0,0:0:0:0:
64,192,45792,1,0,0:0:0:0:
192,192,45896,1,8,0:0:0:0:
320,192,45896,1,2,0:0:0:0:
448,192,45999,1,0,0:0:0:0:
64,192,46103,1,8,0:0:0:0:
192,192,46103,1,2,0:0:0:0:
448,192,46309,1,0,0:0:0:0:
320,192,46378,1,0,0:0:0:0:
192,192,46447,1,0,0:0:0:0:
64,192,46516,1,2,0:0:0:0:
448,192,46516,1,0,0:0:0:0:
192,192,46723,1,8,0:0:0:0:
320,192,46827,1,8,0:0:0:0:
64,192,46930,1,2,0:0:0:0:
448,192,46930,1,0,0:0:0:0:
192,192,47137,1,8,0:0:0:0:
64,192,47344,1,2,0:0:0:0:
448,192,47344,1,0,0:0:0:0:
320,192,47551,1,8,0:0:0:0:
192,192,47654,1,8,0:0:0:0:
64,192,47758,1,2,0:0:0:0:
448,192,47758,1,0,0:0:0:0:
320,192,47965,1,8,0:0:0:0:
64,192,48172,1,2,0:0:0:0:
448,192,48172,1,0,0:0:0:0:
192,192,48378,1,8,0:0:0:0:
320,192,48482,1,8,0:0:0:0:
64,192,48585,1,2,0:0:0:0:
448,192,48585,1,0,0:0:0:0:
320,192,48689,1,0,0:0:0:0:
192,192,48792,1,8,0:0:0:0:
320,192,48896,1,0,0:0:0:0:
64,192,48999,1,2,0:0:0:0:
448,192,48999,1,0,0:0:0:0:
192,192,49206,1,8,0:0:0:0:
64,192,49413,1,8,0:0:0:0:
448,192,49413,1,2,0:0:0:0:
320,192,49620,1,0,0:0:0:0:
64,192,49827,1,2,0:0:0:0:
192,192,49827,1,0,0:0:0:80:Grv Snareclap 02.wav
448,192,49827,1,0,0:0:0:0:
192,192,50034,1,2,0:0:0:0:
448,192,50034,1,0,0:0:0:80:Grv Snareclap 02.wav
64,192,50240,1,2,0:0:0:0:
192,192,50240,1,0,0:0:0:80:Grv Snareclap 02.wav
448,192,50240,1,0,0:0:0:0:
64,192,50447,1,2,0:0:0:0:
320,192,50447,1,0,0:0:0:80:Grv Snareclap 02.wav
192,192,50654,1,0,0:0:0:30:VidG Slide SFX.wav
320,192,50654,1,0,0:0:0:0:
448,192,50654,1,0,0:0:0:0:
64,192,50861,1,0,0:0:0:70:Grv Snareclap 02.wav
192,192,50965,1,0,0:0:0:70:Grv Snareclap 02.wav
64,192,51068,1,0,0:0:0:100:HIT_6.wav
320,192,51068,1,0,0:0:0:0:
448,192,51068,1,0,0:0:0:0:
192,192,51482,1,2,0:0:0:0:
320,192,51482,1,0,0:0:0:0:
448,192,51482,1,0,0:0:0:0:
448,192,51689,1,8,0:0:0:0:
320,192,51792,1,8,0:0:0:0:
64,192,51896,1,2,0:0:0:0:
192,192,51896,1,0,0:0:0:0:
448,192,51896,1,0,0:0:0:0:
192,192,52103,1,8,0:0:0:0:
64,192,52309,1,2,0:0:0:0:
320,192,52309,1,0,0:0:0:0:
448,192,52309,1,0,0:0:0:0:
448,192,52516,1,8,0:0:0:0:
320,192,52585,1,0,0:0:0:0:
192,192,52654,1,0,0:0:0:0:
64,192,52723,1,8,0:0:0:0:
448,192,52723,1,0,0:0:0:90:PERC_Isle Mallet_C4.wav
64,192,52930,1,0,0:0:0:0:
320,192,53137,1,2,0:0:0:0:
448,192,53137,1,0,0:0:0:0:
192,192,53344,1,8,0:0:0:0:
320,192,53447,1,8,0:0:0:0:
64,192,53551,1,2,0:0:0:0:
448,192,53551,1,0,0:0:0:0:
192,192,53654,1,0,0:0:0:0:
64,192,53758,1,8,0:0:0:0:
192,192,53861,1,0,0:0:0:0:
64,192,53965,1,2,0:0:0:0:
448,192,53965,1,0,0:0:0:0:
320,192,54172,1,8,0:0:0:0:
192,192,54275,1,8,0:0:0:0:
320,192,54378,1,2,0:0:0:0:
448,192,54378,1,0,0:0:0:0:
448,192,54585,1,8,0:0:0:0:
64,192,54792,1,2,0:0:0:0:
192,192,54792,1,0,0:0:0:0:
320,192,54999,1,8,0:0:0:0:
192,192,55103,1,8,0:0:0:0:
64,192,55206,1,2,0:0:0:0:
448,192,55206,1,0,0:0:0:0:
320,192,55309,1,0,0:0:0:0:
448,192,55413,1,8,0:0:0:0:
320,192,55516,1,0,0:0:0:0:
64,192,55620,1,2,0:0:0:0:
448,192,55620,1,0,0:0:0:0:
192,192,55827,1,8,0:0:0:0:
320,192,55930,1,8,0:0:0:0:
64,192,56034,1,2,0:0:0:0:
192,192,56034,1,0,0:0:0:0:
64,192,56240,1,8,0:0:0:0:
192,192,56447,1,2,0:0:0:0:
320,192,56447,1,0,0:0:0:0:
192,192,56654,1,8,0:0:0:0:
320,192,56758,1,8,0:0:0:0:
64,192,56861,1,2,0:0:0:0:
448,192,56861,1,0,0:0:0:0:
192,192,56965,1,0,0:0:0:0:
64,192,57068,1,8,0:0:0:0:
192,192,57172,1,0,0:0:0:0:
64,192,57275,1,2,0:0:0:0:
448,192,57275,1,0,0:0:0:0:
320,192,57482,1,8,0:0:0:0:
192,192,57585,1,8,0:0:0:0:
320,192,57689,1,2,0:0:0:0:
448,192,57689,1,0,0:0:0:0:
448,192,57896,1,8,0:0:0:0:
64,192,58103,1,2,0:0:0:0:
192,192,58103,1,0,0:0:0:0:
320,192,58206,1,0,0:0:0:0:
192,192,58309,1,8,0:0:0:0:
320,192,58413,1,8,0:0:0:0:
64,192,58516,1,2,0:0:0:0:
448,192,58516,1,0,0:0:0:0:
192,192,58620,1,0,0:0:0:0:
64,192,58723,1,8,0:0:0:0:
192,192,58827,1,0,0:0:0:0:
64,192,58930,1,2,0:0:0:0:
320,192,58930,1,0,0:0:0:80:Grv Snareclap 02.wav
448,192,58930,1,0,0:0:0:0:
320,192,59137,1,2,0:0:0:0:
448,192,59137,1,0,0:0:0:80:Grv Snareclap 02.wav
64,192,59344,1,2,0:0:0:0:
192,192,59344,1,0,0:0:0:80:Grv Snareclap 02.wav
448,192,59344,1,0,0:0:0:0:
64,192,59551,1,0,0:0:0:0:
192,192,59758,1,2,0:0:0:0:
320,192,59758,1,0,0:0:0:0:
320,192,59965,1,8,0:0:0:0:
192,192,60068,1,8,0:0:0:0:
64,192,60172,1,2,0:0:0:0:
448,192,60172,1,0,0:0:0:0:
320,192,60275,1,0,0:0:0:0:
448,192,60378,1,8,0:0:0:0:
320,192,60482,1,0,0:0:0:0:
64,192,60585,1,2,0:0:0:0:
448,192,60585,1,0,0:0:0:0:
192,192,60792,1,8,0:0:0:0:
320,192,60896,1,8,0:0:0:0:
64,192,60999,1,2,0:0:0:0:
192,192,60999,1,0,0:0:0:0:
64,192,61206,1,8,0:0:0:0:
192,192,61413,1,2,0:0:0:0:
320,192,61413,1,0,0:0:0:0:
192,192,61620,1,8,0:0:0:0:
320,192,61723,1,8,0:0:0:0:
64,192,61827,1,2,0:0:0:0:
448,192,61827,1,0,0:0:0:0:
192,192,61930,1,0,0:0:0:0:
64,192,62034,1,8,0:0:0:0:
192,192,62137,1,0,0:0:0:0:
64,192,62240,1,2,0:0:0:0:
320,192,62240,1,0,0:0:0:0:
448,192,62240,1,0,0:0:0:0:
192,192,62447,1,8,0:0:0:0:
320,192,62551,1,8,0:0:0:0:
64,192,62654,1,2,0:0:0:0:
192,192,62654,1,0,0:0:0:0:
448,192,62654,1,0,0:0:0:0:
64,192,62861,1,8,0:0:0:0:
192,192,63068,1,2,0:0:0:0:
320,192,63068,1,0,0:0:0:0:
448,192,63068,1,0,0:0:0:0:
448,192,63275,1,8,0:0:0:0:
320,192,63378,1,8,0:0:0:0:
64,192,63482,1,2,0:0:0:0:
192,192,63482,1,0,0:0:0:0:
192,192,63689,1,8,0:0:0:0:
64,192,63896,1,2,0:0:0:0:
320,192,63896,1,0,0:0:0:80:Grv Snareclap 02.wav
448,192,63896,1,0,0:0:0:0:
192,192,64103,1,2,0:0:0:0:
448,192,64103,1,0,0:0:0:80:Grv Snareclap 02.wav
64,192,64309,1,2,0:0:0:0:
192,192,64309,1,0,0:0:0:80:Grv Snareclap 02.wav
320,192,64309,1,0,0:0:0:0:
192,192,64723,1,8,0:0:0:0:
448,192,64723,1,2,0:0:0:0:
320,192,64827,1,0,0:0:0:0:
448,192,64930,1,8,0:0:0:0:
192,192,65034,1,8,0:0:0:0:
64,192,65137,1,2,0:0:0:0:
320,192,65137,1,8,0:0:0:0:
192,192,65240,1,0,0:0:0:0:
64,192,65344,1,8,0:0:0:0:
320,192,65447,1,0,0:0:0:0:
64,192,65551,1,2,0:0:0:0:
192,192,65551,1,0,0:0:0:80:Grv Snareclap 02.wav
448,192,65551,1,0,0:0:0:0:
320,192,65758,1,2,0:0:0:0:
448,192,65758,1,0,0:0:0:80:Grv Snareclap 02.wav
64,192,65965,1,2,0:0:0:0:
192,192,65965,1,0,0:0:0:80:Grv Snareclap 02.wav
320,192,65965,1,0,0:0:0:0:
64,192,66378,1,8,0:0:0:0:
320,192,66378,1,2,0:0:0:0:
192,192,66482,1,0,0:0:0:0:
64,192,66585,1,0,0:0:0:0:
320,192,66689,1,8,0:0:0:0:
192,192,66792,1,8,0:0:0:0:
448,192,66792,1,2,0:0:0:0:
320,192,66896,1,0,0:0:0:0:
448,192,66999,1,8,0:0:0:0:
192,192,67103,1,0,0:0:0:0:
64,192,67206,1,2,0:0:0:0:
320,192,67206,1,0,0:0:0:70:Grv Snareclap 02.wav
448,192,67206,1,0,0:0:0:0:
64,192,67413,1,2,0:0:0:0:
192,192,67413,1,0,0:0:0:70:Grv Snareclap 02.wav
192,192,67620,1,4,0:0:0:0:
320,192,67620,1,2,0:0:0:0:
448,192,67620,1,0,0:0:0:70:Grv Snareclap 02.wav
64,192,68034,1,2,0:0:0:0:
192,192,68034,1,0,0:0:0:60:FPC Glass Bell.wav
