osu file format v14

[General]
AudioFilename: audio.mp3
AudioLeadIn: 0
PreviewTime: 0
Countdown: 0
SampleSet: Normal
StackLeniency: 0.7
Mode: 1
LetterboxInBreaks: 0
WidescreenStoryboard: 1

[Editor]
Bookmarks: 49
DistanceSpacing: 1.8
BeatDivisor: 4
GridSize: 32
TimelineZoom: 1

[Metadata]
Title:The Nightmare Woods (Run Run Rottytops!)
TitleUnicode:The Nightmare Woods (Run Run Rottytops!)
Artist:Jake Kaufman
ArtistUnicode:Jake Kaufman
Creator:The Default Guy
Version:Futsuu
Source:Shantae and the Pirate's Curse
Tags:agu roufou Video Game Instrumental OST soundtrack virt wayforward technologies
BeatmapID:1417000
BeatmapSetID:655825

[Difficulty]
HPDrainRate:8
CircleSize:2
OverallDifficulty:4
ApproachRate:6.6
SliderMultiplier:1.4
SliderTickRate:1

[Events]
//Background and Video events
0,0,"maxresdefault.jpg",0,-8
//Break Periods
//Storyboard Layer 0 (Background)
//Storyboard Layer 1 (Fail)
//Storyboard Layer 2 (Pass)
//Storyboard Layer 3 (Foreground)
//Storyboard Layer 4 (Overlay)
//Storyboard Sound Samples

[TimingPoints]
1992,413.793103448276,4,1,0,90,1,0
1992,-100,4,1,0,60,0,0
18543,-100,4,1,0,60,0,1
28474,-100,4,1,0,60,0,0
53302,-100,4,1,0,60,0,1
63233,-100,4,1,0,60,0,0

[Colours]
Combo1 : 255,255,81
Combo2 : 138,0,100
Combo3 : 0,64,128
Combo4 : 242,24,57

[HitObjects]
256,192,1992,5,4,0:0:0:0:
256,192,2405,1,0,0:0:0:0:
256,192,2819,1,0,0:0:0:0:
256,192,3647,1,0,0:0:0:0:
256,192,4060,1,0,0:0:0:0:
256,192,4474,1,0,0:0:0:0:
256,192,4888,1,12,0:0:0:0:
256,192,5302,1,8,0:0:0:0:
256,192,5923,1,0,0:0:0:0:
256,192,6129,1,2,0:0:0:0:
256,192,6336,1,8,0:0:0:0:
256,192,6543,1,0,0:0:0:0:
256,192,6957,1,4,0:0:0:0:
256,192,7785,1,0,0:0:0:0:
256,192,8198,1,0,0:0:0:0:
256,192,8612,1,0,0:0:0:0:
256,192,9026,1,0,0:0:0:0:
256,192,9440,1,8,0:0:0:0:
256,192,9647,1,10,0:0:0:0:
256,192,9854,1,8,0:0:0:0:
256,192,10267,1,4,0:0:0:0:
270,195,10681,1,0,0:0:0:0:
281,198,11095,1,8,0:0:0:0:
256,192,11509,1,10,0:0:0:0:
256,192,11923,1,0,0:0:0:0:
256,192,12750,1,0,0:0:0:0:
256,192,13164,1,0,0:0:0:0:
256,192,13371,1,8,0:0:0:0:
256,192,13578,1,2,0:0:0:0:
257,274,14405,1,8,0:0:0:0:
276,276,14819,1,0,0:0:0:0:
256,192,15233,1,4,0:0:0:0:
257,274,16060,1,8,0:0:0:0:
256,192,16474,1,0,0:0:0:0:
263,298,16888,1,6,0:0:0:0:
263,298,17302,1,6,0:0:0:0:
197,83,17716,1,4,0:0:0:0:
256,192,18543,1,4,0:0:0:0:
256,192,18957,1,8,0:0:0:0:
256,192,19371,1,0,0:0:0:0:
247,295,19578,1,0,0:0:0:0:
256,192,19785,1,10,0:0:0:0:
256,192,20198,1,0,0:0:0:0:
256,192,20612,1,8,0:0:0:0:
256,192,21026,1,0,0:0:0:0:
246,287,21233,1,0,0:0:0:0:
256,192,21440,1,10,0:0:0:0:
256,192,21854,1,0,0:0:0:0:
256,192,22268,1,10,0:0:0:0:
256,192,22474,1,10,0:0:0:0:
256,192,22681,1,0,0:0:0:0:
256,192,23095,1,10,0:0:0:0:
252,181,23509,1,4,0:0:0:0:
252,181,24336,1,0,0:0:0:0:
252,181,24750,1,8,0:0:0:0:
252,181,24957,1,0,0:0:0:0:
256,192,25164,5,0,0:0:0:0:
256,192,25578,5,10,0:0:0:0:
256,192,25992,1,0,0:0:0:0:
250,312,26198,1,0,0:0:0:0:
256,192,26405,1,10,0:0:0:0:
256,192,26819,1,0,0:0:0:0:
256,192,27233,1,10,0:0:0:0:
256,192,27440,1,0,0:0:0:0:
256,192,27646,1,10,0:0:0:0:
256,192,28060,1,0,0:0:0:0:
256,192,28474,1,12,0:0:0:0:
260,303,29302,1,0,0:0:0:0:
256,192,29716,1,0,0:0:0:0:
246,279,30129,1,8,0:0:0:0:
246,279,30543,1,0,0:0:0:0:
246,279,30957,1,0,0:0:0:0:
246,279,31164,1,8,0:0:0:0:
256,192,31371,1,0,0:0:0:0:
246,279,31785,1,12,0:0:0:0:
246,279,32198,1,0,0:0:0:0:
246,279,32612,1,8,0:0:0:0:
246,279,33026,1,4,0:0:0:0:
259,190,33440,1,4,0:0:0:0:
263,205,33854,1,2,0:0:0:0:
267,189,34267,1,0,0:0:0:0:
267,189,35095,1,0,0:0:0:0:
263,205,35509,1,2,0:0:0:0:
267,189,35923,1,0,0:0:0:0:
263,205,36336,1,2,0:0:0:0:
267,189,36750,1,0,0:0:0:0:
263,205,37164,1,2,0:0:0:0:
267,189,37578,1,0,0:0:0:0:
267,189,38405,1,0,0:0:0:0:
267,189,38819,1,0,0:0:0:0:
267,189,39233,1,0,0:0:0:0:
256,192,39647,5,12,0:0:0:0:
256,192,40060,5,8,0:0:0:0:
256,192,40682,1,0,0:0:0:0:
256,192,40888,1,2,0:0:0:0:
256,192,41095,1,8,0:0:0:0:
256,192,41302,1,0,0:0:0:0:
256,192,41716,1,4,0:0:0:0:
256,192,42543,1,0,0:0:0:0:
256,192,42956,1,0,0:0:0:0:
256,192,43163,1,2,0:0:0:0:
256,192,43370,1,0,0:0:0:0:
256,192,43784,1,0,0:0:0:0:
256,192,44198,1,8,0:0:0:0:
256,192,44405,1,10,0:0:0:0:
256,192,44612,1,8,0:0:0:0:
256,192,45026,1,8,0:0:0:0:
253,205,45854,1,0,0:0:0:0:
266,210,46060,1,0,0:0:0:0:
256,192,46267,1,10,0:0:0:0:
256,192,46681,1,0,0:0:0:0:
256,192,47094,1,0,0:0:0:0:
256,192,47508,1,0,0:0:0:0:
256,192,47922,1,0,0:0:0:0:
256,192,48129,1,0,0:0:0:0:
256,192,48336,1,2,0:0:0:0:
257,274,49163,1,0,0:0:0:0:
255,199,49578,1,8,0:0:0:0:
256,192,49991,1,4,0:0:0:0:
257,274,50405,1,4,0:0:0:0:
257,274,50818,1,8,0:0:0:0:
263,298,51646,1,6,0:0:0:0:
263,298,52060,1,6,0:0:0:0:
197,83,52474,1,4,0:0:0:0:
256,192,53301,1,0,0:0:0:0:
256,192,53715,1,10,0:0:0:0:
256,192,54129,1,0,0:0:0:0:
247,295,54336,1,0,0:0:0:0:
256,192,54543,1,10,0:0:0:0:
256,192,54956,1,0,0:0:0:0:
256,192,55370,1,10,0:0:0:0:
256,192,55784,1,0,0:0:0:0:
246,287,55991,1,0,0:0:0:0:
256,192,56198,1,10,0:0:0:0:
256,192,56612,1,0,0:0:0:0:
256,192,57026,1,10,0:0:0:0:
256,192,57439,1,0,0:0:0:0:
256,192,57853,1,10,0:0:0:0:
259,205,58267,1,0,0:0:0:0:
259,205,59095,1,0,0:0:0:0:
259,205,59509,1,8,0:0:0:0:
259,205,59716,1,0,0:0:0:0:
256,192,59922,5,0,0:0:0:0:
256,192,60336,5,10,0:0:0:0:
256,192,60750,1,0,0:0:0:0:
250,312,60956,1,0,0:0:0:0:
256,192,61163,1,10,0:0:0:0:
256,192,61577,1,0,0:0:0:0:
256,192,62404,1,14,0:0:0:0:
256,192,62818,1,0,0:0:0:0:
256,192,63025,1,0,0:0:0:0:
256,192,63232,1,8,0:0:0:0:
260,303,64060,1,0,0:0:0:0:
256,192,64474,1,0,0:0:0:0:
246,279,64887,1,8,0:0:0:0:
246,279,65301,1,0,0:0:0:0:
246,279,65715,1,0,0:0:0:0:
246,279,65922,1,8,0:0:0:0:
256,192,66129,1,4,0:0:0:0:
246,279,66543,1,8,0:0:0:0:
246,279,66956,1,0,0:0:0:0:
246,279,67371,1,0,0:0:0:0:
246,279,67578,1,0,0:0:0:0:
246,279,67785,1,12,0:0:0:0:
