osu file format v14

[General]
AudioFilename: audio.mp3
AudioLeadIn: 0
PreviewTime: 53695
Countdown: 1
SampleSet: Normal
StackLeniency: 0.7
Mode: 0
LetterboxInBreaks: 0
WidescreenStoryboard: 1

[Editor]
Bookmarks: 2385,68604
DistanceSpacing: 1
BeatDivisor: 4
GridSize: 4
TimelineZoom: 1

[Metadata]
Title:The Nightmare Woods (Run Run Rottytops!)
TitleUnicode:The Nightmare Woods (Run Run Rottytops​!​)
Artist:Jake Kaufman
ArtistUnicode:Jake Kaufman
Creator:ColdTooth
Version:Advanced
Source:Shantae and the Pirate's Curse
Tags:
BeatmapID:1084431
BeatmapSetID:510000

[Difficulty]
HPDrainRate:4.5
CircleSize:3.4
OverallDifficulty:5
ApproachRate:6.4
SliderMultiplier:1.35000000596046
SliderTickRate:1

[Events]
//Background and Video events
0,0,"boobs 2.jpg",0,0
//Break Periods
//Storyboard Layer 0 (Background)
//Storyboard Layer 1 (Fail)
//Storyboard Layer 2 (Pass)
//Storyboard Layer 3 (Foreground)
//Storyboard Sound Samples

[TimingPoints]
730,413.793103448276,4,1,0,70,1,0
18936,-100,4,1,0,70,0,1
33833,-100,4,1,0,70,0,0
53695,-100,4,1,0,70,0,1
66936,-100,4,1,0,70,0,0
67143,-100,4,1,0,60,0,0
67350,-100,4,1,0,50,0,0
67557,-100,4,1,0,40,0,0
67764,-100,4,1,0,30,0,0
67971,-100,4,1,0,20,0,0
68178,-100,4,1,0,40,0,0
68592,-100,4,1,0,10,0,0

[Colours]
Combo1 : 232,185,45
Combo2 : 53,202,113
Combo3 : 176,97,224
Combo4 : 28,128,53

[HitObjects]
256,192,730,12,4,2385,0:0:0:0:
92,64,3212,6,0,P|68:120|88:192,1,135.000000596046,0|4,0:0|3:0,0:0:0:0:
204,248,4040,2,0,P|228:192|208:120,2,135.000000596046,0|4|0,0:0|3:0|0:0,0:0:0:0:
156,296,5074,1,0,0:0:0:0:
88,304,5281,1,10,0:0:0:0:
212,344,5695,6,0,P|248:364|340:352,1,135.000000596046
400,325,6316,1,0,0:0:0:0:
452,283,6523,1,0,0:0:0:0:
461,217,6730,2,0,P|456:192|460:148,1,67.500000298023
468,84,7143,1,0,0:0:0:0:
424,32,7350,6,0,P|384:56|292:48,1,135.000000596046,0|4,0:0|3:0,0:0:0:0:
232,36,7971,2,0,P|232:64|240:108,1,67.500000298023,2|4,2:0|3:0,0:0:0:0:
252,168,8385,1,4,3:0:0:0:
232,232,8592,1,4,3:0:0:0:
280,356,9005,6,0,P|320:368|400:328,2,135.000000596046,0|4|0,0:0|3:0|0:0,0:0:0:0:
148,320,10247,1,4,3:0:0:0:
20,360,10661,2,0,B|28:296|28:296|12:224,1,135.000000596046,2|4,2:0|3:0,0:0:0:0:
8,160,11281,1,4,3:0:0:0:
24,96,11488,2,0,P|60:116|92:116,2,67.500000298023,4|4|4,3:0|3:0|3:0,0:0:0:0:
140,24,12316,6,0,P|196:12|272:40,1,135.000000596046
316,84,12936,1,0,0:0:0:0:
384,84,13143,2,0,P|408:72|436:40,2,67.500000298023
379,152,13764,1,0,0:0:0:0:
400,216,13971,6,0,P|360:280|300:304,1,135.000000596046,0|4,0:0|3:0,0:0:0:0:
240,312,14592,1,2,2:0:0:0:
173,305,14798,2,0,L|105:293,1,67.500000298023,2|4,2:0|3:0,0:0:0:0:
43,312,15212,1,4,3:0:0:0:
36,180,15626,6,0,L|28:112,1,67.500000298023,12|12,3:0|3:0,0:0:0:0:
112,140,16040,2,0,L|104:72,1,67.500000298023,12|12,3:0|3:0,0:0:0:0:
188,100,16454,2,0,L|180:32,2,67.500000298023,12|0|0,3:0|0:0|0:0,0:0:0:0:
320,76,17281,6,0,L|312:144,1,67.500000298023,12|12,3:0|3:0,0:0:0:0:
396,116,17695,2,0,L|388:184,1,67.500000298023,12|12,3:0|3:0,0:0:0:0:
472,156,18109,2,0,L|464:224,2,67.500000298023,12|2|2,3:0|2:0|2:0,0:0:0:0:
320,76,18936,6,0,P|264:112|200:96,1,135.000000596046,4|4,0:0|3:0,0:0:0:0:
140,68,19557,1,0,0:0:0:0:
84,104,19764,2,0,P|76:144|84:172,1,67.500000298023,0|0,0:0|0:0,0:0:0:0:
120,224,20178,2,0,P|128:264|120:292,1,67.500000298023,4|0,3:0|0:0,0:0:0:0:
76,340,20592,6,0,P|128:364|204:356,1,135.000000596046,0|4,0:0|3:0,0:0:0:0:
264,324,21212,1,0,0:0:0:0:
332,328,21419,2,0,L|400:336,2,67.500000298023,0|0|4,0:0|0:0|3:0,0:0:0:0:
384,204,22247,6,0,L|316:196,2,67.500000298023,0|0|4,0:0|0:0|3:0,0:0:0:0:
448,184,22867,1,0,0:0:0:0:
468,120,23074,2,0,P|436:68|368:52,1,135.000000596046,0|4,0:0|3:0,0:0:0:0:
304,72,23695,1,0,0:0:0:0:
240,92,23902,6,0,P|208:96|168:88,1,67.500000298023,2|2,2:0|2:0,0:0:0:0:
112,64,24316,2,0,P|78:58|45:62,1,67.500000298023,4|4,3:0|3:0,0:0:0:0:
4,116,24730,1,4,3:0:0:0:
20,180,24936,2,0,P|28:220|24:256,1,67.500000298023,0|2,0:0|0:0,0:0:0:0:
108,352,25557,6,0,P|152:372|236:344,1,135.000000596046,0|4,0:0|3:0,0:0:0:0:
292,320,26178,1,0,0:0:0:0:
356,336,26385,2,0,L|368:268,1,67.500000298023,0|0,0:0|0:0,0:0:0:0:
400,212,26798,2,0,L|412:144,1,67.500000298023,4|0,3:0|0:0,0:0:0:0:
376,88,27212,2,0,P|344:108|248:92,1,135.000000596046,0|4,0:0|3:0,0:0:0:0:
196,56,27833,1,0,0:0:0:0:
132,36,28040,1,2,2:0:0:0:
44,188,28454,1,2,2:0:0:0:
132,348,28867,6,0,P|160:356|200:352,1,67.500000298023,0|0,0:0|0:0,0:0:0:0:
260,328,29281,2,0,P|293:324|325:332,1,67.500000298023,4|0,3:0|0:0,0:0:0:0:
384,364,29695,1,12,3:0:0:0:
448,348,29902,1,12,3:0:0:0:
476,288,30109,1,12,3:0:0:0:
440,160,30523,6,0,L|472:168,2,33.7500001490115,4|4|4,3:0|3:0|3:0,0:0:0:0:
436,68,30936,2,0,L|404:60,2,33.7500001490115,4|4|4,3:0|3:0|3:0,0:0:0:0:
360,140,31350,1,12,3:0:0:0:
296,124,31557,1,12,3:0:0:0:
232,104,31764,1,12,3:0:0:0:
108,52,32178,6,0,L|112:12,2,33.7500001490115,4|4|4,3:0|3:0|3:0,0:0:0:0:
48,116,32592,2,0,L|44:156,2,33.7500001490115,4|4|4,3:0|3:0|3:0,0:0:0:0:
132,136,33005,1,12,3:0:0:0:
180,208,33212,1,12,3:0:0:0:
200,292,33419,1,12,3:0:0:0:
200,292,33833,6,0,P|248:264|328:280,1,135.000000596046,4|4,0:0|3:0,0:0:0:0:
448,324,34661,2,0,P|462:259|432:200,1,135.000000596046,0|4,0:0|3:0,0:0:0:0:
384,156,35281,1,0,0:0:0:0:
324,128,35488,6,0,L|308:264,2,135.000000596046,0|4|0,0:0|3:0|0:0,0:0:0:0:
296,68,36523,1,0,0:0:0:0:
240,32,36730,2,0,P|208:36|168:32,1,67.500000298023,4|0,3:0|0:0,0:0:0:0:
108,16,37143,5,0,0:0:0:0:
56,140,37557,1,4,3:0:0:0:
160,228,37971,1,0,0:0:0:0:
108,352,38385,1,4,3:0:0:0:
32,240,38798,6,0,P|32:184|88:124,1,135.000000596046,0|4,0:0|3:0,0:0:0:0:
144,104,39419,1,0,0:0:0:0:
212,108,39626,2,0,P|220:144|216:176,2,67.500000298023,0|0|2,0:0|0:0|0:0,0:0:0:0:
324,32,40454,6,0,B|368:56|368:56|400:52|400:52|448:80,1,135.000000596046,0|4,0:0|3:0,0:0:0:0:
480,136,41074,1,0,0:0:0:0:
480,204,41281,2,0,P|472:248|456:272,1,67.500000298023,0|0,0:0|0:0,0:0:0:0:
408,308,41695,2,0,P|372:296|340:296,1,67.500000298023,4|0,3:0|0:0,0:0:0:0:
280,320,42109,6,0,B|228:336|228:336|196:320|148:328,1,135.000000596046,0|2,0:0|2:0,0:0:0:0:
84,348,42730,1,2,2:0:0:0:
24,316,42936,2,0,P|8:276|16:244,2,67.500000298023,0|4|4,2:0|3:0|3:0,0:0:0:0:
124,224,43764,5,0,0:0:0:0:
104,92,44178,1,4,3:0:0:0:
172,100,44385,1,0,0:0:0:0:
232,132,44592,2,0,P|276:148|360:132,1,135.000000596046,0|4,0:0|3:0,0:0:0:0:
412,88,45212,1,0,0:0:0:0:
480,92,45419,6,0,L|492:160,1,67.500000298023,2|0,2:0|0:0,0:0:0:0:
472,224,45833,2,0,L|484:292,1,67.500000298023,4|4,3:0|3:0,0:0:0:0:
464,356,46247,2,0,P|420:372|336:352,1,135.000000596046,4|4,3:0|3:0,0:0:0:0:
252,248,47074,6,0,P|188:227|124:244,1,135.000000596046,0|4,0:0|3:0,0:0:0:0:
68,280,47695,1,0,0:0:0:0:
4,264,47902,2,0,L|8:192,1,67.500000298023,0|0,0:0|0:0,0:0:0:0:
28,132,48316,2,0,P|64:100|84:88,1,67.500000298023,4|0,3:0|0:0,0:0:0:0:
148,96,48730,6,0,P|184:112|276:72,1,135.000000596046,0|2,0:0|2:0,0:0:0:0:
328,48,49350,1,2,2:0:0:0:
392,64,49557,2,0,P|408:92|412:132,1,67.500000298023,2|4,2:0|3:0,0:0:0:0:
384,188,49971,1,4,3:0:0:0:
328,308,50385,6,0,L|256:296,1,67.500000298023,12|12,3:0|3:0,0:0:0:0:
296,216,50798,2,0,L|229:204,1,67.500000298023,12|12,3:0|3:0,0:0:0:0:
272,128,51212,2,0,L|205:116,2,67.500000298023,12|0|0,3:0|0:0|0:0,0:0:0:0:
384,236,52040,6,0,L|456:224,1,67.500000298023,12|12,3:0|3:0,0:0:0:0:
416,144,52453,2,0,L|482:132,1,67.500000298023,12|12,3:0|3:0,0:0:0:0:
440,56,52867,2,0,L|506:44,2,67.500000298023,12|2|2,3:0|2:0|2:0,0:0:0:0:
312,100,53695,6,0,P|264:124|192:92,1,135.000000596046,4|4,0:0|3:0,0:0:0:0:
144,48,54316,1,0,0:0:0:0:
80,24,54523,2,0,P|64:52|56:88,1,67.500000298023,0|0,0:0|0:0,0:0:0:0:
56,152,54936,2,0,P|48:184|32:214,1,67.500000298023,4|0,3:0|0:0,0:0:0:0:
16,280,55350,6,0,B|52:320|52:320|136:304,1,135.000000596046,0|4,0:0|3:0,0:0:0:0:
200,296,55971,1,0,0:0:0:0:
264,316,56178,2,0,L|252:384,2,67.500000298023,0|0|4,0:0|0:0|3:0,0:0:0:0:
320,280,56798,1,0,0:0:0:0:
384,296,57005,6,0,P|408:252|400:168,1,135.000000596046,0|4,0:0|3:0,0:0:0:0:
376,108,57626,1,0,0:0:0:0:
400,44,57833,2,0,P|432:40|472:48,2,67.500000298023,0|0|4,0:0|0:0|3:0,0:0:0:0:
272,88,58661,6,0,B|232:96|232:96|204:92,1,67.500000298023,2|2,2:0|2:0,0:0:0:0:
140,76,59074,2,0,B|113:72|113:72|73:80,1,67.500000298023,4|4,3:0|3:0,0:0:0:0:
16,116,59488,1,4,3:0:0:0:
12,184,59695,1,0,0:0:0:0:
20,252,59902,1,2,0:0:0:0:
108,352,60316,6,0,P|160:308|220:328,1,135.000000596046,0|4,0:0|3:0,0:0:0:0:
276,360,60936,1,0,0:0:0:0:
344,364,61143,2,0,P|376:352|408:328,1,67.500000298023,0|0,0:0|0:0,0:0:0:0:
432,272,61557,2,0,P|424:236|424:196,1,67.500000298023,4|0,3:0|0:0,0:0:0:0:
408,140,61971,6,0,B|396:108|408:68|408:68|384:48|344:44,1,135.000000596046,0|4,0:0|3:0,0:0:0:0:
288,24,62592,1,0,0:0:0:0:
228,52,62798,1,2,2:0:0:0:
96,32,63212,1,2,2:0:0:0:
140,156,63626,6,0,P|132:200|120:220,1,67.500000298023,0|0,0:0|0:0,0:0:0:0:
100,284,64040,2,0,P|108:312|132:344,1,67.500000298023,4|0,3:0|0:0,0:0:0:0:
196,356,64454,1,8,3:0:0:0:
260,340,64661,1,8,3:0:0:0:
324,356,64867,1,8,3:0:0:0:
456,320,65281,6,0,L|464:352,2,33.7500001490115,4|4|4,3:0|3:0|3:0,0:0:0:0:
432,236,65695,2,0,L|440:204,2,33.7500001490115,4|4|4,3:0|3:0|3:0,0:0:0:0:
372,300,66109,5,12,3:0:0:0:
304,300,66316,1,12,3:0:0:0:
240,276,66523,1,12,3:0:0:0:
116,320,66936,6,0,P|120:344|116:360,2,33.7500001490115,0|0|0,3:0|3:0|3:0,0:0:0:0:
33,290,67350,2,0,P|21:314|21:330,2,33.7500001490115,4|4|4,3:0|3:0|3:0,0:0:0:0:
96,228,67764,5,12,3:0:0:0:
132,148,67971,1,0,0:0:0:0:
128,60,68178,1,12,3:0:0:0:
248,180,68592,5,4,0:0:0:0:
