osu file format v14

[General]
AudioFilename: Jake Kaufman - Mighty Switch Force OST - 06 BGM - Love You Love You Love.mp3
AudioLeadIn: 2007
PreviewTime: 72770
Countdown: 0
SampleSet: Soft
StackLeniency: 0.7
Mode: 0
LetterboxInBreaks: 1
WidescreenStoryboard: 0

[Editor]
DistanceSpacing: 1
BeatDivisor: 4
GridSize: 4
TimelineZoom: 1

[Metadata]
Title:Love You Love You Love
TitleUnicode:Love You Love You Love
Artist:Jake Kaufman
ArtistUnicode:Jake Kaufman
Creator:okamiratsu
Version:Hard
Source:Mighty Switch Force
Tags:Alarido CoroQuetz OST BGM
BeatmapID:218804
BeatmapSetID:78126

[Difficulty]
HPDrainRate:6
CircleSize:5
OverallDifficulty:6
ApproachRate:7
SliderMultiplier:2
SliderTickRate:2

[Events]
//Background and Video events
0,0,"1.jpg",0,0
//Break Periods
2,36606,42779
2,94788,100961
//Storyboard Layer 0 (Background)
//Storyboard Layer 1 (Fail)
//Storyboard Layer 2 (Pass)
//Storyboard Layer 3 (Foreground)
//Storyboard Sound Samples

[TimingPoints]
43,454.545454545455,4,2,1,100,1,0
13679,-181.818181818182,4,1,1,50,0,0
14588,-100,4,2,1,100,0,0
34588,-100,4,2,1,35,0,0
36406,-100,4,2,1,100,0,0
61747,-100,4,2,1,5,0,0
61861,-100,4,2,1,100,0,0
72770,-100,4,2,1,100,0,1
92770,-100,4,2,1,35,0,1
94588,-100,4,2,1,100,0,0
113679,-100,4,2,1,35,0,0
115952,-100,4,2,1,100,0,0
126406,-181.818181818182,4,2,1,100,0,0
127315,-100,4,2,1,100,0,1
145497,-100,4,2,1,100,0,0
146179,-100,4,2,1,50,0,0
147315,-100,4,2,1,40,0,0
147997,-100,4,2,1,30,0,0
149133,-100,4,2,1,20,0,0

[Colours]
Combo1 : 182,165,154
Combo2 : 148,179,216
Combo3 : 236,231,166
Combo4 : 138,197,255

[HitObjects]
80,44,43,6,0,L|80:180,1,100,0|2,0:0|0:0,0:0:0:0:
80,244,497,2,0,L|80:348,1,100,8|2,0:0|0:0,0:0:0:0:
80,344,838,1,0,0:0:0:0:
176,372,1065,1,0,0:0:0:0:
256,312,1293,2,0,L|204:244,1,50,0|8,0:0|0:0,0:0:0:0:
240,172,1633,1,2,0:0:0:0:
340,160,1861,6,0,L|416:256,1,100,0|2,0:0|0:0,0:0:0:0:
436,332,2315,2,0,L|508:236,1,100,8|2,0:0|0:0,0:0:0:0:
496,252,2656,1,0,0:0:0:0:
492,152,2883,1,0,0:0:0:0:
432,72,3111,2,0,L|376:88,1,50,0|8,0:0|0:0,0:0:0:0:
296,136,3452,1,2,0:0:0:0:
204,96,3679,6,0,B|132:60|132:140|20:88,2,150,0|0|2,0:0|0:0|0:0,0:0:0:0:
268,176,4588,2,0,B|344:144|344:232|440:172,2,150,0|0|2,0:0|0:0|0:0,0:0:0:0:
180,224,5497,5,0,0:0:0:0:
248,296,5724,1,2,0:0:0:0:
324,228,5952,1,8,0:0:0:0:
252,160,6179,1,2,0:0:0:0:
252,160,6293,1,0,0:0:0:0:
252,160,6406,1,0,0:0:0:0:
264,60,6633,1,2,0:0:0:0:
364,72,6861,2,0,B|356:156|464:168|420:272,1,200,8|4,0:0|0:0,0:0:0:0:
364,332,7543,5,2,0:0:0:0:
264,320,7770,2,0,L|264:200,1,100,8|2,0:0|0:0,0:0:0:0:
264,168,8111,1,2,0:0:0:0:
172,132,8338,1,2,0:0:0:0:
172,132,8452,1,2,0:0:0:0:
92,72,8679,2,0,L|208:28,1,100,8|2,0:0|0:0,0:0:0:0:
276,80,9133,5,0,0:0:0:0:
276,80,9361,1,2,0:0:0:0:
327,205,9588,2,0,L|439:161,1,100,8|2,0:0|0:0,0:0:0:0:
420,168,9929,2,0,P|476:196|496:264,1,100,2|2,0:0|0:0,0:0:0:0:
492,228,10270,1,0,0:0:0:0:
404,276,10497,1,8,0:0:0:0:
304,288,10724,1,2,0:0:0:0:
236,212,10952,6,0,P|172:244|104:192,2,150,0|0|2,0:0|0:0|0:0,0:0:0:0:
304,140,11861,2,0,P|240:108|168:160,2,150,0|0|2,0:0|0:0|0:0,0:0:0:0:
400,168,12770,5,0,0:0:0:0:
372,72,12997,1,2,0:0:0:0:
304,140,13224,1,8,0:0:0:0:
232,72,13452,1,2,0:0:0:0:
212,168,13679,6,4,L|168:220,6,36.6666677856446
188,96,14815,6,0,B|88:152|88:56|0:116,1,200,2|0,0:0|0:0,0:0:0:0:
56,180,15497,1,0,0:0:0:0:
136,188,15724,2,0,B|228:224|228:132|340:200,1,200,2|0,0:0|0:0,0:0:0:0:
268,248,16406,1,0,0:0:0:0:
192,268,16633,6,0,B|88:320|88:232|-12:296,1,200,2|2,0:0|0:0,0:0:0:0:
16,204,17315,1,0,0:0:0:0:
76,152,17543,2,0,L|76:56,4,50,2|0|0|0|2,0:0|0:0|0:0|0:0|0:0,0:0:0:0:
136,204,18224,5,0,0:0:0:0:
160,128,18452,2,0,B|240:88|240:160|328:112,2,150,2|0|0,0:0|0:0|0:0,0:0:0:0:
208,204,19361,2,0,P|184:292|292:348,1,200,2|2,0:0|0:0,0:0:0:0:
348,368,20043,5,0,0:0:0:0:
348,368,20156,1,0,0:0:0:0:
348,368,20270,1,2,0:0:0:0:
348,368,20383,1,0,0:0:0:0:
348,368,20497,2,0,L|348:252,1,100,8|2,0:0|0:0,0:0:0:0:
428,204,20952,2,0,L|428:80,1,100,0|2,0:0|0:0,0:0:0:0:
378,26,21406,2,0,L|272:118,1,100,8|2,0:0|0:0,0:0:0:0:
304,172,21861,5,4,0:0:0:0:
260,252,22088,1,2,0:0:0:0:
188,214,22315,2,0,L|188:164,2,50,8|0|2,0:0|0:0|0:0,0:0:0:0:
188,296,22770,1,0,0:0:0:0:
188,296,22997,1,2,0:0:0:0:
112,264,23224,6,0,P|187:213|272:295,1,200,8|0,0:0|0:0,0:0:0:0:
188,296,23906,1,2,0:0:0:0:
188,208,24133,2,0,L|188:148,2,50,8|0|2,0:0|0:0|0:0,0:0:0:0:
280,244,24588,1,0,0:0:0:0:
280,144,24815,1,2,0:0:0:0:
364,200,25043,1,8,0:0:0:0:
448,252,25270,1,2,0:0:0:0:
448,152,25497,6,0,L|448:40,1,100,0|2,0:0|0:0,0:0:0:0:
352,36,25952,2,0,L|296:36,2,50,8|0|2,0:0|0:0|0:0,0:0:0:0:
384,116,26406,1,0,0:0:0:0:
316,188,26633,1,0,0:0:0:0:
244,256,26861,2,0,B|200:284|200:284|156:256,1,100,8|2,0:0|0:0,0:0:0:0:
92,184,27315,5,4,0:0:0:0:
240,48,27770,1,8,0:0:0:0:
324,228,28224,1,4,0:0:0:0:
452,72,28679,1,8,0:0:0:0:
512,232,29133,1,4,0:0:0:0:
472,304,29361,5,2,0:0:0:0:
380,292,29588,1,8,0:0:0:0:
380,292,29702,2,0,P|364:340|244:340,1,150
300,288,30270,2,0,P|264:242|124:275,1,200,2|2,0:0|0:0,0:0:0:0:
128,340,30952,5,0,0:0:0:0:
64,288,31179,1,2,0:0:0:0:
76,188,31406,1,8,0:0:0:0:
76,188,31520,2,0,L|128:112,1,50,0|2,0:0|0:0,0:0:0:0:
200,96,31861,2,0,L|304:96,1,100,0|2,0:0|0:0,0:0:0:0:
292,176,32315,1,8,0:0:0:0:
212,176,32543,1,2,0:0:0:0:
200,256,32770,6,0,L|316:256,1,100,0|2,0:0|0:0,0:0:0:0:
388,256,33224,1,8,0:0:0:0:
388,256,33338,2,0,B|436:176|332:176|380:92,1,150
308,52,33906,2,0,P|220:88|108:32,1,200,2|2,0:0|0:0,0:0:0:0:
256,192,34588,12,4,36406,0:0:0:0:
256,288,43679,5,4,0:0:0:0:
256,168,43906,2,0,L|256:236,4,50,2|0|8|0|2,0:0|0:0|0:0|0:0|0:0,0:0:0:0:
196,116,44588,1,0,0:0:0:0:
256,60,44815,1,2,0:0:0:0:
312,116,45043,1,8,0:0:0:0:
360,192,45270,2,0,B|380:236|380:236|352:292,1,100,2|0,0:0|0:0,0:0:0:0:
284,336,45724,5,2,0:0:0:0:
204,292,45952,1,8,0:0:0:0:
284,252,46179,2,0,L|284:196,1,50,2|0,0:0|0:0,0:0:0:0:
204,164,46520,2,0,L|204:232,1,50,0|2,0:0|0:0,0:0:0:0:
124,256,46861,1,4,0:0:0:0:
204,292,47088,2,8,P|256:300|312:256,1,100,8|8,0:0|0:0,0:0:0:0:
376,232,47543,6,0,L|376:296,4,50,2|0|8|0|2,0:0|0:0|0:0|0:0|0:0,0:0:0:0:
364,144,48224,2,0,P|332:112|244:120,1,100,0|2,0:0|0:0,0:0:0:0:
284,212,48679,1,8,0:0:0:0:
196,212,48906,1,2,0:0:0:0:
236,292,49133,6,0,P|196:340|148:340,1,100,0|2,0:0|0:0,0:0:0:0:
156,252,49588,1,8,0:0:0:0:
156,252,49815,1,2,0:0:0:0:
236,208,50043,2,0,P|292:176|344:184,1,100,0|2,0:0|0:0,0:0:0:0:
308,272,50497,1,4,0:0:0:0:
376,320,50724,1,8,0:0:0:0:
436,268,50952,1,8,0:0:0:0:
376,216,51179,6,0,L|376:160,4,50,2|0|8|0|2,0:0|0:0|0:0|0:0|0:0,0:0:0:0:
308,140,51861,2,0,P|336:92|444:160,2,200,0|8|0,0:0|0:0|0:0,0:0:0:0:
272,228,52997,6,0,L|236:280,1,50,2|0,0:0|0:0,0:0:0:0:
176,224,53338,2,0,L|220:168,1,50,0|2,0:0|0:0,0:0:0:0:
264,128,53679,2,0,P|312:112|368:144,1,100,0|2,0:0|0:0,0:0:0:0:
420,160,54133,2,0,P|472:180|524:148,2,100,4|8|8,0:0|0:0|0:0,0:0:0:0:
340,148,54815,5,2,0:0:0:0:
300,228,55043,2,0,L|234:152,1,100,8|2,0:0|0:0,0:0:0:0:
164,312,55497,2,0,L|164:212,1,100,0|2,0:0|0:0,0:0:0:0:
32,232,55952,2,0,L|104:148,1,100,8|2,0:0|0:0,0:0:0:0:
108,68,56406,6,0,P|183:11|260:80,2,200,0|8|0,0:0|0:0|0:0,0:0:0:0:
184,112,57543,1,2,0:0:0:0:
180,192,57770,2,0,B|148:292|236:292|180:384,1,200,8|4,0:0|0:0,0:0:0:0:
120,332,58452,5,2,0:0:0:0:
84,260,58679,2,0,L|84:200,4,50,8|0|2|0|8,0:0|0:0|0:0|0:0|0:0,0:0:0:0:
168,232,59361,1,2,0:0:0:0:
240,304,59588,1,8,0:0:0:0:
168,232,59815,1,2,0:0:0:0:
164,144,60043,6,0,B|236:144|196:184|288:184,1,100,0|2,0:0|0:0,0:0:0:0:
344,188,60497,2,0,B|401:190|361:150|433:150,1,100,8|2,0:0|0:0,0:0:0:0:
388,72,60952,1,0,0:0:0:0:
388,72,61179,1,2,0:0:0:0:
388,72,61406,1,4,0:0:0:0:
288,52,61633,2,0,L|224:52,2,50,8|0|8,0:0|0:0|0:0,0:0:0:0:
272,140,62088,5,2,0:0:0:0:
240,212,62315,1,8,0:0:0:0:
160,196,62543,2,0,L|160:116,2,50,2|0|0,0:0|0:0|0:0,0:0:0:0:
80,212,62997,1,2,0:0:0:0:
80,132,63224,1,8,0:0:0:0:
124,64,63452,1,2,0:0:0:0:
204,64,63679,1,0,0:0:0:0:
268,116,63906,6,0,P|292:172|360:192,2,100,2|8|2,0:0|0:0|0:0,0:0:0:0:
360,112,64588,2,0,L|472:112,1,100,0|2,0:0|0:0,0:0:0:0:
404,196,65043,1,8,0:0:0:0:
404,196,65270,1,2,0:0:0:0:
404,196,65497,1,4,0:0:0:0:
196,304,65952,6,0,B|232:344|296:228|360:344|388:304,1,200,8|0,0:0|0:0,0:0:0:0:
384,148,66861,2,0,B|356:109|292:225|228:109|192:149,1,200,8|0,0:0|0:0,0:0:0:0:
240,240,67543,5,2,0:0:0:0:
160,256,67770,1,8,0:0:0:0:
88,224,67997,2,0,L|8:108,1,100,2|0,0:0|0:0,0:0:0:0:
96,96,68452,2,0,L|164:196,1,100,2|4,0:0|0:0,0:0:0:0:
160,256,68906,1,8,0:0:0:0:
160,256,69133,1,8,0:0:0:0:
164,176,69361,6,0,P|204:112|268:112,1,100,2|8,0:0|0:0,0:0:0:0:
248,184,69815,2,0,P|340:238|394:154,1,200,0|2,0:0|0:0,0:0:0:0:
320,148,70497,1,8,0:0:0:0:
392,112,70724,6,0,P|299:57|245:141,1,200,0|2,0:0|0:0,0:0:0:0:
320,148,71406,1,8,0:0:0:0:
288,236,71633,1,2,0:0:0:0:
320,304,71861,2,4,P|243:297|240:180,1,200,4|4,0:0|0:0,0:0:0:0:
100,112,72770,6,0,P|140:64|204:64,1,100,4|2,0:0|0:0,0:0:0:0:
256,60,73224,2,0,L|256:196,1,100,8|2,0:0|0:0,0:0:0:0:
256,160,73565,1,0,0:0:0:0:
256,260,73793,1,0,0:0:0:0:
356,260,74020,2,0,L|448:260,1,50,0|8,0:0|0:0,0:0:0:0:
356,172,74361,1,2,0:0:0:0:
308,84,74588,6,0,P|340:52|416:56,1,100,0|2,0:0|0:0,0:0:0:0:
460,120,75043,2,0,L|460:264,1,100,8|2,0:0|0:0,0:0:0:0:
460,268,75383,1,0,0:0:0:0:
376,320,75611,1,0,0:0:0:0:
316,236,75838,2,0,L|316:180,1,50,0|8,0:0|0:0,0:0:0:0:
380,136,76179,1,2,0:0:0:0:
320,84,76406,6,0,P|236:80|188:136,2,150,0|0|2,0:0|0:0|0:0,0:0:0:0:
272,152,77315,2,0,P|224:208|132:196,2,150,0|0|2,0:0|0:0|0:0,0:0:0:0:
188,144,78224,5,0,0:0:0:0:
128,92,78452,1,2,0:0:0:0:
76,152,78679,1,8,0:0:0:0:
136,204,78906,1,0,0:0:0:0:
152,288,79133,2,0,P|196:312|244:272,1,100,2|0,0:0|0:0,0:0:0:0:
312,224,79588,1,2,0:0:0:0:
288,140,79815,1,2,0:0:0:0:
368,144,80043,6,0,L|488:144,1,100,4|2,0:0|0:0,0:0:0:0:
412,224,80497,2,0,L|308:224,1,100,8|2,0:0|0:0,0:0:0:0:
312,224,80838,1,0,0:0:0:0:
288,140,81065,2,0,P|248:84|136:108,1,150,0|8,0:0|0:0,0:0:0:0:
208,152,81633,1,2,0:0:0:0:
120,136,81861,6,0,L|150:231,1,100,0|2,0:0|0:0,0:0:0:0:
228,276,82315,2,0,P|165:323|111:314,1,100,8|2,0:0|0:0,0:0:0:0:
147,324,82656,1,0,0:0:0:0:
84,280,82883,2,0,L|40:232,1,50,0|2,0:0|0:0,0:0:0:0:
120,204,83224,1,8,0:0:0:0:
200,204,83452,1,2,0:0:0:0:
160,136,83679,6,0,P|200:72|272:72,2,150,0|0|2,0:0|0:0|0:0,0:0:0:0:
236,140,84588,2,0,P|252:188|376:188,2,150,0|0|2,0:0|0:0|0:0,0:0:0:0:
316,140,85497,5,0,0:0:0:0:
448,52,85952,1,8,0:0:0:0:
448,212,86406,2,4,P|408:292|288:220,1,200,2|2,0:0|0:0,0:0:0:0:
336,168,87315,5,4,0:0:0:0:
288,104,87543,1,2,0:0:0:0:
244,168,87770,1,8,0:0:0:0:
196,104,87997,2,0,L|124:104,1,50,2|0,0:0|0:0,0:0:0:0:
96,168,88338,1,0,0:0:0:0:
120,244,88565,1,0,0:0:0:0:
120,244,88679,2,0,P|152:284|240:276,2,100,8|2|0,0:0|0:0|0:0,0:0:0:0:
200,204,89361,5,2,0:0:0:0:
264,140,89588,2,0,L|376:140,1,100,8|2,0:0|0:0,0:0:0:0:
416,140,89929,1,0,0:0:0:0:
380,228,90156,1,0,0:0:0:0:
428,308,90383,1,0,0:0:0:0:
428,308,90497,2,0,P|468:264|468:212,1,100,8|2,0:0|0:0,0:0:0:0:
416,140,90952,6,0,P|384:92|272:100,1,150,2|0,0:0|0:0,0:0:0:0:
304,220,91633,1,2,0:0:0:0:
224,220,91861,2,0,P|256:280|352:284,1,150,2|0,0:0|0:0,0:0:0:0:
432,220,92543,1,2,0:0:0:0:
256,192,92770,12,4,94588,0:0:0:0:
96,136,101861,6,0,B|24:208|24:208|112:308,1,200,4|8,0:0|0:0,0:0:0:0:
132,212,102543,1,2,0:0:0:0:
184,152,102770,1,0,0:0:0:0:
236,212,102997,1,2,0:0:0:0:
288,152,103224,1,8,0:0:0:0:
368,152,103452,6,0,B|471:151|471:151|471:291,1,200,0|2,0:0|0:0,0:0:0:0:
396,224,104133,1,8,0:0:0:0:
396,300,104361,2,0,B|320:368|320:368|224:284,1,200,0|2,0:0|0:0,0:0:0:0:
320,272,105043,1,8,0:0:0:0:
320,192,105270,6,0,B|220:192|220:192|220:52,1,200,0|2,0:0|0:0,0:0:0:0:
296,116,105952,1,8,0:0:0:0:
384,120,106179,1,2,0:0:0:0:
432,56,106406,2,0,L|492:108,2,50,0|0|2,0:0|0:0|0:0,0:0:0:0:
352,44,106861,1,8,0:0:0:0:
296,116,107088,1,2,0:0:0:0:
240,44,107315,6,0,P|204:72|212:144,1,100,0|2,0:0|0:0,0:0:0:0:
248,200,107770,2,0,P|252:256|216:296,1,100,8|2,0:0|0:0,0:0:0:0:
160,228,108224,1,0,0:0:0:0:
68,228,108452,1,2,0:0:0:0:
116,152,108679,1,8,0:0:0:0:
180,92,108906,6,0,P|276:192|172:268,1,300,2|8,0:0|0:0,0:0:0:0:
92,208,109815,1,2,0:0:0:0:
188,180,110043,2,0,B|248:140|300:176|300:248|404:220,1,200,0|8,0:0|0:0,0:0:0:0:
364,144,110724,6,0,B|244:144|244:292|112:292,1,300,2|8,0:0|0:0,0:0:0:0:
64,228,111633,1,2,0:0:0:0:
124,176,111861,1,0,0:0:0:0:
28,144,112088,2,0,B|28:80|184:92|168:4,2,200
124,176,113224,1,8,0:0:0:0:
64,228,113452,1,2,0:0:0:0:
256,192,113679,12,8,115952,0:0:0:0:
16,64,116406,6,0,B|64:40|164:100|212:56|212:56,1,200,4|8,0:0|0:0,0:0:0:0:
292,80,117088,1,2,0:0:0:0:
360,40,117315,2,0,P|408:60|424:120,1,100,0|2,0:0|0:0,0:0:0:0:
380,164,117770,1,8,0:0:0:0:
300,164,117997,6,0,B|228:104|156:232|100:136|100:136,1,200,0|2,0:0|0:0,0:0:0:0:
52,204,118679,1,8,0:0:0:0:
108,260,118906,2,0,B|152:308|248:224|308:280,1,200,0|2,0:0|0:0,0:0:0:0:
340,204,119588,1,8,0:0:0:0:
280,148,119815,2,0,B|188:108|148:208|64:108,1,200,0|2,0:0|0:0,0:0:0:0:
48,204,120497,1,8,0:0:0:0:
56,292,120724,6,0,L|160:332,1,100,2|0,0:0|0:0,0:0:0:0:
236,308,121179,1,2,0:0:0:0:
196,228,121406,1,8,0:0:0:0:
284,244,121633,2,0,B|368:244|368:296|508:296,1,200,0|2,0:0|0:0,0:0:0:0:
456,208,122315,1,8,0:0:0:0:
492,128,122543,2,0,L|412:32,1,100,2|0,0:0|0:0,0:0:0:0:
337,60,122997,1,2,0:0:0:0:
336,60,123224,1,8,0:0:0:0:
240,92,123452,6,0,P|176:44|66:123,1,200,4|2,0:0|0:0,0:0:0:0:
160,140,124133,2,0,P|245:191|333:109,1,200,8|0,0:0|0:0,0:0:0:0:
408,104,124815,1,2,0:0:0:0:
412,196,125043,1,8,0:0:0:0:
356,268,125270,2,0,P|291:318|188:231,2,200,2|2|2,0:0|0:0|0:0,0:0:0:0:
276,216,126406,5,4,0:0:0:0:
272,72,126709,1,4,0:0:0:0:
132,48,127012,1,4,0:0:0:0:
20,120,127315,6,0,L|20:244,1,100,4|0,0:0|0:0,0:0:0:0:
120,220,127770,2,0,L|120:112|120:108,1,100,8|0,0:0|0:0,0:0:0:0:
120,120,128111,1,0,0:0:0:0:
216,92,128338,1,0,0:0:0:0:
296,148,128565,2,0,L|296:224,1,50,0|8,0:0|0:0,0:0:0:0:
240,268,128906,1,2,0:0:0:0:
196,336,129133,6,0,P|243:355|292:332,2,100,0|2|8,0:0|0:0|0:0,0:0:0:0:
240,268,129815,1,2,0:0:0:0:
240,268,129929,1,0,0:0:0:0:
176,220,130156,2,0,P|184:164|240:140,1,100
218,141,130497,2,0,L|322:141,1,100,8|2,0:0|0:0,0:0:0:0:
376,212,130952,5,0,0:0:0:0:
373,68,131293,1,0,0:0:0:0:
500,140,131633,2,0,L|400:140,1,100,2|2,0:0|0:0,0:0:0:0:
316,260,132202,1,0,0:0:0:0:
440,304,132543,1,2,0:0:0:0:
364,332,132770,6,0,B|284:404|220:252|148:348,1,200,2|8,0:0|0:0,0:0:0:0:
96,284,133452,2,0,L|56:224,2,50,2|0|0,0:0|0:0|0:0,0:0:0:0:
164,228,133906,1,8,0:0:0:0:
168,140,134133,1,8,0:0:0:0:
252,108,134361,1,2,0:0:0:0:
288,184,134588,6,0,P|304:232|360:232,2,100,4|2|2,0:0|0:0|0:0,0:0:0:0:
364,156,135270,2,0,L|404:116,1,50,2|0,0:0|0:0,0:0:0:0:
476,168,135611,2,0,P|504:232|448:324,1,150,0|8,0:0|0:0,0:0:0:0:
416,236,136179,1,2,0:0:0:0:
352,296,136406,6,0,P|312:352|264:344,2,100,0|2|2,0:0|0:0|0:0,0:0:0:0:
280,244,137088,2,0,L|220:188,1,50,2|0,0:0|0:0,0:0:0:0:
304,144,137429,2,0,L|252:88,1,50,0|2,0:0|0:0,0:0:0:0:
184,132,137770,1,8,0:0:0:0:
184,132,137997,1,2,0:0:0:0:
104,124,138224,6,0,P|164:48|252:84,1,200,0|8,0:0|0:0,0:0:0:0:
212,244,139133,2,0,L|212:140,1,100,0|2,0:0|0:0,0:0:0:0:
292,148,139588,2,0,L|292:252,1,100,8|2,0:0|0:0,0:0:0:0:
340,312,140043,6,0,P|251:351|162:311,1,200,0|8,0:0|0:0,0:0:0:0:
256,200,140952,1,0,0:0:0:0:
256,40,141406,1,4,0:0:0:0:
96,52,141861,6,0,L|96:188,1,100,0|2,0:0|0:0,0:0:0:0:
172,128,142315,2,0,L|236:208,1,100,2|2,0:0|0:0,0:0:0:0:
234,206,142656,1,0,0:0:0:0:
164,260,142883,1,0,0:0:0:0:
76,280,143111,2,0,L|76:368,1,50,0|8,0:0|0:0,0:0:0:0:
164,340,143452,1,2,0:0:0:0:
252,304,143679,6,0,L|367:304,1,100,0|2,0:0|0:0,0:0:0:0:
352,224,144133,2,0,L|224:224,1,100,2|2,0:0|0:0,0:0:0:0:
252,224,144474,1,0,0:0:0:0:
184,260,144702,1,0,0:0:0:0:
108,232,144929,2,0,L|108:288,1,50,0|8,0:0|0:0,0:0:0:0:
32,260,145270,1,2,0:0:0:0:
32,172,145497,6,0,B|104:120|104:204|192:144,2,150,2|0|2,0:0|0:0|0:0,0:0:0:0:
28,80,146406,2,0,B|100:36|100:128|188:56,2,150,2|0|2,0:0|0:0|0:0,0:0:0:0:
60,164,147315,1,0,0:0:0:0:
16,240,147543,1,2,0:0:0:0:
84,300,147770,1,8,0:0:0:0:
160,348,147997,5,2,0:0:0:0:
160,348,148111,1,0,0:0:0:0:
160,348,148224,1,0,0:0:0:0:
160,256,148452,1,2,0:0:0:0:
236,304,148679,2,0,B|328:340|328:340|428:304,1,200,0|4,0:0|0:0,0:0:0:0:
