osu file format v14

[General]
AudioFilename: High Above the Land (short).mp3
AudioLeadIn: 1500
PreviewTime: 64046
Countdown: 0
SampleSet: None
StackLeniency: 0.5
Mode: 0
LetterboxInBreaks: 0
WidescreenStoryboard: 0

[Editor]
DistanceSpacing: 0.8
BeatDivisor: 4
GridSize: 4
TimelineZoom: 2.4

[Metadata]
Title:High Above the Land
TitleUnicode:High Above the Land
Artist:Jake Kaufman
ArtistUnicode:Jake Kaufman
Creator:Krisom
Version:Troposphere
Source:Shovel Knight
Tags:Propeller The Flying Machine MoodyRPG Yatch Club Games VideoGame Video Game VGM Instrumental Electronic chiptune 8-bit 8bit
BeatmapID:455470
BeatmapSetID:191319

[Difficulty]
HPDrainRate:3
CircleSize:2
OverallDifficulty:2
ApproachRate:3
SliderMultiplier:1.4
SliderTickRate:1

[Events]
//Background and Video events
0,0,"Propeller Knight BG.png",0,0
//Break Periods
//Storyboard Layer 0 (Background)
//Storyboard Layer 1 (Fail)
//Storyboard Layer 2 (Pass)
//Storyboard Layer 3 (Foreground)
//Storyboard Layer 4 (Overlay)
//Storyboard Sound Samples

[TimingPoints]
46,400,4,2,0,30,1,0
846,-100,4,2,0,35,0,0
1646,-100,4,2,0,40,0,0
2446,-100,4,2,0,45,0,0
3246,-100,4,2,0,50,0,0
4046,-100,4,2,0,55,0,0
4846,-100,4,2,0,60,0,0
5646,-100,4,2,0,65,0,0
6246,-100,4,2,0,55,0,0
11246,-100,4,2,0,70,0,0

[Colours]
Combo1 : 0,171,236
Combo2 : 63,150,33
Combo3 : 245,180,27
Combo4 : 126,171,78
Combo5 : 255,182,72

[HitObjects]
256,192,46,12,2,4846,0:0:0:0:
112,140,6446,6,0,P|256:12|400:140,1,420,2|0,0:0|0:0,0:0:0:0:
416,256,8046,2,0,B|340:216|328:324|340:380|256:392|172:380|184:324|172:216|96:256,1,420,2|0,0:0|0:0,0:0:0:0:
160,152,9646,6,0,B|204:104|256:152|308:200|352:152,2,210,0|2|0,3:0|0:0|3:0,0:0:0:0:
152,328,11446,38,0,B|256:340|256:340|360:328,1,210,2|2,0:1|0:1,0:0:0:0:
468,296,12446,1,4,1:3:0:0:
468,184,12846,37,4,3:2:0:0:
468,72,13246,1,8,0:1:0:0:
364,32,13646,1,2,0:0:0:0:
176,156,14446,1,0,3:0:0:0:
256,232,14846,1,8,0:1:0:0:
336,156,15246,1,2,0:0:0:0:
148,32,16046,5,0,3:0:0:0:
44,72,16446,1,8,0:1:0:0:
44,184,16846,1,2,0:0:0:0:
48,296,17246,1,8,0:1:0:0:
148,244,17646,2,0,P|255:169|364:244,1,280,0|0,1:0|1:0,0:0:0:0:
468,44,19246,21,0,3:0:0:0:
356,44,19646,1,8,0:1:0:0:
256,92,20046,1,2,0:0:0:0:
256,292,20846,1,0,3:0:0:0:
156,340,21246,1,8,0:1:0:0:
44,340,21646,1,2,0:0:0:0:
44,116,22446,6,0,P|156:44|288:104,1,280,2|2,0:1|0:0,0:0:0:0:
468,268,24046,2,0,P|356:340|224:280,1,280,2|2,0:1|0:1,0:0:0:0:
156,32,25646,5,0,3:0:0:0:
56,80,26046,1,8,0:1:0:0:
56,192,26446,1,2,0:0:0:0:
56,304,26846,1,8,0:1:0:0:
156,352,27246,6,0,B|204:280|204:280|256:300|308:280|308:280|356:352,1,280,0|0,1:0|1:0,0:0:0:0:
356,120,28846,2,0,B|308:192|308:192|256:172|204:192|204:192|156:120,1,280,2|0,0:1|1:0,0:0:0:0:
152,352,30446,22,0,P|256:364|360:352,2,210,2|2|8,0:0|0:0|0:1,0:0:0:0:
48,304,32046,5,0,3:0:0:0:
32,192,32446,1,8,0:1:0:0:
48,80,32846,1,2,0:0:0:0:
148,32,33246,1,8,0:1:0:0:
256,60,33646,6,0,L|256:340,1,280,2|2,0:1|0:0,0:0:0:0:
468,260,35246,2,0,P|492:132|380:56,1,280,2|2,0:1|0:1,0:0:0:0:
130,56,36846,2,0,P|20:129|44:260,1,280,2|2,0:1|0:1,0:0:0:0:
256,192,38446,5,4,0:0:0:0:
448,76,39246,1,8,0:0:0:0:
448,308,40046,1,2,0:0:0:0:
256,192,40846,1,8,0:0:0:0:
64,308,41646,21,4,0:3:0:0:
64,76,42446,1,8,0:0:0:0:
256,192,43246,1,2,0:0:0:0:
448,76,44046,1,8,0:0:0:0:
320,240,44846,6,0,P|256:264|192:240,2,140,0|8|2,3:0|0:1|0:0,0:0:0:0:
164,76,46446,1,0,3:0:0:0:
256,12,46846,1,8,0:1:0:0:
348,76,47246,1,2,0:0:0:0:
420,268,48046,6,0,P|256:380|92:268,1,420,0|2,3:0|0:1,0:0:0:0:
48,168,49646,6,2,P|256:11|464:168,1,560,2|4,0:1|0:0,0:1:0:0:
368,352,52046,21,8,0:0:0:0:
144,352,52846,1,2,0:0:0:0:
256,156,53646,1,8,0:0:0:0:
456,52,54446,5,2,0:1:0:0:
456,164,54846,1,8,0:1:0:0:
364,228,55246,1,0,3:0:0:0:
148,156,56046,1,2,0:0:0:0:
56,220,56446,1,8,0:1:0:0:
56,332,56846,1,0,3:0:0:0:
308,336,57646,6,0,B|380:336|380:336|448:368|448:368|516:368,2,210,2|0|2,0:0|3:0|0:0,0:0:0:0:
204,336,59246,2,0,B|132:336|132:336|64:368|64:368|-4:368,2,210,2|0|2,0:0|3:0|0:0,0:0:0:0:
184,224,60846,6,2,P|256:22|328:224,1,560,2|6,0:1|0:1,0:1:0:0:
144,48,64046,21,0,3:0:0:0:
368,48,64846,1,2,0:0:0:0:
360,272,65646,1,0,3:0:0:0:
256,236,66046,1,2,3:0:0:0:
152,272,66446,1,0,3:0:0:0:
144,48,67246,5,0,3:0:0:0:
256,48,67646,1,2,0:0:0:0:
368,48,68046,1,0,3:0:0:0:
384,272,68846,2,0,P|256:320|128:272,1,280,2|0,0:0|3:0,0:0:0:0:
60,56,70446,21,0,3:0:0:0:
256,164,71246,1,2,0:0:0:0:
452,56,72046,1,0,3:0:0:0:
452,168,72446,1,2,3:0:0:0:
452,280,72846,1,2,0:0:0:0:
256,364,73646,21,0,3:0:0:0:
256,252,74046,1,2,3:0:0:0:
256,140,74446,1,2,0:0:0:0:
60,56,75246,1,0,3:0:0:0:
60,168,75646,1,2,3:0:0:0:
60,280,76046,1,2,0:1:0:0:
256,192,76846,5,4,0:3:0:0:
452,56,77646,1,8,0:0:0:0:
480,264,78446,2,0,P|424:352|292:272,1,280,2|0,0:0|3:0,0:0:0:0:
218,100,80046,6,0,P|116:24|32:120,1,280,2|0,0:0|3:0,0:0:0:0:
144,312,81646,1,8,0:0:0:0:
368,312,82446,1,8,0:0:0:0:
312,96,83246,5,0,3:0:0:0:
410,40,83646,1,8,0:1:0:0:
430,150,84046,1,2,0:0:0:0:
200,96,84846,1,0,3:0:0:0:
102,40,85246,1,8,0:1:0:0:
82,150,85646,1,2,0:0:0:0:
256,320,86446,22,0,B|284:252|284:252|228:132|228:132|256:64,2,280,2|2|2,0:1|0:0|0:1,0:0:0:0:
124,364,89646,5,0,3:0:0:0:
12,172,90446,1,8,0:0:0:0:
188,32,91246,2,0,P|261:130|324:32,1,280,2|8,0:0|0:0,0:0:0:0:
500,172,92846,5,0,3:0:0:0:
388,364,93646,1,8,0:0:0:0:
188,264,94446,2,2,P|261:166|324:264,1,280,2|8,0:0|0:0,0:0:0:0:
92,164,96046,6,0,P|256:53|420:164,1,420,8|2,0:3|0:0,0:0:0:0:
444,272,97646,2,0,B|380:356|312:304|320:260|256:228|192:260|200:304|132:356|68:272,1,420,8|2,0:3|0:0,0:0:0:0:
28,168,99246,21,0,3:0:0:0:
168,28,100046,1,2,0:0:0:0:
308,180,100846,2,2,P|256:379|204:180,1,560,0|6,3:0|0:1,0:0:0:0:
344,28,103246,5,8,0:1:0:0:
484,168,104046,1,2,0:0:0:0:
396,240,104446,1,0,3:0:0:0:
372,348,104846,1,8,0:1:0:0:
140,348,105646,5,2,0:1:0:0:
116,240,106046,1,0,3:0:0:0:
28,168,106446,1,8,0:1:0:0:
160,36,107246,6,0,P|256:122|352:36,2,280,0|2|0,3:0|0:0|3:0,0:0:0:0:
88,120,109246,21,2,0:0:0:0:
120,228,109646,2,0,B|256:260|256:260|392:228,1,280,8|0,0:1|3:0,0:0:0:0:
424,120,110846,1,2,0:0:0:0:
332,56,111246,5,8,0:1:0:0:
256,136,111646,1,2,0:0:0:0:
180,56,112046,1,4,0:1:0:0:
256,192,112446,12,6,115246,0:0:0:0:
