osu file format v14

[General]
AudioFilename: High Above the Land (short).mp3
AudioLeadIn: 1500
PreviewTime: 64046
Countdown: 0
SampleSet: Soft
StackLeniency: 0.5
Mode: 0
LetterboxInBreaks: 0
WidescreenStoryboard: 0

[Editor]
DistanceSpacing: 0.8
BeatDivisor: 4
GridSize: 4
TimelineZoom: 2.4

[Metadata]
Title:High Above the Land
TitleUnicode:High Above the Land
Artist:Jake Kaufman
ArtistUnicode:Jake Kaufman
Creator:Krisom
Version:Thermosphere
Source:Shovel Knight
Tags:Propeller The Flying Machine MoodyRPG Yatch Club Games VideoGame Video Game VGM Instrumental Electronic chiptune 8-bit 8bit
BeatmapID:2779584
BeatmapSetID:191319

[Difficulty]
HPDrainRate:6
CircleSize:4.6
OverallDifficulty:7.5
ApproachRate:8
SliderMultiplier:2.2
SliderTickRate:2

[Events]
//Background and Video events
0,0,"Propeller Knight BG.png",0,0
//Break Periods
//Storyboard Layer 0 (Background)
//Storyboard Layer 1 (Fail)
//Storyboard Layer 2 (Pass)
//Storyboard Layer 3 (Foreground)
//Storyboard Layer 4 (Overlay)
//Storyboard Sound Samples

[TimingPoints]
46,400,4,2,0,30,1,0
846,-100,4,2,0,35,0,0
1646,-100,4,2,0,40,0,0
2446,-100,4,2,0,45,0,0
3246,-100,4,2,0,50,0,0
4046,-100,4,2,0,55,0,0
4846,-100,4,2,0,60,0,0
5646,-100,4,2,0,65,0,0
6246,-100,4,2,0,55,0,0
11246,-100,4,2,0,70,0,0
82746,-74.0740740740741,4,2,0,70,0,0
83312,-100,4,2,0,70,0,0

[Colours]
Combo1 : 0,171,236
Combo2 : 63,150,33
Combo3 : 245,180,27
Combo4 : 126,171,78
Combo5 : 255,182,72

[HitObjects]
256,192,46,12,2,6046,0:0:0:0:
443,161,6446,6,0,B|459:204|423:251|388:241|353:230|317:277|333:320,1,220,2|0,0:0|0:0,0:0:0:0:
412,334,7046,2,0,B|443:299|424:243|388:241|352:238|333:182|364:147,1,220
304,84,7646,2,0,P|256:108|208:84,1,110,2|0,0:0|0:0,0:0:0:0:
147,147,8046,2,0,B|178:182|159:238|123:241|87:243|68:299|99:334,1,220,2|0,0:0|0:0,0:0:0:0:
178,320,8646,2,0,B|194:277|158:230|123:241|88:251|52:204|68:161,1,220
92,76,9246,1,2,0:0:0:0:
420,76,9646,5,0,0:0:0:0:
408,80,9746,1,0,0:0:0:0:
396,84,9846,2,0,B|348:112|316:84|284:56|236:84,1,165,2|0,0:0|0:0,0:0:0:0:
224,88,10246,1,0,0:0:0:0:
212,96,10346,1,0,0:0:0:0:
200,104,10446,2,0,B|152:132|120:104|88:76|40:104,1,165,2|0,0:0|0:0,0:0:0:0:
32,112,10846,1,0,0:0:0:0:
24,120,10946,1,0,0:0:0:0:
16,128,11046,1,2,0:0:0:0:
84,240,11346,37,0,1:0:0:0:
96,248,11446,1,2,0:1:0:0:
256,152,11646,1,0,1:0:0:0:
256,164,11746,1,8,0:1:0:0:
428,240,11946,1,0,1:0:0:0:
416,248,12046,1,2,0:1:0:0:
256,356,12446,1,4,1:3:0:0:
0,164,12846,38,0,B|40:204|40:204|96:212,1,110,4|2,1:2|0:0,0:0:0:0:
180,188,13246,2,0,B|140:148|140:148|84:140,1,110,8|0,0:1|0:0,0:0:0:0:
20,84,13646,1,2,0:0:0:0:
36,72,13746,1,2,0:0:0:0:
52,64,13846,1,0,0:0:0:0:
136,88,14046,1,8,0:1:0:0:
220,68,14246,1,0,0:0:0:0:
284,132,14446,2,0,B|332:160|364:132|396:104|444:132,2,165,2|2|2,0:1|0:1|0:1,0:0:0:0:
196,152,15246,1,2,0:0:0:0:
184,160,15346,1,2,0:0:0:0:
172,168,15446,1,0,3:0:0:0:
92,204,15646,1,8,0:1:0:0:
164,256,15846,1,2,0:0:0:0:
284,352,16046,6,0,P|312:312|376:320,1,110,2|2,0:1|0:0,0:0:0:0:
424,352,16346,2,0,L|408:188,1,165,2|2,0:1|0:1,0:0:0:0:
396,96,16846,2,0,L|340:96,2,55,2|2|0,0:0|0:0|3:0,0:0:0:0:
484,84,17246,1,8,0:1:0:0:
428,16,17446,1,2,0:0:0:0:
448,168,17646,2,0,B|421:213|421:213|365:225,1,110,2|2,0:1|0:0,0:0:0:0:
321,279,17946,2,0,B|294:233|294:233|312:178,1,110,2|2,0:1|0:0,0:0:0:0:
287,115,18246,2,0,B|339:115|339:115|378:157,1,110,2|0,0:1|1:0,0:0:0:0:
432,280,18646,1,0,3:0:0:0:
372,344,18846,1,8,0:1:0:0:
352,352,18946,1,8,0:1:0:0:
336,360,19046,1,4,0:3:0:0:
196,320,19246,21,4,0:3:0:0:
156,244,19446,2,0,L|104:272,2,55,0|0|8,3:0|3:0|0:1,0:0:0:0:
236,208,19846,1,0,3:0:0:0:
320,176,20046,2,0,P|384:220|460:188,2,165,2|2|2,0:1|0:1|0:1,0:0:0:0:
304,88,20846,2,0,P|256:64|208:88,1,110,2|0,0:1|3:0,0:0:0:0:
147,68,21146,2,0,P|150:121|195:151,1,110,2|0,0:1|3:0,0:0:0:0:
209,215,21446,2,0,P|253:185|257:131,1,110,2|2,0:1|0:0,0:0:0:0:
88,84,21846,1,0,0:0:0:0:
12,132,22046,1,8,0:1:0:0:
20,260,22246,5,0,3:0:0:0:
40,264,22346,1,0,3:0:0:0:
60,268,22446,1,2,0:1:0:0:
144,288,22646,1,0,3:0:0:0:
144,288,22746,2,0,P|192:340|244:328,1,110,2|0,0:1|0:0,0:0:0:0:
210,275,23046,2,0,B|262:255|262:255|318:263,1,110,2|2,0:1|0:0,0:0:0:0:
396,272,23446,2,0,P|452:256|460:204,1,110,0|8,3:0|0:1,0:0:0:0:
492,124,23846,1,0,0:0:0:0:
444,48,24046,6,0,L|340:100,1,110,2|0,0:1|3:0,0:0:0:0:
308,48,24346,2,0,L|204:100,1,110,2|0,0:1|3:0,0:0:0:0:
172,48,24646,2,0,L|68:100,1,110,2|0,0:1|3:0,0:0:0:0:
48,180,25046,1,2,0:0:0:0:
60,192,25146,1,2,0:0:0:0:
72,204,25246,1,2,0:0:0:0:
84,216,25346,1,2,0:0:0:0:
96,228,25446,1,2,0:0:0:0:
192,312,25646,5,0,1:0:0:0:
336,332,25846,1,2,0:0:0:0:
236,232,26046,1,8,0:1:0:0:
256,380,26246,1,8,0:3:0:0:
324,244,26446,2,0,P|376:152|324:60,1,220,2|8,0:0|0:1,0:0:0:0:
308,60,26946,1,2,0:0:0:0:
292,60,27046,1,0,3:0:0:0:
276,60,27146,1,2,0:0:0:0:
260,60,27246,2,0,P|228:96|168:88,1,110,2|0,0:1|3:0,0:0:0:0:
132,40,27546,2,0,P|36:32|8:96,1,165,2|2,0:1|0:1,0:0:0:0:
44,164,28046,2,0,L|12:216,4,55,2|2|0|2|8,0:0|0:0|0:0|0:0|0:1,0:0:0:0:
156,168,28646,21,2,0:0:0:0:
168,184,28746,1,2,0:0:0:0:
184,200,28846,2,0,P|224:256|260:236,1,110,2|0,0:1|3:0,0:0:0:0:
299,203,29146,2,0,B|347:175|379:203|411:231|459:203,1,165,2|2,0:1|0:1,0:0:0:0:
496,128,29646,2,0,L|508:16,1,110,2|0,0:0|3:0,0:0:0:0:
496,128,30046,2,0,P|480:76|424:48,1,110,8|0,0:1|0:0,0:0:0:0:
356,88,30446,5,2,0:1:0:0:
276,52,30646,1,0,3:0:0:0:
276,64,30746,1,2,0:1:0:0:
200,88,30946,1,0,3:0:0:0:
200,100,31046,2,0,P|176:148|116:132,1,110,2|2,0:1|0:0,0:0:0:0:
112,152,31346,1,2,0:0:0:0:
100,160,31446,1,0,0:0:0:0:
88,168,31546,1,2,0:0:0:0:
76,176,31646,1,8,0:1:0:0:
108,284,31846,5,2,0:0:0:0:
124,276,31946,1,2,0:0:0:0:
140,268,32046,1,0,1:0:0:0:
224,288,32246,2,0,L|232:348,2,55,2|2|8,0:0|0:0|0:1,0:0:0:0:
204,204,32646,1,0,3:0:0:0:
188,116,32846,2,0,P|256:76|324:116,2,165,2|2|2,0:1|0:1|0:1,0:0:0:0:
188,204,33646,2,0,P|256:244|324:204,2,165,2|2|2,0:1|0:1|0:1,0:0:0:0:
256,124,34446,5,2,0:0:0:0:
256,136,34546,1,2,0:0:0:0:
256,148,34646,1,0,3:0:0:0:
256,160,34746,1,2,0:0:0:0:
256,172,34846,1,8,0:1:0:0:
256,260,35046,1,2,0:0:0:0:
188,316,35246,22,0,B|162:365|162:365|107:368,1,110,2|2,0:1|0:0,0:0:0:0:
49,342,35546,2,0,B|19:296|19:296|44:247,1,110,2|2,0:1|0:0,0:0:0:0:
97,211,35846,2,0,B|152:207|152:207|181:253,1,110,2|0,0:1|3:0,0:0:0:0:
296,360,36246,1,0,3:0:0:0:
216,360,36446,1,8,0:1:0:0:
316,292,36646,1,2,0:0:0:0:
320,304,36746,1,2,0:0:0:0:
324,316,36846,2,0,B|350:365|350:365|405:368,1,110,2|2,0:1|0:0,0:0:0:0:
463,342,37146,2,0,B|493:296|493:296|468:247,1,110,2|2,0:1|0:0,0:0:0:0:
415,211,37446,2,0,B|360:207|360:207|331:253,1,110,2|0,0:1|3:0,0:0:0:0:
256,200,37846,5,2,0:0:0:0:
256,188,37946,1,2,0:0:0:0:
256,176,38046,1,8,0:1:0:0:
256,164,38146,1,8,0:1:0:0:
256,152,38246,1,8,0:3:0:0:
256,140,38346,1,8,0:3:0:0:
256,128,38446,1,4,1:2:0:0:
204,56,38646,5,2,0:0:0:0:
120,88,38846,2,0,P|84:152|36:136,1,110,8|0,0:1|0:0,0:0:0:0:
34,241,39246,2,0,P|106:229|130:265,1,110,8|2,0:3|0:0,0:0:0:0:
133,262,39546,1,8,0:1:0:0:
192,352,39746,1,8,0:1:0:0:
200,344,39846,1,0,3:0:0:0:
208,336,39946,1,2,0:0:0:0:
216,328,40046,2,0,B|244:296|244:296|320:296,1,110,0|2,1:0|0:0,0:0:0:0:
448,332,40446,2,0,B|420:364|420:364|344:364,1,110,8|0,0:1|3:0,0:0:0:0:
216,328,40846,2,0,P|248:280|240:224,1,110,8|2,0:3|0:0,0:0:0:0:
236,216,41146,1,8,0:1:0:0:
304,108,41346,5,8,0:1:0:0:
304,120,41446,1,0,3:0:0:0:
304,132,41546,1,2,0:0:0:0:
304,144,41646,2,0,P|320:194|371:211,1,110,0|2,1:1|0:0,0:0:0:0:
462,121,42046,2,0,P|409:111|368:146,1,110,8|0,0:1|3:0,0:0:0:0:
403,269,42446,2,0,P|438:229|427:176,1,110,8|2,0:3|0:0,0:0:0:0:
372,212,42746,2,0,P|336:251|347:304,1,110,8|8,0:1|0:1,0:0:0:0:
360,316,43046,1,0,3:0:0:0:
376,328,43146,1,2,0:0:0:0:
392,340,43246,22,0,P|428:376|488:348,1,110,0|2,1:0|0:0,0:0:0:0:
372,212,43646,2,0,P|336:176|276:204,1,110,8|0,0:1|3:0,0:0:0:0:
120,284,44046,2,0,P|156:320|216:292,1,110,8|2,0:3|0:0,0:0:0:0:
100,156,44446,2,0,P|64:120|4:148,1,110,8|0,0:1|3:0,0:0:0:0:
164,48,44846,6,0,P|200:84|260:56,1,110,2|0,0:1|3:0,0:0:0:0:
296,24,45146,2,0,P|376:8|412:76,1,165,2|2,0:1|0:1,0:0:0:0:
380,152,45646,2,0,P|356:208|376:256,1,110,8|2,0:3|0:0,0:0:0:0:
432,316,46046,2,0,P|456:260|436:212,1,110,8|2,0:1|0:0,0:0:0:0:
348,336,46446,2,0,P|312:300|252:328,1,110,2|0,0:1|3:0,0:0:0:0:
216,360,46746,2,0,P|136:376|100:308,1,165,2|2,0:1|0:1,0:0:0:0:
132,232,47246,2,0,P|156:176|136:128,1,110,8|2,0:3|0:0,0:0:0:0:
72,40,47646,21,8,0:1:0:0:
88,40,47746,1,8,0:1:0:0:
104,40,47846,1,8,0:3:0:0:
120,40,47946,1,8,0:3:0:0:
136,40,48046,2,0,P|180:12|224:40,1,110,2|2,0:1|0:0,0:0:0:0:
212,104,48346,2,0,P|255:132|300:104,1,110,2|2,0:1|0:0,0:0:0:0:
288,40,48646,2,0,P|331:11|376:39,1,110,2|0,0:1|3:0,0:0:0:0:
404,124,49046,1,2,0:0:0:0:
356,192,49246,22,0,B|312:224|268:224|256:192|244:160|200:160|156:192,1,220,8|0,0:1|1:0,0:0:0:0:
152,280,49846,2,0,L|92:280,2,55,2|2|8,0:0|0:0|0:3,0:0:0:0:
200,356,50246,2,0,L|136:356,2,55,2|2|0,0:0|0:0|1:0,0:0:0:0:
288,356,50646,1,2,0:0:0:0:
300,356,50746,1,2,0:0:0:0:
312,356,50846,1,8,0:3:0:0:
324,356,50946,1,8,0:3:0:0:
336,356,51046,1,8,0:1:0:0:
348,356,51146,1,8,0:1:0:0:
360,356,51246,1,4,1:2:0:0:
448,356,51446,5,2,0:0:0:0:
404,280,51646,2,0,B|368:280|368:280|328:280|316:232,1,110,8|0,0:1|3:0,0:0:0:0:
280,152,52046,2,0,B|316:152|316:152|356:152|368:200,1,110,8|2,3:0|0:0,0:0:0:0:
372,208,52346,1,8,0:1:0:0:
260,264,52546,2,0,L|288:324,3,55,8|0|2|0,0:1|3:0|0:0|1:0,0:0:0:0:
200,344,53046,1,2,0:0:0:0:
132,288,53246,2,0,P|88:328|40:312,1,110,8|0,0:1|3:0,0:0:0:0:
132,288,53646,2,0,P|84:251|92:201,1,110,8|2,3:0|0:0,0:0:0:0:
96,196,53946,1,8,0:1:0:0:
132,116,54146,5,8,0:1:0:0:
144,116,54246,1,0,3:0:0:0:
156,116,54346,1,2,0:0:0:0:
168,116,54446,1,2,0:1:0:0:
168,116,54846,1,8,0:1:0:0:
260,116,55046,2,0,B|300:116|300:116|324:128|324:128|368:128,1,110,0|8,3:0|3:0,0:0:0:0:
452,156,55446,1,2,0:0:0:0:
452,168,55546,1,8,0:1:0:0:
404,244,55746,6,0,L|456:272,2,55,8|0|2,0:1|3:0|0:0,0:0:0:0:
392,240,56046,1,0,1:0:0:0:
312,201,56246,1,2,0:0:0:0:
246,338,56446,1,8,0:1:0:0:
319,289,56646,1,2,0:0:0:0:
233,162,56846,1,8,3:0:0:0:
240,250,57046,1,2,0:0:0:0:
246,338,57246,21,8,0:1:0:0:
232,340,57346,1,8,0:1:0:0:
220,344,57446,1,8,0:0:0:0:
208,348,57546,1,8,0:0:0:0:
196,352,57646,2,0,B|148:380|116:352|84:324|36:352,2,165,2|2|2,0:0|0:0|0:1,0:0:0:0:
304,276,58446,2,0,P|336:224|304:188,1,110,8|2,0:3|0:0,0:0:0:0:
201,190,58846,2,0,P|175:234|207:275,1,110,8|0,0:1|3:0,0:0:0:0:
316,352,59246,2,0,B|364:380|396:352|428:324|476:352,2,165,2|2|2,0:0|0:0|0:1,0:0:0:0:
208,276,60046,2,0,P|256:252|304:276,2,110,8|2|8,3:0|0:0|0:1,0:0:0:0:
256,348,60646,1,2,0:0:0:0:
256,336,60746,1,2,0:0:0:0:
256,324,60846,1,0,1:0:0:0:
368,248,61046,5,2,0:0:0:0:
376,136,61246,2,0,P|328:96|280:112,1,110,8|2,0:1|0:0,0:0:0:0:
204,208,61646,2,0,P|256:224|308:208,1,110,8|2,0:3|0:0,0:0:0:0:
225,107,62046,2,0,P|172:98|135:136,1,110,8|2,0:1|0:0,0:0:0:0:
144,248,62446,1,4,0:1:0:0:
144,248,64046,21,2,0:0:0:0:
212,308,64246,1,0,3:0:0:0:
56,272,64446,1,0,1:0:0:0:
162,166,64646,1,0,0:0:0:0:
125,329,64846,1,8,0:0:0:0:
75,187,65046,1,0,3:0:0:0:
64,184,65146,1,8,0:0:0:0:
231,223,65346,1,0,3:0:0:0:
243,225,65446,1,8,0:0:0:0:
328,248,65646,2,0,P|368:296|412:276,1,110,2|2,0:1|0:0,0:0:0:0:
444,232,65946,2,0,B|444:160|444:160|444:104|396:80,1,165,2|2,0:1|0:1,0:0:0:0:
308,84,66446,2,0,L|308:152,3,55,8|8|2|2,3:0|3:0|0:0|0:0,0:0:0:0:
256,168,66846,2,0,L|256:236,3,55,8|8|8|8,0:0|0:0|0:3|0:3,0:0:0:0:
256,284,67246,21,8,0:3:0:0:
336,324,67446,1,2,0:0:0:0:
424,324,67646,2,0,B|424:288|424:288|436:260|436:260|436:212,1,110,0|0,1:0|3:0,0:0:0:0:
436,128,68046,1,8,0:0:0:0:
364,76,68246,1,0,0:0:0:0:
352,76,68346,1,8,0:0:0:0:
288,28,68546,1,0,0:0:0:0:
276,28,68646,1,8,0:0:0:0:
188,28,68846,2,0,B|104:28|104:28|76:52|76:52|12:52,2,165,2|2|2,0:1|0:1|0:1,0:0:0:0:
236,100,69646,1,2,0:0:0:0:
236,108,69946,1,2,0:0:0:0:
452,296,70446,5,8,0:3:0:0:
376,344,70646,1,0,3:0:0:0:
364,344,70746,1,0,3:0:0:0:
352,344,70846,2,0,P|292:332|252:376,1,110,0|0,1:0|3:0,0:0:0:0:
188,308,71246,1,8,0:0:0:0:
100,308,71446,1,0,0:0:0:0:
100,296,71546,1,8,0:0:0:0:
24,244,71746,1,0,0:0:0:0:
36,244,71846,1,8,0:0:0:0:
116,212,72046,6,0,P|168:228|208:192,1,110,2|2,0:1|0:0,0:0:0:0:
192,132,72346,2,0,B|252:132|252:132|288:152|288:152|360:152,1,165,2|2,0:1|0:1,0:0:0:0:
432,192,72846,2,0,L|432:260,2,55,8|8|2,0:3|0:3|0:0,0:0:0:0:
432,176,73146,1,2,0:0:0:0:
432,160,73246,1,2,0:3:0:0:
432,144,73346,1,8,0:0:0:0:
432,128,73446,1,2,0:3:0:0:
432,112,73546,1,2,0:3:0:0:
432,96,73646,1,8,0:3:0:0:
356,52,73846,5,2,0:0:0:0:
316,124,74046,2,0,P|248:164|216:152,1,110,0|0,1:0|3:0,0:0:0:0:
144,120,74446,1,8,0:0:0:0:
92,192,74646,2,0,L|32:192,1,55,0|8,0:0|0:0,0:0:0:0:
132,268,74946,2,0,L|204:268,1,55,0|8,0:0|0:0,0:0:0:0:
276,268,75246,21,8,0:3:0:0:
404,212,75446,1,2,0:0:0:0:
332,336,75646,1,0,1:0:0:0:
320,192,75846,1,0,0:0:0:0:
416,300,76046,1,8,3:0:0:0:
276,268,76246,1,2,0:0:0:0:
268,276,76346,1,2,0:0:0:0:
260,284,76446,1,8,0:0:0:0:
252,292,76546,1,8,0:0:0:0:
244,300,76646,1,8,0:3:0:0:
236,308,76746,1,2,0:3:0:0:
228,316,76846,1,8,0:3:0:0:
116,304,77046,22,0,P|60:296|20:336,2,110,2|0|0,0:0|1:0|3:0,0:0:0:0:
164,228,77646,2,0,P|92:176|148:76,1,220,8|2,0:3|0:0,0:0:0:0:
156,72,78146,1,8,0:3:0:0:
168,68,78246,1,8,0:3:0:0:
180,64,78346,1,2,0:0:0:0:
192,60,78446,2,0,P|256:100|244:140,1,110,2|0,0:0|3:0,0:0:0:0:
320,324,78846,2,0,P|256:284|268:244,1,110,0|0,1:0|0:0,0:0:0:0:
324,192,79246,2,0,L|376:212,3,55,8|8|2|2,0:1|0:1|0:0|0:0,0:0:0:0:
396,220,79646,1,8,0:0:0:0:
416,228,79746,1,8,0:0:0:0:
436,236,79846,1,8,0:3:0:0:
460,244,79946,1,8,0:3:0:0:
480,252,80046,1,0,3:0:0:0:
492,348,80246,5,2,0:0:0:0:
408,320,80446,2,0,P|364:360|316:344,1,110,0|0,1:0|3:0,0:0:0:0:
256,288,80846,1,8,0:0:0:0:
200,216,81046,1,0,3:0:0:0:
192,208,81146,2,0,P|144:240|88:228,1,110,8|0,0:0|3:0,0:0:0:0:
88,224,81446,1,8,0:0:0:0:
72,136,81646,2,0,B|124:132|124:132|160:88,1,110,2|0,0:0|0:0,0:0:0:0:
71,135,82046,2,0,B|42:92|42:92|-13:83,1,110,0|0,1:0|0:0,0:0:0:0:
71,135,82446,2,0,B|49:183|49:183|69:236,1,110,0|0,3:0|0:0,0:0:0:0:
92,324,82846,2,0,L|32:352,6,49.5000001888275,0|0|0|2|2|2|8,3:0|3:0|3:0|0:0|0:0|0:0|0:3,0:0:0:0:
212,360,83446,21,0,3:0:0:0:
232,356,83546,1,0,3:0:0:0:
252,352,83646,1,0,1:0:0:0:
340,364,83846,1,0,3:0:0:0:
308,280,84046,1,8,0:0:0:0:
276,200,84246,1,0,3:0:0:0:
276,184,84346,1,8,0:0:0:0:
224,104,84546,1,0,3:0:0:0:
224,120,84646,1,8,0:0:0:0:
276,200,84846,2,0,P|308:240|360:228,1,110,2|0,0:1|0:0,0:0:0:0:
392,172,85146,2,0,P|476:148|512:216,1,165,2|2,0:1|0:1,0:0:0:0:
480,288,85646,6,0,L|416:260,3,55,0|0|2|2,3:0|3:0|0:0|0:0,0:0:0:0:
412,256,86046,1,8,0:0:0:0:
396,248,86146,1,8,0:0:0:0:
380,240,86246,1,2,0:0:0:0:
364,232,86346,1,2,0:0:0:0:
348,224,86446,1,8,3:0:0:0:
268,192,86646,22,0,B|224:192|224:192|200:204|200:204|160:204,1,110,2|0,0:0|1:0,0:0:0:0:
72,200,87046,1,8,3:0:0:0:
64,188,87146,1,8,3:0:0:0:
56,176,87246,2,0,P|29:129|50:80,1,110,8|0,0:0|3:0,0:0:0:0:
27,19,87546,2,0,P|80:20|113:63,1,110,8|2,0:2|0:0,0:0:0:0:
177,74,87846,2,0,P|150:119|97:126,2,110,8|0|2,0:0|3:0|0:0,0:0:0:0:
260,76,88446,2,0,L|316:56,2,55,8|0|2,0:0|0:0|0:0,0:0:0:0:
244,160,88846,2,0,L|188:140,2,55,8|0|2,0:0|0:0|0:0,0:0:0:0:
328,184,89246,21,8,0:0:0:0:
337,199,89346,1,0,0:0:0:0:
346,214,89446,1,2,0:0:0:0:
355,230,89546,1,2,0:0:0:0:
364,245,89646,1,4,0:3:0:0:
364,245,90246,1,0,3:0:0:0:
304,308,90446,2,0,P|376:333|444:284,2,165,0|2|0,3:0|0:0|3:0,0:0:0:0:
208,308,91246,2,0,P|135:333|68:284,2,165,0|2|0,3:0|0:0|0:0,0:0:0:0:
180,224,92046,2,0,P|255:158|332:224,1,220,8|2,3:0|0:0,0:0:0:0:
448,176,92646,5,0,3:0:0:0:
452,160,92746,1,0,3:0:0:0:
456,144,92846,2,0,P|418:51|324:85,1,220,8|2,0:3|0:0,0:0:0:0:
256,132,93446,1,0,3:0:0:0:
336,164,93646,1,2,0:0:0:0:
256,272,93946,1,2,0:0:0:0:
176,164,94246,1,2,0:0:0:0:
187,84,94446,2,0,P|93:51|56:144,1,220,8|0,0:3|0:0,0:0:0:0:
324,84,95246,2,0,P|418:51|456:144,1,220,8|2,0:3|0:0,0:0:0:0:
328,264,96046,6,0,B|384:264|384:264|424:296|424:296|488:296,2,165,2|2|2,0:0|0:0|0:0,0:0:0:0:
296,180,96846,2,0,B|324:132|324:132|296:84,1,110,8|0,0:3|0:0,0:0:0:0:
216,204,97246,2,0,B|188:252|188:252|216:300,1,110,2|0,0:3|0:0,0:0:0:0:
184,120,97646,2,0,B|128:120|128:120|88:88|88:88|24:88,2,165,2|2|2,0:0|0:0|0:0,0:0:0:0:
216,204,98446,2,0,B|188:252|188:252|216:300,1,110,8|0,0:3|0:0,0:0:0:0:
296,180,98846,2,0,B|324:132|324:132|296:84,1,110,2|2,0:3|0:0,0:0:0:0:
216,120,99246,6,0,P|168:88|112:116,1,110,8|0,0:3|0:0,0:0:0:0:
184,232,99646,2,0,P|152:280|180:336,1,110,2|0,0:3|0:0,0:0:0:0:
296,264,100046,2,0,P|344:296|400:268,1,110,8|0,0:3|0:0,0:0:0:0:
328,152,100446,2,0,P|360:104|332:48,1,110,2|0,0:3|0:0,0:0:0:0:
224,216,100846,22,0,L|224:272,3,55,8|8|2|2,0:3|0:3|0:3|0:3,0:0:0:0:
288,272,101246,2,0,L|288:216,3,55,8|8|2|2,0:3|0:3|0:3|0:3,0:0:0:0:
256,164,101646,1,8,0:3:0:0:
256,152,101746,1,8,0:3:0:0:
256,140,101846,1,2,0:3:0:0:
256,128,101946,1,2,0:3:0:0:
256,116,102046,1,2,0:0:0:0:
256,104,102146,1,2,0:0:0:0:
256,92,102246,1,2,0:3:0:0:
256,80,102346,1,2,0:3:0:0:
256,68,102446,1,6,1:1:0:0:
332,28,102646,5,2,0:0:0:0:
380,100,102846,2,0,P|408:152|456:148,1,110,8|0,0:1|3:0,0:0:0:0:
468,236,103246,2,0,B|420:264|388:236|356:208|308:236,2,165,2|2|2,0:1|0:0|0:1,0:0:0:0:
480,148,104046,2,0,P|500:80|480:48,1,110,2|2,0:1|0:0,0:0:0:0:
428,16,104346,2,0,P|380:56|280:44,1,165,2|2,0:1|0:1,0:0:0:0:
216,100,104846,1,2,0:0:0:0:
216,112,104946,1,8,3:0:0:0:
216,124,105046,1,8,3:0:0:0:
136,64,105246,1,8,0:1:0:0:
40,144,105446,5,8,0:1:0:0:
56,160,105546,1,8,0:1:0:0:
72,176,105646,2,0,P|96:276|204:272,1,220,2|8,1:1|0:1,0:0:0:0:
256,212,106246,1,0,3:0:0:0:
344,220,106446,2,0,L|456:256,1,110,8|8,0:1|0:3,0:0:0:0:
498,212,106746,2,0,L|473:97,1,110,8|8,0:1|0:3,0:0:0:0:
413,83,107046,2,0,L|325:161,1,110,8|2,0:1|0:3,0:0:0:0:
256,212,107446,1,8,0:3:0:0:
231,295,107646,1,8,0:1:0:0:
85,254,107846,1,8,0:3:0:0:
170,233,108046,1,2,0:3:0:0:
207,380,108246,1,8,0:3:0:0:
146,317,108446,5,8,0:1:0:0:
132,304,108546,1,8,0:0:0:0:
120,292,108646,1,8,0:3:0:0:
108,280,108746,1,8,0:3:0:0:
96,268,108846,2,0,P|56:228|68:180,1,110,2|2,1:1|0:0,0:0:0:0:
104,128,109146,2,0,B|164:128|164:128|196:152|196:152|268:152,1,165,2|2,0:1|0:1,0:0:0:0:
340,120,109646,2,0,B|368:168|368:168|340:216,1,110,8|2,0:3|0:0,0:0:0:0:
416,344,110046,22,0,B|388:296|388:296|416:248,1,110,8|2,0:1|0:0,0:0:0:0:
432,232,110346,1,2,0:0:0:0:
444,216,110446,2,0,B|471:168|471:168|443:120,1,110,2|2,1:1|0:0,0:0:0:0:
400,72,110746,2,0,B|352:44|320:72|288:100|240:72,1,165,2|2,0:1|0:1,0:0:0:0:
152,48,111246,2,0,P|88:52|64:100,1,110,8|2,0:3|0:0,0:0:0:0:
108,164,111646,2,0,P|172:160|196:112,1,110,8|2,0:1|0:0,0:0:0:0:
212,120,111946,1,2,0:0:0:0:
228,116,112046,1,4,1:0:0:0:
256,192,112246,12,6,115246,0:0:0:0:
